osu file format v14

[General]
AudioFilename: audio.mp3
AudioLeadIn: 0
PreviewTime: 65575
Countdown: 0
SampleSet: Normal
StackLeniency: 0.7
Mode: 1
LetterboxInBreaks: 0
WidescreenStoryboard: 0

[Editor]
Bookmarks: 620,3120,13120,23120,33120,43120,50620,68120,85620,88120,98120,108120,118120,128120,135620
DistanceSpacing: 1.8
BeatDivisor: 4
GridSize: 32
TimelineZoom: 2.5

[Metadata]
Title:Colorful
TitleUnicode:カラフル
Artist:HAG
ArtistUnicode:H△G
Creator:Sotarks
Version:Ayyri's Oni
Source:
Tags:akitoshi fieryrage corinn -laura- nikakis snownino_ miraclee nevo reform kujinn armin a_r_m_i_n smokelind onlybiscuit brotarks lami taeyang kroytz japanese female vocalist jpop j-pop cut edit short version everlasting night of teenage girls ayyri eiri- colourful
BeatmapID:1991391
BeatmapSetID:931452

[Difficulty]
HPDrainRate:5
CircleSize:2
OverallDifficulty:6
ApproachRate:10
SliderMultiplier:1.4
SliderTickRate:1

[Events]
//Background and Video events
0,0,"bg.jpg",0,0
//Break Periods
//Storyboard Layer 0 (Background)
//Storyboard Layer 1 (Fail)
//Storyboard Layer 2 (Pass)
//Storyboard Layer 3 (Foreground)
//Storyboard Sound Samples

[TimingPoints]
620,312.5,4,1,0,75,1,0
68120,-100,4,1,0,75,0,1
85620,-100,4,1,0,75,0,0

[Colours]
Combo1 : 70,163,255
Combo2 : 94,255,163
Combo3 : 255,132,211
Combo4 : 231,255,60

[HitObjects]
256,192,620,5,0,0:0:0:0:
256,192,932,1,8,0:0:0:0:
256,192,1166,1,0,0:0:0:0:
256,192,1245,1,8,0:0:0:0:
256,192,1401,1,0,0:0:0:0:
256,192,1713,1,0,0:0:0:0:
256,192,2026,1,8,0:0:0:0:
256,192,2182,1,8,0:0:0:0:
256,192,2338,1,0,0:0:0:0:
256,192,2495,1,8,0:0:0:0:
256,192,2651,1,0,0:0:0:0:
256,192,2807,1,8,0:0:0:0:
256,192,3120,1,12,0:0:0:0:
256,192,3276,1,4,0:0:0:0:
256,192,5620,1,12,0:0:0:0:
256,192,5776,1,4,0:0:0:0:
256,192,8120,1,12,0:0:0:0:
256,192,8276,1,4,0:0:0:0:
256,192,9057,1,0,0:0:0:0:
256,192,9682,1,0,0:0:0:0:
256,192,10307,1,0,0:0:0:0:
256,192,10620,1,12,0:0:0:0:
256,192,10776,1,4,0:0:0:0:
256,192,11088,1,8,0:0:0:0:
256,192,11401,1,0,0:0:0:0:
256,192,11557,1,8,0:0:0:0:
256,192,12026,1,8,0:0:0:0:
256,192,12338,1,0,0:0:0:0:
256,192,12495,1,8,0:0:0:0:
256,192,12573,1,8,0:0:0:0:
256,192,12651,1,8,0:0:0:0:
256,192,12807,1,4,0:0:0:0:
256,192,13120,1,12,0:0:0:0:
256,192,13432,1,8,0:0:0:0:
256,192,13588,1,0,0:0:0:0:
256,192,13745,1,8,0:0:0:0:
256,192,13823,1,8,0:0:0:0:
256,192,13901,1,8,0:0:0:0:
256,192,14057,1,0,0:0:0:0:
256,192,14213,1,0,0:0:0:0:
256,192,14370,1,8,0:0:0:0:
256,192,14682,1,0,0:0:0:0:
256,192,14838,1,0,0:0:0:0:
256,192,14995,1,8,0:0:0:0:
256,192,15307,1,0,0:0:0:0:
256,192,15620,1,12,0:0:0:0:
256,192,15932,1,8,0:0:0:0:
256,192,16010,1,8,0:0:0:0:
256,192,16088,1,0,0:0:0:0:
256,192,16245,1,8,0:0:0:0:
256,192,16401,1,0,0:0:0:0:
256,192,16557,1,8,0:0:0:0:
256,192,16713,1,8,0:0:0:0:
256,192,16870,1,0,0:0:0:0:
256,192,16948,1,0,0:0:0:0:
256,192,17026,1,0,0:0:0:0:
256,192,17182,1,8,0:0:0:0:
256,192,17495,1,0,0:0:0:0:
256,192,17807,1,8,0:0:0:0:
256,192,18120,1,12,0:0:0:0:
256,192,18432,1,8,0:0:0:0:
256,192,18588,1,0,0:0:0:0:
256,192,18745,1,8,0:0:0:0:
256,192,18823,1,8,0:0:0:0:
256,192,18901,1,8,0:0:0:0:
256,192,19057,1,0,0:0:0:0:
256,192,19213,1,0,0:0:0:0:
256,192,19370,1,8,0:0:0:0:
256,192,19682,1,0,0:0:0:0:
256,192,19838,1,0,0:0:0:0:
256,192,19995,1,8,0:0:0:0:
256,192,20307,1,0,0:0:0:0:
256,192,20620,1,12,0:0:0:0:
256,192,20932,1,8,0:0:0:0:
256,192,21010,1,8,0:0:0:0:
256,192,21088,1,0,0:0:0:0:
256,192,21245,1,8,0:0:0:0:
256,192,21401,1,0,0:0:0:0:
256,192,21557,1,8,0:0:0:0:
256,192,21713,1,12,0:0:0:0:
256,192,22026,1,0,0:0:0:0:
256,192,22182,1,8,0:0:0:0:
256,192,22338,1,0,0:0:0:0:
256,192,22495,1,0,0:0:0:0:
256,192,22729,1,0,0:0:0:0:
256,192,22807,1,8,0:0:0:0:
256,192,22963,1,0,0:0:0:0:
256,192,23120,1,12,0:0:0:0:
256,192,23432,1,8,0:0:0:0:
256,192,23745,1,0,0:0:0:0:
256,192,23901,1,0,0:0:0:0:
256,192,24057,1,8,0:0:0:0:
256,192,24370,1,0,0:0:0:0:
256,192,24526,1,0,0:0:0:0:
256,192,24682,1,8,0:0:0:0:
256,192,24838,1,0,0:0:0:0:
256,192,25151,1,0,0:0:0:0:
256,192,25307,1,8,0:0:0:0:
256,192,25620,1,0,0:0:0:0:
256,192,25932,1,8,0:0:0:0:
256,192,26245,1,0,0:0:0:0:
256,192,26401,1,0,0:0:0:0:
256,192,26557,1,8,0:0:0:0:
256,192,26870,1,0,0:0:0:0:
256,192,27026,1,0,0:0:0:0:
256,192,27182,1,8,0:0:0:0:
256,192,27338,1,0,0:0:0:0:
256,192,27651,1,0,0:0:0:0:
256,192,27807,1,8,0:0:0:0:
256,192,28120,1,0,0:0:0:0:
256,192,28432,1,8,0:0:0:0:
256,192,28745,1,0,0:0:0:0:
256,192,28901,1,0,0:0:0:0:
256,192,29057,1,8,0:0:0:0:
256,192,29370,1,0,0:0:0:0:
256,192,29526,1,0,0:0:0:0:
256,192,29682,1,8,0:0:0:0:
256,192,29838,1,0,0:0:0:0:
256,192,30151,1,0,0:0:0:0:
256,192,30307,1,8,0:0:0:0:
256,192,30620,1,0,0:0:0:0:
256,192,30932,1,8,0:0:0:0:
256,192,31245,1,0,0:0:0:0:
256,192,31401,1,8,0:0:0:0:
256,192,31714,1,0,0:0:0:0:
256,192,32026,1,0,0:0:0:0:
256,192,32182,1,8,0:0:0:0:
256,192,32338,1,0,0:0:0:0:
256,192,32495,1,8,0:0:0:0:
256,192,32651,1,8,0:0:0:0:
256,192,32807,1,4,0:0:0:0:
256,192,33120,1,12,0:0:0:0:
256,192,33432,1,8,0:0:0:0:
256,192,33588,1,0,0:0:0:0:
256,192,33745,1,8,0:0:0:0:
256,192,33823,1,8,0:0:0:0:
256,192,33901,1,0,0:0:0:0:
256,192,34057,1,0,0:0:0:0:
256,192,34213,1,8,0:0:0:0:
256,192,34526,1,0,0:0:0:0:
256,192,34682,1,8,0:0:0:0:
256,192,34838,1,0,0:0:0:0:
256,192,34995,1,0,0:0:0:0:
256,192,35151,1,8,0:0:0:0:
256,192,35229,1,0,0:0:0:0:
256,192,35307,1,8,0:0:0:0:
256,192,35463,1,0,0:0:0:0:
256,192,35620,1,8,0:0:0:0:
256,192,35932,1,8,0:0:0:0:
256,192,36010,1,0,0:0:0:0:
256,192,36088,1,8,0:0:0:0:
256,192,36245,1,0,0:0:0:0:
256,192,36401,1,0,0:0:0:0:
256,192,36557,1,8,0:0:0:0:
256,192,36713,1,8,0:0:0:0:
256,192,36791,1,8,0:0:0:0:
256,192,36870,1,0,0:0:0:0:
256,192,37026,1,0,0:0:0:0:
256,192,37182,1,8,0:0:0:0:
256,192,37338,1,0,0:0:0:0:
256,192,37651,1,0,0:0:0:0:
256,192,37807,1,8,0:0:0:0:
256,192,37963,1,8,0:0:0:0:
256,192,38120,1,0,0:0:0:0:
256,192,38432,1,8,0:0:0:0:
256,192,38588,1,8,0:0:0:0:
256,192,38666,1,8,0:0:0:0:
256,192,38745,1,0,0:0:0:0:
256,192,38901,1,0,0:0:0:0:
256,192,39057,1,8,0:0:0:0:
256,192,39213,1,0,0:0:0:0:
256,192,39526,1,0,0:0:0:0:
256,192,39682,1,8,0:0:0:0:
256,192,39995,1,0,0:0:0:0:
256,192,40151,1,0,0:0:0:0:
256,192,40307,1,8,0:0:0:0:
256,192,40463,1,8,0:0:0:0:
256,192,40620,1,0,0:0:0:0:
256,192,40932,1,8,0:0:0:0:
256,192,41245,1,0,0:0:0:0:
256,192,41401,1,0,0:0:0:0:
256,192,41557,1,8,0:0:0:0:
256,192,41713,1,4,0:0:0:0:
256,192,42026,1,0,0:0:0:0:
256,192,42182,1,8,0:0:0:0:
256,192,42495,1,0,0:0:0:0:
256,192,42807,1,0,0:0:0:0:
256,192,42963,1,0,0:0:0:0:
256,192,43120,1,12,0:0:0:0:
256,192,43432,1,0,0:0:0:0:
256,192,43745,1,8,0:0:0:0:
256,192,44057,1,0,0:0:0:0:
256,192,44213,1,8,0:0:0:0:
256,192,44370,1,0,0:0:0:0:
256,192,44682,1,0,0:0:0:0:
256,192,44995,1,8,0:0:0:0:
256,192,45307,1,0,0:0:0:0:
256,192,45463,1,8,0:0:0:0:
256,192,45620,1,0,0:0:0:0:
256,192,45932,1,0,0:0:0:0:
256,192,46245,1,8,0:0:0:0:
256,192,46557,1,0,0:0:0:0:
256,192,46713,1,8,0:0:0:0:
256,192,46870,1,8,0:0:0:0:
256,192,47182,1,0,0:0:0:0:
256,192,47495,1,8,0:0:0:0:
256,192,47807,1,0,0:0:0:0:
256,192,47963,1,8,0:0:0:0:
256,192,48120,1,4,0:0:0:0:
256,192,48432,1,0,0:0:0:0:
256,192,48745,1,8,0:0:0:0:
256,192,49057,1,0,0:0:0:0:
256,192,49213,1,8,0:0:0:0:
256,192,49370,1,0,0:0:0:0:
256,192,49682,1,0,0:0:0:0:
256,192,49995,1,8,0:0:0:0:
256,192,50151,1,0,0:0:0:0:
256,192,50307,1,8,0:0:0:0:
256,192,50463,1,0,0:0:0:0:
256,192,50620,1,12,0:0:0:0:
256,192,50932,1,8,0:0:0:0:
256,192,51245,1,8,0:0:0:0:
256,192,51401,1,0,0:0:0:0:
256,192,51557,1,8,0:0:0:0:
256,192,51713,1,4,0:0:0:0:
256,192,52026,1,0,0:0:0:0:
256,192,52182,1,8,0:0:0:0:
256,192,52495,1,0,0:0:0:0:
256,192,52651,1,0,0:0:0:0:
256,192,52807,1,8,0:0:0:0:
256,192,53120,1,12,0:0:0:0:
256,192,53432,1,8,0:0:0:0:
256,192,53745,1,8,0:0:0:0:
256,192,53901,1,0,0:0:0:0:
256,192,54057,1,8,0:0:0:0:
256,192,54213,1,0,0:0:0:0:
256,192,54291,1,0,0:0:0:0:
256,192,54370,1,8,0:0:0:0:
256,192,54682,1,8,0:0:0:0:
256,192,54995,1,8,0:0:0:0:
256,192,55151,1,0,0:0:0:0:
256,192,55307,1,8,0:0:0:0:
256,192,55620,1,4,0:0:0:0:
256,192,55932,1,8,0:0:0:0:
256,192,56088,1,8,0:0:0:0:
256,192,56245,1,0,0:0:0:0:
256,192,56401,1,0,0:0:0:0:
256,192,56557,1,8,0:0:0:0:
256,192,56870,1,4,0:0:0:0:
256,192,57182,1,8,0:0:0:0:
256,192,57338,1,0,0:0:0:0:
256,192,57416,1,0,0:0:0:0:
256,192,57495,1,8,0:0:0:0:
256,192,57651,1,0,0:0:0:0:
256,192,57807,1,8,0:0:0:0:
256,192,58120,1,0,0:0:0:0:
256,192,58432,1,8,0:0:0:0:
256,192,58588,1,8,0:0:0:0:
256,192,58745,1,0,0:0:0:0:
256,192,58823,1,0,0:0:0:0:
256,192,58901,1,8,0:0:0:0:
256,192,59057,1,0,0:0:0:0:
256,192,59213,1,12,0:0:0:0:
256,192,59526,1,0,0:0:0:0:
256,192,59682,1,8,0:0:0:0:
256,192,59995,1,0,0:0:0:0:
256,192,60151,1,0,0:0:0:0:
256,192,60307,1,8,0:0:0:0:
256,192,60620,1,4,0:0:0:0:
256,192,60932,1,8,0:0:0:0:
256,192,61245,1,8,0:0:0:0:
256,192,61401,1,0,0:0:0:0:
256,192,61557,1,8,0:0:0:0:
256,192,61713,1,0,0:0:0:0:
256,192,61791,1,0,0:0:0:0:
256,192,61870,1,8,0:0:0:0:
256,192,62026,1,0,0:0:0:0:
256,192,62182,1,8,0:0:0:0:
256,192,62495,1,8,0:0:0:0:
256,192,62651,1,0,0:0:0:0:
256,192,62807,1,8,0:0:0:0:
256,192,63120,1,8,0:0:0:0:
256,192,63276,1,8,0:0:0:0:
256,192,63432,1,8,0:0:0:0:
256,192,63588,1,8,0:0:0:0:
256,192,64995,1,8,0:0:0:0:
256,192,65073,1,8,0:0:0:0:
256,192,65151,1,0,0:0:0:0:
256,192,65307,1,12,0:0:0:0:
256,192,65620,1,8,0:0:0:0:
256,192,65776,1,8,0:0:0:0:
256,192,65932,1,8,0:0:0:0:
256,192,66088,1,8,0:0:0:0:
256,192,66870,8,0,67651,0:0:0:0:
256,192,67807,5,4,0:0:0:0:
256,192,68120,1,12,0:0:0:0:
256,192,68432,1,8,0:0:0:0:
256,192,68588,1,0,0:0:0:0:
256,192,68745,1,8,0:0:0:0:
256,192,68901,1,0,0:0:0:0:
256,192,69057,1,8,0:0:0:0:
256,192,69135,1,8,0:0:0:0:
256,192,69213,1,0,0:0:0:0:
256,192,69370,1,0,0:0:0:0:
256,192,69682,1,8,0:0:0:0:
256,192,69995,1,8,0:0:0:0:
256,192,70151,1,0,0:0:0:0:
256,192,70307,1,8,0:0:0:0:
256,192,70463,1,8,0:0:0:0:
256,192,70620,1,0,0:0:0:0:
256,192,70698,1,0,0:0:0:0:
256,192,70776,1,0,0:0:0:0:
256,192,70932,1,8,0:0:0:0:
256,192,71245,1,0,0:0:0:0:
256,192,71401,1,0,0:0:0:0:
256,192,71557,1,8,0:0:0:0:
256,192,71870,1,0,0:0:0:0:
256,192,71948,1,0,0:0:0:0:
256,192,72026,1,0,0:0:0:0:
256,192,72182,1,8,0:0:0:0:
256,192,72338,1,8,0:0:0:0:
256,192,72495,1,0,0:0:0:0:
256,192,72573,1,0,0:0:0:0:
256,192,72651,1,0,0:0:0:0:
256,192,72807,1,8,0:0:0:0:
256,192,72963,1,0,0:0:0:0:
256,192,73120,1,8,0:0:0:0:
256,192,73198,1,8,0:0:0:0:
256,192,73276,1,0,0:0:0:0:
256,192,73432,1,8,0:0:0:0:
256,192,73745,1,0,0:0:0:0:
256,192,73901,1,8,0:0:0:0:
256,192,74057,1,0,0:0:0:0:
256,192,74213,1,8,0:0:0:0:
256,192,74291,1,0,0:0:0:0:
256,192,74370,1,8,0:0:0:0:
256,192,74526,1,0,0:0:0:0:
256,192,74682,1,8,0:0:0:0:
256,192,74995,1,0,0:0:0:0:
256,192,75151,1,0,0:0:0:0:
256,192,75307,1,8,0:0:0:0:
256,192,75620,1,0,0:0:0:0:
256,192,75698,1,0,0:0:0:0:
256,192,75776,1,0,0:0:0:0:
256,192,75932,1,8,0:0:0:0:
256,192,76088,1,0,0:0:0:0:
256,192,76245,1,8,0:0:0:0:
256,192,76323,1,8,0:0:0:0:
256,192,76401,1,0,0:0:0:0:
256,192,76557,1,8,0:0:0:0:
256,192,76870,1,0,0:0:0:0:
256,192,77182,1,8,0:0:0:0:
256,192,77338,1,0,0:0:0:0:
256,192,77495,1,12,0:0:0:0:
256,192,77807,1,8,0:0:0:0:
256,192,77885,1,8,0:0:0:0:
256,192,77963,1,0,0:0:0:0:
256,192,78120,1,12,0:0:0:0:
256,192,78432,1,8,0:0:0:0:
256,192,78588,1,0,0:0:0:0:
256,192,78745,1,8,0:0:0:0:
256,192,78901,1,0,0:0:0:0:
256,192,79057,1,8,0:0:0:0:
256,192,79135,1,8,0:0:0:0:
256,192,79213,1,0,0:0:0:0:
256,192,79370,1,0,0:0:0:0:
256,192,79682,1,8,0:0:0:0:
256,192,79760,1,8,0:0:0:0:
256,192,79838,1,8,0:0:0:0:
256,192,79995,1,8,0:0:0:0:
256,192,80151,1,0,0:0:0:0:
256,192,80307,1,8,0:0:0:0:
256,192,80463,1,8,0:0:0:0:
256,192,80620,1,0,0:0:0:0:
256,192,80698,1,0,0:0:0:0:
256,192,80776,1,0,0:0:0:0:
256,192,80932,1,8,0:0:0:0:
256,192,81245,1,0,0:0:0:0:
256,192,81401,1,0,0:0:0:0:
256,192,81557,1,8,0:0:0:0:
256,192,81870,1,0,0:0:0:0:
256,192,82026,1,0,0:0:0:0:
256,192,82104,1,0,0:0:0:0:
256,192,82182,1,8,0:0:0:0:
256,192,82338,1,8,0:0:0:0:
256,192,82495,1,0,0:0:0:0:
256,192,82651,1,0,0:0:0:0:
256,192,82729,1,8,0:0:0:0:
256,192,82807,1,8,0:0:0:0:
256,192,82963,1,0,0:0:0:0:
256,192,83120,1,12,0:0:0:0:
256,192,83432,1,8,0:0:0:0:
256,192,83745,1,0,0:0:0:0:
256,192,83901,1,8,0:0:0:0:
256,192,84057,1,0,0:0:0:0:
256,192,84213,1,0,0:0:0:0:
256,192,84370,1,12,0:0:0:0:
256,192,84526,1,0,0:0:0:0:
256,192,84682,1,8,0:0:0:0:
256,192,84760,1,8,0:0:0:0:
256,192,84838,1,0,0:0:0:0:
256,192,84995,1,8,0:0:0:0:
256,192,85151,1,0,0:0:0:0:
256,192,85307,1,12,0:0:0:0:
256,192,85620,1,4,0:0:0:0:
256,192,85932,1,0,0:0:0:0:
256,192,86088,1,8,0:0:0:0:
256,192,86401,1,0,0:0:0:0:
256,192,86557,1,8,0:0:0:0:
256,192,86870,1,0,0:0:0:0:
256,192,87026,1,8,0:0:0:0:
256,192,87182,1,0,0:0:0:0:
256,192,87260,1,0,0:0:0:0:
256,192,87338,1,0,0:0:0:0:
256,192,87416,1,0,0:0:0:0:
256,192,87495,1,8,0:0:0:0:
256,192,87651,1,8,0:0:0:0:
256,192,87807,1,0,0:0:0:0:
256,192,87963,1,0,0:0:0:0:
256,192,88120,1,12,0:0:0:0:
256,192,88432,1,8,0:0:0:0:
256,192,88588,1,0,0:0:0:0:
256,192,88745,1,8,0:0:0:0:
256,192,88823,1,8,0:0:0:0:
256,192,88901,1,0,0:0:0:0:
256,192,89057,1,8,0:0:0:0:
256,192,89213,1,0,0:0:0:0:
256,192,89370,1,8,0:0:0:0:
256,192,89682,1,0,0:0:0:0:
256,192,89995,1,8,0:0:0:0:
256,192,90307,1,0,0:0:0:0:
256,192,90463,1,0,0:0:0:0:
256,192,90620,1,12,0:0:0:0:
256,192,90932,1,8,0:0:0:0:
256,192,91088,1,0,0:0:0:0:
256,192,91245,1,8,0:0:0:0:
256,192,91323,1,0,0:0:0:0:
256,192,91401,1,8,0:0:0:0:
256,192,91557,1,8,0:0:0:0:
256,192,91713,1,0,0:0:0:0:
256,192,91870,1,8,0:0:0:0:
256,192,92182,1,0,0:0:0:0:
256,192,92338,1,0,0:0:0:0:
256,192,92495,1,8,0:0:0:0:
256,192,92651,1,0,0:0:0:0:
256,192,92807,1,8,0:0:0:0:
256,192,93120,1,12,0:0:0:0:
256,192,93432,1,8,0:0:0:0:
256,192,93588,1,0,0:0:0:0:
256,192,93666,1,0,0:0:0:0:
256,192,93745,1,8,0:0:0:0:
256,192,93901,1,0,0:0:0:0:
256,192,94057,1,8,0:0:0:0:
256,192,94135,1,8,0:0:0:0:
256,192,94213,1,0,0:0:0:0:
256,192,94370,1,8,0:0:0:0:
256,192,94526,1,0,0:0:0:0:
256,192,94682,1,8,0:0:0:0:
256,192,94995,1,8,0:0:0:0:
256,192,95307,1,0,0:0:0:0:
256,192,95463,1,0,0:0:0:0:
256,192,95620,1,12,0:0:0:0:
256,192,95932,1,8,0:0:0:0:
256,192,96088,1,0,0:0:0:0:
256,192,96245,1,8,0:0:0:0:
256,192,96323,1,0,0:0:0:0:
256,192,96401,1,8,0:0:0:0:
256,192,96557,1,8,0:0:0:0:
256,192,96713,1,0,0:0:0:0:
256,192,96870,1,12,0:0:0:0:
256,192,97182,1,0,0:0:0:0:
256,192,97495,1,8,0:0:0:0:
256,192,97729,1,0,0:0:0:0:
256,192,97807,1,8,0:0:0:0:
256,192,97963,1,8,0:0:0:0:
256,192,98120,1,12,0:0:0:0:
256,192,98432,1,8,0:0:0:0:
256,192,98510,1,8,0:0:0:0:
256,192,98588,1,0,0:0:0:0:
256,192,98745,1,8,0:0:0:0:
256,192,98901,1,0,0:0:0:0:
256,192,99057,1,8,0:0:0:0:
256,192,99135,1,8,0:0:0:0:
256,192,99213,1,0,0:0:0:0:
256,192,99370,1,8,0:0:0:0:
256,192,99682,1,0,0:0:0:0:
256,192,99995,1,8,0:0:0:0:
256,192,100307,1,0,0:0:0:0:
256,192,100463,1,0,0:0:0:0:
256,192,100620,1,12,0:0:0:0:
256,192,100932,1,8,0:0:0:0:
256,192,101088,1,0,0:0:0:0:
256,192,101245,1,8,0:0:0:0:
256,192,101323,1,0,0:0:0:0:
256,192,101401,1,8,0:0:0:0:
256,192,101557,1,8,0:0:0:0:
256,192,101713,1,0,0:0:0:0:
256,192,101791,1,0,0:0:0:0:
256,192,101870,1,8,0:0:0:0:
256,192,102182,1,0,0:0:0:0:
256,192,102338,1,0,0:0:0:0:
256,192,102495,1,8,0:0:0:0:
256,192,102651,1,0,0:0:0:0:
256,192,102807,1,8,0:0:0:0:
256,192,103120,1,12,0:0:0:0:
256,192,103432,1,8,0:0:0:0:
256,192,103588,1,0,0:0:0:0:
256,192,103745,1,8,0:0:0:0:
256,192,103823,1,8,0:0:0:0:
256,192,103901,1,0,0:0:0:0:
256,192,104057,1,8,0:0:0:0:
256,192,104213,1,0,0:0:0:0:
256,192,104370,1,8,0:0:0:0:
256,192,104682,1,0,0:0:0:0:
256,192,104995,1,8,0:0:0:0:
256,192,105307,1,0,0:0:0:0:
256,192,105463,1,0,0:0:0:0:
256,192,105620,1,12,0:0:0:0:
256,192,105932,1,8,0:0:0:0:
256,192,106088,1,0,0:0:0:0:
256,192,106245,1,8,0:0:0:0:
256,192,106323,1,0,0:0:0:0:
256,192,106401,1,8,0:0:0:0:
256,192,106557,1,8,0:0:0:0:
256,192,106713,1,0,0:0:0:0:
256,192,106870,1,12,0:0:0:0:
256,192,107104,1,0,0:0:0:0:
256,192,107182,1,8,0:0:0:0:
256,192,107338,1,8,0:0:0:0:
256,192,107495,1,0,0:0:0:0:
256,192,107573,1,0,0:0:0:0:
256,192,107651,1,0,0:0:0:0:
256,192,107729,1,0,0:0:0:0:
256,192,107807,1,8,0:0:0:0:
256,192,107963,1,0,0:0:0:0:
256,192,108120,1,12,0:0:0:0:
256,192,108432,1,8,0:0:0:0:
256,192,108588,1,0,0:0:0:0:
256,192,108745,1,8,0:0:0:0:
256,192,108823,1,8,0:0:0:0:
256,192,108901,1,0,0:0:0:0:
256,192,109057,1,8,0:0:0:0:
256,192,109213,1,0,0:0:0:0:
256,192,109370,1,8,0:0:0:0:
256,192,109448,1,0,0:0:0:0:
256,192,109526,1,8,0:0:0:0:
256,192,109682,1,0,0:0:0:0:
256,192,109838,1,0,0:0:0:0:
256,192,109995,1,8,0:0:0:0:
256,192,110307,1,8,0:0:0:0:
256,192,110463,1,0,0:0:0:0:
256,192,110620,1,12,0:0:0:0:
256,192,110932,1,8,0:0:0:0:
256,192,111088,1,0,0:0:0:0:
256,192,111245,1,8,0:0:0:0:
256,192,111323,1,0,0:0:0:0:
256,192,111401,1,8,0:0:0:0:
256,192,111557,1,8,0:0:0:0:
256,192,111713,1,0,0:0:0:0:
256,192,111791,1,0,0:0:0:0:
256,192,111870,1,8,0:0:0:0:
256,192,112182,1,0,0:0:0:0:
256,192,112338,1,0,0:0:0:0:
256,192,112495,1,8,0:0:0:0:
256,192,112651,1,0,0:0:0:0:
256,192,112807,1,8,0:0:0:0:
256,192,113120,1,12,0:0:0:0:
256,192,113432,1,8,0:0:0:0:
256,192,113588,1,0,0:0:0:0:
256,192,113745,1,8,0:0:0:0:
256,192,113823,1,8,0:0:0:0:
256,192,113901,1,0,0:0:0:0:
256,192,114057,1,8,0:0:0:0:
256,192,114213,1,0,0:0:0:0:
256,192,114370,1,8,0:0:0:0:
256,192,114448,1,8,0:0:0:0:
256,192,114526,1,8,0:0:0:0:
256,192,114682,1,0,0:0:0:0:
256,192,114995,1,8,0:0:0:0:
256,192,115073,1,8,0:0:0:0:
256,192,115151,1,0,0:0:0:0:
256,192,115307,1,8,0:0:0:0:
256,192,115463,1,0,0:0:0:0:
256,192,115620,1,12,0:0:0:0:
256,192,115932,1,8,0:0:0:0:
256,192,116088,1,0,0:0:0:0:
256,192,116245,1,8,0:0:0:0:
256,192,116323,1,0,0:0:0:0:
256,192,116401,1,8,0:0:0:0:
256,192,116557,1,8,0:0:0:0:
256,192,116713,1,0,0:0:0:0:
256,192,116870,1,12,0:0:0:0:
256,192,117104,1,0,0:0:0:0:
256,192,117182,1,8,0:0:0:0:
256,192,117338,1,0,0:0:0:0:
256,192,117495,1,12,0:0:0:0:
256,192,117729,1,0,0:0:0:0:
256,192,117807,1,8,0:0:0:0:
256,192,117963,1,0,0:0:0:0:
256,192,118120,1,12,0:0:0:0:
256,192,118432,1,8,0:0:0:0:
256,192,118588,1,0,0:0:0:0:
256,192,118745,1,8,0:0:0:0:
256,192,118823,1,8,0:0:0:0:
256,192,118901,1,0,0:0:0:0:
256,192,119057,1,8,0:0:0:0:
256,192,119213,1,0,0:0:0:0:
256,192,119370,1,8,0:0:0:0:
256,192,119448,1,8,0:0:0:0:
256,192,119526,1,8,0:0:0:0:
256,192,119682,1,0,0:0:0:0:
256,192,119838,1,0,0:0:0:0:
256,192,119995,1,8,0:0:0:0:
256,192,120307,1,0,0:0:0:0:
256,192,120463,1,0,0:0:0:0:
256,192,120620,1,12,0:0:0:0:
256,192,120932,1,8,0:0:0:0:
256,192,121088,1,0,0:0:0:0:
256,192,121245,1,8,0:0:0:0:
256,192,121323,1,0,0:0:0:0:
256,192,121401,1,8,0:0:0:0:
256,192,121557,1,8,0:0:0:0:
256,192,121713,1,0,0:0:0:0:
256,192,121870,1,8,0:0:0:0:
256,192,122182,1,0,0:0:0:0:
256,192,122338,1,0,0:0:0:0:
256,192,122495,1,8,0:0:0:0:
256,192,122651,1,0,0:0:0:0:
256,192,122807,1,8,0:0:0:0:
256,192,123120,1,12,0:0:0:0:
256,192,123432,1,8,0:0:0:0:
256,192,123588,1,0,0:0:0:0:
256,192,123666,1,0,0:0:0:0:
256,192,123745,1,8,0:0:0:0:
256,192,123901,1,0,0:0:0:0:
256,192,124057,1,8,0:0:0:0:
256,192,124135,1,8,0:0:0:0:
256,192,124213,1,0,0:0:0:0:
256,192,124370,1,8,0:0:0:0:
256,192,124526,1,0,0:0:0:0:
256,192,124682,1,8,0:0:0:0:
256,192,124995,1,8,0:0:0:0:
256,192,125307,1,0,0:0:0:0:
256,192,125463,1,0,0:0:0:0:
256,192,125620,1,12,0:0:0:0:
256,192,125932,1,8,0:0:0:0:
256,192,126088,1,0,0:0:0:0:
256,192,126245,1,8,0:0:0:0:
256,192,126323,1,0,0:0:0:0:
256,192,126401,1,8,0:0:0:0:
256,192,126557,1,8,0:0:0:0:
256,192,126713,1,0,0:0:0:0:
256,192,126870,1,12,0:0:0:0:
256,192,127104,1,0,0:0:0:0:
256,192,127182,1,8,0:0:0:0:
256,192,127338,1,8,0:0:0:0:
256,192,127495,1,0,0:0:0:0:
256,192,127651,1,0,0:0:0:0:
256,192,127729,1,0,0:0:0:0:
256,192,127807,1,8,0:0:0:0:
256,192,127963,1,0,0:0:0:0:
256,192,128120,1,12,0:0:0:0:
256,192,128276,8,0,135620,0:0:0:0:
