osu file format v14

[General]
AudioFilename: audio.mp3
AudioLeadIn: 0
PreviewTime: 65575
Countdown: 0
SampleSet: Soft
StackLeniency: 0.7
Mode: 0
LetterboxInBreaks: 0
WidescreenStoryboard: 0

[Editor]
Bookmarks: 88120,98120,108120,118120,123120,128120,129838
DistanceSpacing: 2.3
BeatDivisor: 4
GridSize: 32
TimelineZoom: 1.3

[Metadata]
Title:Colorful
TitleUnicode:カラフル
Artist:HAG
ArtistUnicode:H△G
Creator:Sotarks
Version:Akitoshi's Extra
Source:
Tags:akitoshi fieryrage corinn -laura- nikakis snownino_ miraclee nevo reform kujinn armin a_r_m_i_n smokelind onlybiscuit brotarks lami taeyang kroytz japanese female vocalist jpop j-pop cut edit short version everlasting night of teenage girls ayyri eiri- colourful
BeatmapID:1949535
BeatmapSetID:931452

[Difficulty]
HPDrainRate:6
CircleSize:3.8
OverallDifficulty:8.5
ApproachRate:9.3
SliderMultiplier:1.6
SliderTickRate:1

[Events]
//Background and Video events
0,0,"bg.jpg",0,0
//Break Periods
2,3476,5066
2,5976,7566
//Storyboard Layer 0 (Background)
//Storyboard Layer 1 (Fail)
//Storyboard Layer 2 (Pass)
//Storyboard Layer 3 (Foreground)
//Storyboard Sound Samples

[TimingPoints]
620,312.5,4,2,22,42,1,0
620,-125,4,2,22,42,0,0
3041,-125,4,2,22,42,0,0
3120,-125,4,2,22,52,0,0
8432,-125,4,2,22,42,0,0
10620,-125,4,2,22,52,0,0
13041,-125,4,2,22,52,0,0
13120,-100,4,2,22,72,0,0
15229,-100,4,2,22,72,0,0
15307,-100,4,2,22,72,0,0
18041,-100,4,2,22,72,0,0
18120,-100,4,2,22,72,0,0
23120,-111.111111111111,4,2,22,62,0,0
25541,-111.111111111111,4,2,22,62,0,0
25620,-111.111111111111,4,2,22,62,0,0
28041,-111.111111111111,4,2,22,62,0,0
28120,-111.111111111111,4,2,22,62,0,0
33041,-111.111111111111,4,2,22,62,0,0
33120,-100,4,2,22,62,0,0
38041,-100,4,2,22,62,0,0
38120,-100,4,2,22,62,0,0
43120,-125,4,2,22,62,0,0
50620,-100,4,2,22,62,0,0
53041,-100,4,2,22,62,0,0
53120,-100,4,2,22,62,0,0
63120,-100,4,2,22,72,0,0
63823,-100,4,2,22,42,0,0
64995,-100,4,2,22,62,0,0
65620,-100,4,2,22,72,0,0
66870,-100,4,2,22,52,0,0
67104,-100,4,2,22,52,0,0
67182,-100,4,2,22,52,0,0
68041,-100,4,2,22,52,0,0
68120,-90.9090909090909,4,2,22,72,0,1
69604,-90.9090909090909,4,2,22,72,0,1
69682,-90.9090909090909,4,2,22,72,0,1
72104,-90.9090909090909,4,2,22,72,0,1
72182,-90.9090909090909,4,2,22,72,0,1
75541,-90.9090909090909,4,2,22,72,0,1
75620,-90.9090909090909,4,2,22,72,0,1
76791,-90.9090909090909,4,2,22,72,0,1
76870,-90.9090909090909,4,2,22,72,0,1
79604,-90.9090909090909,4,2,22,72,0,1
79682,-90.9090909090909,4,2,22,72,0,1
82104,-90.9090909090909,4,2,22,72,0,1
82182,-90.9090909090909,4,2,22,72,0,1
85541,-90.9090909090909,4,2,22,72,0,1
85620,-100,4,2,22,62,0,0
88120,-90.9090909090909,4,2,22,72,0,1
98354,-90.9090909090909,4,2,22,72,0,1
98432,-90.9090909090909,4,2,22,72,0,1
100854,-90.9090909090909,4,2,22,72,0,1
100932,-90.9090909090909,4,2,22,72,0,1
103354,-90.9090909090909,4,2,22,72,0,1
103432,-90.9090909090909,4,2,22,72,0,1
105854,-90.9090909090909,4,2,22,72,0,1
105932,-90.9090909090909,4,2,22,72,0,1
106870,-90.9090909090909,4,2,22,72,0,0
108120,-90.9090909090909,4,2,22,72,0,1
108354,-90.9090909090909,4,2,22,72,0,1
108432,-90.9090909090909,4,2,22,72,0,1
110854,-90.9090909090909,4,2,22,72,0,1
110932,-90.9090909090909,4,2,22,72,0,1
113354,-90.9090909090909,4,2,22,72,0,1
113432,-90.9090909090909,4,2,22,72,0,1
115854,-90.9090909090909,4,2,22,72,0,1
115932,-90.9090909090909,4,2,22,72,0,1
118120,-71.4285714285714,4,2,22,72,0,1
123354,-71.4285714285714,4,2,22,72,0,1
123432,-71.4285714285714,4,2,22,72,0,1
125854,-71.4285714285714,4,2,22,72,0,1
125932,-71.4285714285714,4,2,22,72,0,1
128120,-200,4,2,22,62,0,0
128198,-200,4,2,22,52,0,0
129838,-200,4,2,22,5,0,0
130620,-200,4,2,22,42,0,0
131870,-200,4,2,22,32,0,0
134370,-200,4,2,22,22,0,0
135620,-200,4,2,22,12,0,0

[Colours]
Combo1 : 70,163,255
Combo2 : 94,255,163
Combo3 : 255,132,211
Combo4 : 231,255,60

[HitObjects]
67,198,620,6,0,B|108:220|108:220|196:198,1,128,0|8,1:0|0:0,0:0:0:0:
287,180,1088,1,0,1:0:0:0:
287,180,1166,1,0,1:0:0:0:
287,180,1245,1,8,0:0:0:0:
352,250,1401,2,0,P|348:284|345:318,1,64,8|0,3:3|3:0,0:0:0:0:
471,252,1713,6,0,P|466:185|459:105,1,128,0|8,1:0|0:0,0:0:0:0:
391,56,2182,2,0,P|356:63|318:69,1,64,8|8,0:0|3:0,0:0:0:0:
233,87,2495,1,8,0:0:0:0:
296,159,2651,1,4,0:3:0:0:
233,87,2807,2,0,P|188:76|128:100,1,96,8|0,0:3|0:0,0:0:0:0:
113,116,3120,5,14,0:2:0:0:
220,266,3276,1,8,0:0:0:0:
220,266,5620,5,6,0:2:0:0:
298,97,5776,1,4,0:0:0:0:
298,97,8120,5,14,0:2:0:0:
113,116,8276,1,8,0:0:0:0:
113,116,9057,5,0,1:0:0:0:
103,139,9682,1,0,1:0:0:0:
94,163,10307,1,0,1:0:0:0:
204,270,10620,6,0,P|266:293|343:264,1,128,10|0,0:2|1:2,0:0:0:0:
271,170,11088,2,0,P|282:235|345:287,1,128,10|0,0:2|1:2,0:0:0:0:
391,178,11557,2,0,P|340:220|326:301,1,128,10|0,0:2|1:2,0:0:0:0:
444,286,12026,2,0,P|382:263|305:292,1,128,10|8,0:2|0:3,0:0:0:0:
220,373,12495,5,10,0:0:0:0:
188,371,12573,1,0,1:0:0:0:
156,369,12651,1,0,1:0:0:0:
124,367,12729,1,0,1:0:0:0:
92,365,12807,2,0,P|77:314|95:262,1,96,6|0,1:2|0:0,0:0:0:0:
100,245,13120,6,0,P|57:241|9:237,1,80,14|0,1:2|0:2,0:0:0:0:
184,110,13432,2,0,P|223:106|263:102,1,80,8|0,0:2|0:2,0:0:0:0:
455,86,13745,1,8,0:2:0:0:
354,199,13901,1,0,1:2:0:0:
353,7,14057,1,8,0:2:0:0:
475,100,14213,1,0,1:2:0:0:
284,128,14370,6,0,P|244:131|204:135,1,80,10|0,0:2|1:2,0:0:0:0:
29,212,14682,2,0,P|68:215|108:219,1,80,8|0,0:2|1:2,0:0:0:0:
301,232,14995,2,0,P|355:254|434:229,1,120,10|0,0:2|0:0,0:0:0:0:
439,224,15307,2,0,P|451:183|436:128,1,80,10|0,0:2|1:2,0:0:0:0:
280,214,15620,6,0,P|226:214|186:230,1,80,12|0,1:2|0:2,0:0:0:0:
66,358,15932,2,0,P|104:368|144:365,1,80,8|0,0:2|0:2,0:0:0:0:
301,232,16245,1,8,0:2:0:0:
141,282,16401,1,0,1:2:0:0:
285,381,16557,1,8,0:2:0:0:
322,250,16713,1,0,1:2:0:0:
124,256,16870,6,0,P|82:260|23:267,1,80,8|0,0:2|1:2,0:0:0:0:
196,111,17182,2,0,P|235:115|275:119,1,80,8|0,0:2|1:2,0:0:0:0:
475,142,17495,1,8,0:2:0:0:
322,250,17651,1,0,1:2:0:0:
322,250,17729,1,0,0:0:0:0:
322,250,17807,2,0,P|299:304|323:365,1,120,8|0,0:2|0:0,0:0:0:0:
339,383,18120,6,0,P|377:378|423:374,1,80,14|0,1:2|0:2,0:0:0:0:
503,229,18432,2,0,P|463:225|423:220,1,80,8|0,0:2|0:2,0:0:0:0:
264,111,18745,1,8,0:2:0:0:
398,60,18901,1,0,1:2:0:0:
316,224,19057,1,8,0:2:0:0:
252,88,19213,1,0,1:2:0:0:
115,212,19370,6,0,P|107:252|119:307,1,80,10|0,0:2|1:2,0:0:0:0:
323,332,19682,2,0,P|330:292|325:253,1,80,8|0,0:2|1:2,0:0:0:0:
243,64,19995,1,10,0:2:0:0:
127,185,20151,1,0,1:2:0:0:
333,139,20307,2,0,P|372:142|418:145,1,80,10|0,0:2|1:2,0:0:0:0:
214,307,20620,6,0,P|174:313|130:302,1,80,12|0,1:2|0:0,0:0:0:0:
75,105,20932,2,0,P|113:96|153:102,1,80,8|0,0:0|1:0,0:0:0:0:
316,224,21245,1,8,0:0:0:0:
286,58,21401,1,0,1:0:0:0:
141,206,21557,1,8,0:0:0:0:
345,242,21713,6,0,B|403:233|403:233|444:250|444:250|519:240,1,160,4|0,1:2|1:0,0:0:0:0:
392,68,22182,2,0,P|348:64|304:59,1,80,8|0,0:0|0:0,0:0:0:0:
114,96,22495,1,8,0:3:0:0:
255,251,22651,1,0,1:0:0:0:
255,251,22729,1,8,0:0:0:0:
255,251,22807,1,10,0:0:0:0:
287,55,22963,1,8,0:0:0:0:
143,187,23120,6,0,P|72:180|-7:174,1,143.999995605469,6|10,1:2|0:2,0:0:0:0:
161,281,23588,2,0,P|200:285|247:268,1,71.9999978027344,2|0,0:2|1:2,0:0:0:0:
263,128,23901,2,0,P|240:159|231:208,1,71.9999978027344,2|8,1:2|0:2,0:0:0:0:
315,316,24213,6,0,P|389:305|474:292,1,143.999995605469,2|0,0:2|1:0,0:0:0:0:
498,140,24682,1,8,0:2:0:0:
389,102,24838,2,0,P|380:140|386:173,1,71.9999978027344,0|0,1:2|1:2,0:0:0:0:
482,45,25151,1,0,1:2:0:0:
324,26,25307,2,0,P|272:49|203:34,1,107.999996704102,10|0,0:2|0:0,0:0:0:0:
194,34,25620,6,0,P|186:105|178:177,1,143.999995605469,2|10,1:2|0:2,0:0:0:0:
165,313,26088,2,0,P|129:320|92:314,1,71.9999978027344,2|0,1:2|1:2,0:0:0:0:
254,246,26401,2,0,P|289:240|324:247,1,71.9999978027344,2|8,1:2|0:2,0:0:0:0:
443,154,26713,6,0,P|387:164|311:126,1,143.999995605469,2|0,0:2|0:0,0:0:0:0:
482,67,27182,1,8,0:2:0:0:
510,219,27338,2,0,L|499:300,1,71.9999978027344,0|0,1:2|1:2,0:0:0:0:
401,375,27651,1,0,1:2:0:0:
316,277,27807,2,0,P|258:285|197:293,1,107.999996704102,10|0,0:2|0:0,0:0:0:0:
180,299,28120,6,0,P|141:267|29:275,1,143.999995605469,2|10,1:2|0:2,0:0:0:0:
1,128,28588,2,0,P|34:122|74:97,1,71.9999978027344,2|0,1:2|1:2,0:0:0:0:
176,159,28901,2,0,P|187:127|185:80,1,71.9999978027344,2|8,1:2|0:2,0:0:0:0:
293,27,29213,6,0,B|336:54|336:54|445:33,1,143.999995605469,2|0,0:2|1:0,0:0:0:0:
409,179,29682,2,0,P|369:173|336:170,1,71.9999978027344,10|0,0:2|1:2,0:0:0:0:
214,162,29995,1,2,1:2:0:0:
214,162,30151,1,0,1:2:0:0:
256,276,30307,2,0,P|298:285|326:278,1,71.9999978027344,10|2,0:2|0:2,0:0:0:0:
189,184,30620,6,0,P|139:205|52:171,2,143.999995605469,0|8|0,1:2|0:2|1:2,0:0:0:0:
236,70,31401,2,0,P|200:65|164:59,1,71.9999978027344,8|0,3:2|0:2,0:0:0:0:
290,156,31713,6,0,P|359:141|435:126,1,143.999995605469,2|0,1:2|1:2,0:0:0:0:
510,220,32182,1,8,0:2:0:0:
510,220,32338,1,0,1:2:0:0:
422,305,32495,2,0,P|405:264|406:230,1,71.9999978027344,0|0,1:2|1:2,0:0:0:0:
263,163,32807,2,0,P|272:218|252:271,1,107.999996704102,12|0,0:2|0:0,0:0:0:0:
233,291,33120,6,0,B|177:282|177:282|137:298|137:298|69:288,1,160,6|10,1:2|0:2,0:0:0:0:
15,168,33588,2,0,P|11:126|28:83,1,80,2|0,0:2|1:2,0:0:0:0:
148,37,33901,1,2,1:2:0:0:
112,192,34057,1,8,0:2:0:0:
148,37,34213,6,0,B|194:66|194:66|303:46,1,160,2|0,0:2|1:2,0:0:0:0:
455,13,34682,1,8,0:2:0:0:
399,118,34838,2,0,P|394:163|389:205,1,80,0|0,1:2|1:2,0:0:0:0:
365,356,35151,1,0,1:2:0:0:
292,213,35307,1,10,0:2:0:0:
435,283,35463,1,2,0:2:0:0:
292,213,35620,6,0,P|237:241|146:212,1,160,2|10,1:2|0:2,0:0:0:0:
64,95,36088,2,0,P|68:53|74:6,1,80,2|0,0:2|1:2,0:0:0:0:
211,63,36401,2,0,P|215:103|220:142,1,80,2|8,1:2|0:2,0:0:0:0:
60,267,36713,6,0,P|140:255|219:242,1,160,2|0,0:2|1:2,0:0:0:0:
401,214,37182,1,8,0:2:0:0:
321,343,37338,2,0,P|278:349|235:335,1,80,0|0,0:2|1:2,0:0:0:0:
139,228,37651,1,0,1:2:0:0:
267,148,37807,2,0,P|284:92|261:28,1,120,10|0,0:2|0:0,0:0:0:0:
236,22,38120,6,0,B|185:53|185:53|83:36,1,160,2|10,1:2|0:2,0:0:0:0:
2,172,38588,2,0,P|46:163|84:155,1,80,2|0,0:2|1:2,0:0:0:0:
185,277,38901,2,0,P|145:268|106:260,1,80,2|8,1:2|0:2,0:0:0:0:
259,173,39213,6,0,P|319:137|428:166,1,160,2|0,0:2|1:0,0:0:0:0:
499,279,39682,2,0,P|488:336|483:366,1,80,10|0,0:2|0:2,0:0:0:0:
348,271,39995,1,2,1:2:0:0:
506,250,40151,1,0,1:2:0:0:
348,372,40307,2,0,P|308:376|259:363,1,80,10|2,0:2|0:2,0:0:0:0:
143,267,40620,6,0,P|139:228|133:160,1,80,0|0,1:2|0:2,0:0:0:0:
267,93,40932,2,0,P|263:132|259:172,1,80,8|0,0:2|0:2,0:0:0:0:
187,29,41245,1,2,1:2:0:0:
345,13,41401,2,0,P|386:17|436:40,1,80,2|8,1:2|0:2,0:0:0:0:
510,210,41713,6,0,B|453:217|453:217|424:241|424:241|353:253,1,160,6|0,1:2|1:2,0:0:0:0:
192,270,42182,2,0,P|176:227|177:184,1,80,10|0,0:2|0:2,0:0:0:0:
256,93,42495,2,0,P|205:103|132:31,1,160,6|6,0:3|0:3,0:0:0:0:
310,12,42963,1,4,0:3:0:0:
375,90,43120,6,0,P|368:152|359:236,1,128,6|2,1:2|1:2,0:0:0:0:
189,320,43745,2,0,P|182:256|174:192,1,128,10|2,0:2|1:2,0:0:0:0:
50,46,44370,5,2,1:2:0:0:
81,235,44682,1,2,1:2:0:0:
249,117,44995,1,10,0:2:0:0:
280,306,45307,2,0,P|276:340|272:377,1,64,2|8,1:2|0:2,0:0:0:0:
219,245,45620,6,0,P|277:262|347:236,1,128,2|2,1:2|1:2,0:0:0:0:
466,97,46245,2,0,P|408:80|338:106,1,128,10|2,0:2|1:2,0:0:0:0:
265,153,46713,1,8,0:2:0:0:
171,128,46870,6,0,P|165:69|158:0,1,128,2|0,1:2|1:2,0:0:0:0:
34,148,47495,2,0,P|27:211|21:275,1,128,8|0,0:2|1:2,0:0:0:0:
76,353,47963,1,8,0:2:0:0:
160,306,48120,6,0,P|223:286|299:307,1,128,6|2,1:2|1:2,0:0:0:0:
377,130,48745,2,0,P|314:141|254:121,1,128,10|2,0:2|1:2,0:0:0:0:
82,35,49370,5,2,1:2:0:0:
155,212,49682,1,2,1:2:0:0:
241,39,49995,2,0,L|322:34,1,64,10|0,0:2|1:2,0:0:0:0:
395,5,50307,2,0,L|476:10,1,64,10|0,0:2|1:2,0:0:0:0:
497,105,50620,6,0,B|512:216|512:216|474:265,2,160,6|8|0,1:2|0:2|1:2,0:0:0:0:
340,165,51401,1,0,1:2:0:0:
462,279,51557,1,8,0:2:0:0:
397,81,51713,6,0,P|328:65|252:115,1,160,4|0,1:2|1:2,0:0:0:0:
152,233,52182,2,0,L|57:224,1,80,8|0,0:2|0:2,0:0:0:0:
236,139,52495,1,0,1:2:0:0:
275,293,52651,1,0,1:2:0:0:
373,166,52807,2,0,P|433:147|497:170,1,120,8|0,0:2|0:0,0:0:0:0:
507,187,53120,6,0,L|498:281,1,80,6|0,1:2|0:2,0:0:0:0:
351,186,53432,2,0,L|343:106,1,80,10|0,0:2|0:2,0:0:0:0:
213,213,53745,1,2,1:2:0:0:
359,295,53901,1,0,1:2:0:0:
205,363,54057,2,0,P|164:369|124:361,1,80,10|0,0:2|0:2,0:0:0:0:
31,221,54370,6,0,P|26:178|21:131,1,80,2|0,1:2|0:2,0:0:0:0:
204,117,54682,2,0,P|199:156|195:196,1,80,10|0,0:2|0:2,0:0:0:0:
284,16,54995,1,2,1:2:0:0:
118,42,55151,1,0,1:2:0:0:
307,105,55307,2,0,P|349:98|404:91,1,80,10|0,0:2|0:2,0:0:0:0:
485,249,55620,6,0,P|495:290|482:345,1,80,6|0,1:2|0:2,0:0:0:0:
306,326,55932,2,0,P|296:285|309:230,1,80,10|8,0:2|0:2,0:0:0:0:
412,88,56245,1,2,1:2:0:0:
396,249,56401,1,0,1:2:0:0:
246,173,56557,2,0,P|206:176|156:180,1,80,10|0,0:2|0:2,0:0:0:0:
26,312,56870,6,0,B|86:321|86:321|113:345|113:345|185:356,2,160,6|8|0,1:2|0:2|1:2,0:0:0:0:
135,184,57651,1,0,1:2:0:0:
206,361,57807,1,10,0:2:0:0:
292,236,57963,1,2,0:2:0:0:
110,199,58120,6,0,P|119:115|127:22,1,160,2|10,1:2|0:2,0:0:0:0:
298,6,58588,2,0,P|301:45|305:85,1,80,2|8,0:2|0:2,0:0:0:0:
318,262,58901,1,10,0:2:0:0:
426,123,59057,1,8,0:2:0:0:
234,180,59213,6,0,P|205:228|223:333,1,160,6|0,1:2|1:2,0:0:0:0:
398,270,59682,2,0,P|358:265|318:261,1,80,8|0,0:2|0:2,0:0:0:0:
491,196,59995,1,0,1:2:0:0:
432,370,60151,1,0,1:2:0:0:
328,171,60307,2,0,P|324:129|319:85,1,80,10|0,0:2|0:2,0:0:0:0:
108,43,60620,6,0,B|94:84|94:84|107:139,1,80,6|0,1:2|0:0,0:0:0:0:
188,334,60932,1,10,0:2:0:0:
224,137,61088,1,2,1:2:0:0:
0,191,61245,1,8,0:2:0:0:
206,239,61401,1,2,1:2:0:0:
119,15,61557,1,8,0:2:0:0:
103,215,61713,1,2,1:2:0:0:
332,145,61870,6,0,P|373:149|432:157,1,80,8|0,0:2|1:2,0:0:0:0:
278,341,62182,1,8,0:2:0:0:
224,137,62338,1,0,1:2:0:0:
416,267,62495,1,8,0:2:0:0:
174,322,62651,1,0,1:2:0:0:
174,322,62729,1,0,0:0:0:0:
174,322,62807,2,0,P|133:326|74:334,1,80,8|0,0:2|1:2,0:0:0:0:
208,109,63120,5,10,0:2:0:0:
278,341,63276,1,10,0:2:0:0:
208,109,63432,1,10,0:2:0:0:
429,200,63588,1,10,0:2:0:0:
429,200,64995,5,8,0:0:0:0:
389,202,65073,5,8,0:0:0:0:
349,204,65151,5,0,1:0:0:0:
309,206,65229,5,0,1:0:0:0:
269,208,65307,6,0,P|265:168|259:123,1,80,12|0,0:2|0:0,0:0:0:0:
74,16,65620,5,10,0:0:0:0:
180,239,65776,1,10,0:0:0:0:
74,16,65932,1,10,0:0:0:0:
2,252,66088,1,14,0:0:0:0:
2,252,66870,6,0,P|65:267|123:241,1,120,2|0,0:0|0:0,0:0:0:0:
134,222,67182,2,0,L|130:155,2,53.3333333333333,2|2|2,0:0|0:0|0:0,0:0:0:0:
215,293,67495,2,0,L|210:360,2,53.3333333333333,2|2|2,0:0|0:0|0:0,0:0:0:0:
292,219,67807,2,0,P|347:238|404:223,1,120,10|0,0:0|0:0,0:0:0:0:
430,137,68120,6,0,P|442:229|454:313,2,176.000005371094,6|8|0,1:2|0:2|1:2,0:0:0:0:
302,14,68901,1,0,1:2:0:0:
173,133,69057,2,0,P|234:141|271:127,1,88.000002685547,10|0,0:2|0:2,0:0:0:0:
59,60,69370,6,0,P|38:119|61:199,1,132.00000402832,2|0,1:2|0:0,0:0:0:0:
87,265,69682,2,0,P|38:273|-7:281,1,88.000002685547,10|0,0:2|0:2,0:0:0:0:
207,355,69995,1,2,1:2:0:0:
263,161,70151,1,0,1:2:0:0:
105,287,70307,1,10,0:2:0:0:
322,260,70463,1,2,0:2:0:0:
200,75,70620,6,0,B|103:73|133:128|34:126,2,176.000005371094,0|8|0,1:2|0:2|1:2,0:0:0:0:
370,118,71401,1,0,1:2:0:0:
234,229,71557,2,0,P|225:281|245:330,1,88.000002685547,10|0,0:2|0:2,0:0:0:0:
448,371,71870,6,0,P|450:310|455:223,1,132.00000402832,2|0,1:2|0:0,0:0:0:0:
498,163,72182,2,0,P|496:119|492:56,1,88.000002685547,10|0,0:2|0:2,0:0:0:0:
271,132,72495,1,2,1:2:0:0:
428,228,72651,1,0,1:2:0:0:
330,30,72807,2,0,P|283:14|219:26,1,88.000002685547,10|0,0:2|0:2,0:0:0:0:
95,179,73120,6,0,B|154:186|154:186|199:220|199:220|281:233,2,176.000005371094,6|8|0,1:2|0:2|1:2,0:0:0:0:
217,318,73901,1,2,1:2:0:0:
271,132,74057,1,10,0:2:0:0:
395,280,74213,1,2,0:2:0:0:
196,344,74370,6,0,P|96:358|4:371,2,176.000005371094,2|8|0,1:2|0:2|1:2,0:0:0:0:
348,257,75151,1,0,1:2:0:0:
216,140,75307,2,0,P|164:120|85:150,1,132.00000402832,10|0,0:2|0:0,0:0:0:0:
11,176,75620,6,0,P|6:135|0:88,1,88.000002685547,6|0,1:2|0:0,0:0:0:0:
206,256,75932,2,0,P|200:299|195:343,1,88.000002685547,8|0,0:2|0:2,0:0:0:0:
324,122,76245,1,2,1:2:0:0:
110,173,76401,1,0,1:2:0:0:
332,256,76557,2,0,P|385:272|467:244,1,132.00000402832,8|0,0:2|0:0,0:0:0:0:
502,174,76870,6,0,P|496:128|490:70,1,88.000002685547,6|0,1:2|0:0,0:0:0:0:
326,4,77182,2,0,P|321:47|315:91,1,88.000002685547,8|0,0:2|0:2,0:0:0:0:
199,244,77495,5,2,1:2:0:0:
177,246,77573,1,0,1:2:0:0:
155,248,77651,1,0,1:2:0:0:
133,250,77729,1,0,1:2:0:0:
111,252,77807,5,8,0:2:0:0:
87,216,77885,1,8,0:2:0:0:
80,173,77963,1,8,0:2:0:0:
92,131,78041,1,8,0:2:0:0:
121,98,78120,6,0,P|192:133|294:92,2,176.000005371094,6|8|0,1:2|0:2|1:2,0:0:0:0:
280,4,78901,1,0,1:2:0:0:
370,164,79057,2,0,P|364:208|358:266,1,88.000002685547,10|0,0:2|0:2,0:0:0:0:
223,364,79370,6,0,P|168:334|92:341,1,132.00000402832,2|0,1:2|0:0,0:0:0:0:
17,367,79682,2,0,P|5:326|17:271,1,88.000002685547,10|0,0:2|0:2,0:0:0:0:
71,115,79995,1,2,1:2:0:0:
209,222,80151,1,0,0:2:0:0:
26,251,80307,1,10,0:2:0:0:
187,101,80463,1,2,0:2:0:0:
290,296,80620,6,0,P|378:283|474:272,2,176.000005371094,2|8|0,1:2|0:2|1:2,0:0:0:0:
120,238,81401,1,0,1:2:0:0:
276,146,81557,2,0,P|329:132|388:141,1,88.000002685547,10|0,0:2|0:2,0:0:0:0:
147,218,81870,6,0,P|117:157|122:82,1,132.00000402832,2|0,1:2|0:0,0:0:0:0:
165,20,82182,2,0,P|210:25|278:32,1,88.000002685547,10|0,0:2|0:2,0:0:0:0:
427,57,82495,1,2,1:2:0:0:
276,146,82651,1,0,1:2:0:0:
450,43,82807,1,10,0:2:0:0:
396,265,82963,1,0,0:2:0:0:
175,201,83120,6,0,B|119:194|119:194|66:219|66:219|6:212,2,176.000005371094,6|8|0,1:2|0:2|1:2,0:0:0:0:
52,314,83901,1,2,1:2:0:0:
128,104,84057,1,10,0:2:0:0:
223,301,84213,1,2,0:2:0:0:
353,100,84370,6,0,B|359:58|359:58|341:5,1,88.000002685547,6|0,1:2|0:2,0:0:0:0:
107,14,84682,2,0,B|92:57|92:57|98:99,1,88.000002685547,8|0,0:2|0:2,0:0:0:0:
300,225,84995,2,0,P|344:218|395:209,1,88.000002685547,8|0,0:2|1:2,0:0:0:0:
222,381,85307,2,0,P|156:369|91:359,1,132.00000402832,14|0,0:2|0:2,0:0:0:0:
12,344,85620,6,0,P|1:257|44:196,1,160,6|0,1:2|0:0,0:0:0:0:
178,92,86088,2,0,P|99:82|14:72,1,160,8|0,0:0|0:0,0:0:0:0:
144,196,86557,2,0,P|186:202|241:180,1,80,8|0,0:0|0:0,0:0:0:0:
386,91,86870,5,10,0:0:0:0:
386,91,86948,1,8,0:0:0:0:
386,91,87026,1,8,0:0:0:0:
475,260,87182,2,0,P|486:299|469:358,1,80,10|0,0:0|1:0,0:0:0:0:
309,246,87495,1,10,0:0:0:0:
474,149,87651,1,8,0:3:0:0:
373,330,87807,1,10,0:3:0:0:
295,137,87963,1,10,0:3:0:0:
162,325,88120,6,0,P|114:320|65:315,1,88.000002685547,14|0,1:2|0:2,0:0:0:0:
110,90,88432,2,0,P|153:85|197:80,1,88.000002685547,8|0,0:2|0:2,0:0:0:0:
424,45,88745,1,8,0:2:0:0:
291,230,88901,1,0,1:2:0:0:
312,2,89057,1,8,0:2:0:0:
490,144,89213,1,0,1:2:0:0:
269,207,89370,6,0,P|208:208|174:222,1,88.000002685547,10|0,0:2|1:2,0:0:0:0:
367,352,89682,2,0,P|409:364|452:362,1,88.000002685547,8|0,0:2|1:2,0:0:0:0:
369,147,89995,1,10,0:2:0:0:
249,341,90151,1,0,1:2:0:0:
249,341,90229,1,0,1:0:0:0:
249,341,90307,2,0,P|204:337|150:333,1,88.000002685547,10|0,0:2|1:2,0:0:0:0:
18,153,90620,6,0,P|9:108|21:66,1,88.000002685547,12|0,1:2|0:2,0:0:0:0:
248,68,90932,2,0,P|258:110|249:152,1,88.000002685547,8|0,0:2|0:2,0:0:0:0:
50,266,91245,1,8,0:2:0:0:
137,68,91401,1,0,1:2:0:0:
174,302,91557,1,8,0:2:0:0:
18,153,91713,1,0,1:2:0:0:
242,185,91870,6,0,P|285:179|329:172,1,88.000002685547,8|0,0:2|1:2,0:0:0:0:
481,343,92182,2,0,P|437:336|393:330,1,88.000002685547,8|0,0:2|1:2,0:0:0:0:
174,302,92495,1,8,0:2:0:0:
420,237,92651,1,0,1:2:0:0:
420,237,92729,1,0,1:0:0:0:
420,237,92807,1,8,0:2:0:0:
267,382,92963,1,0,1:2:0:0:
129,186,93120,6,0,P|132:144|136:89,1,88.000002685547,14|0,1:2|0:2,0:0:0:0:
341,0,93432,2,0,P|344:43|347:87,1,88.000002685547,8|0,0:2|0:2,0:0:0:0:
373,309,93745,1,8,0:2:0:0:
237,171,93901,1,0,1:2:0:0:
443,214,94057,1,8,0:2:0:0:
268,272,94213,1,0,1:2:0:0:
471,206,94370,6,0,P|482:159|470:110,1,88.000002685547,10|0,0:2|1:2,0:0:0:0:
253,63,94682,2,0,P|242:105|249:148,1,88.000002685547,8|0,0:2|1:2,0:0:0:0:
301,363,94995,1,10,0:2:0:0:
111,251,95151,1,0,1:2:0:0:
111,251,95229,1,0,1:0:0:0:
111,251,95307,2,0,P|46:259|16:264,1,88.000002685547,10|0,0:2|1:2,0:0:0:0:
166,52,95620,6,0,P|231:60|261:65,1,88.000002685547,14|0,1:2|0:2,0:0:0:0:
371,248,95932,2,0,P|327:254|283:259,1,88.000002685547,8|0,0:2|0:2,0:0:0:0:
502,142,96245,1,8,0:2:0:0:
458,321,96401,1,0,1:2:0:0:
316,165,96557,1,8,0:2:0:0:
272,344,96713,1,0,1:2:0:0:
335,141,96870,6,0,P|330:91|327:40,1,88.000002685547,12|0,1:2|0:0,0:0:0:0:
121,6,97182,2,0,P|118:49|113:93,1,88.000002685547,8|0,0:0|0:1,0:0:0:0:
78,302,97495,1,0,1:0:0:0:
228,130,97651,1,0,1:0:0:0:
228,130,97729,1,8,0:0:0:0:
228,130,97807,1,8,0:0:0:0:
16,190,97963,1,8,0:0:0:0:
218,278,98120,6,0,B|272:268|272:268|295:248|295:248|369:238,1,132.00000402832,14|0,1:2|0:0,0:0:0:0:
427,225,98432,2,0,P|434:175|420:132,1,88.000002685547,8|0,0:2|0:2,0:0:0:0:
221,30,98745,1,8,0:2:0:0:
149,190,98901,1,0,1:2:0:0:
327,84,99057,1,8,0:2:0:0:
116,80,99213,1,0,1:2:0:0:
218,278,99370,6,0,P|212:325|205:381,1,88.000002685547,10|0,0:2|1:2,0:0:0:0:
437,312,99682,2,0,P|431:264|424:209,1,88.000002685547,8|0,0:2|1:2,0:0:0:0:
391,6,99995,1,10,0:2:0:0:
198,111,100151,1,0,1:2:0:0:
198,111,100229,1,0,1:0:0:0:
198,111,100307,2,0,P|135:119|104:107,1,88.000002685547,10|0,0:2|1:2,0:0:0:0:
358,11,100620,6,0,P|351:80|343:150,1,132.00000402832,12|0,1:2|0:0,0:0:0:0:
298,217,100932,2,0,P|303:269|309:323,1,88.000002685547,8|0,0:2|0:2,0:0:0:0:
95,283,101245,1,8,0:2:0:0:
207,136,101401,1,0,1:2:0:0:
11,235,101557,1,8,0:2:0:0:
191,343,101713,1,0,1:2:0:0:
89,146,101870,6,0,P|93:104|98:51,1,88.000002685547,8|0,0:2|1:2,0:0:0:0:
310,6,102182,2,0,P|314:49|318:93,1,88.000002685547,8|0,0:2|1:2,0:0:0:0:
350,312,102495,1,8,0:2:0:0:
218,136,102651,1,0,1:2:0:0:
218,136,102729,1,0,1:0:0:0:
218,136,102807,1,8,0:2:0:0:
408,168,102963,1,0,1:2:0:0:
223,304,103120,6,0,P|145:293|67:284,1,132.00000402832,14|0,1:2|0:0,0:0:0:0:
23,231,103432,2,0,P|14:182|30:132,1,88.000002685547,8|0,0:2|0:2,0:0:0:0:
179,16,103745,1,8,0:2:0:0:
113,188,103901,1,0,1:2:0:0:
318,110,104057,1,8,0:2:0:0:
108,86,104213,1,0,1:2:0:0:
285,246,104370,6,0,P|332:241|386:235,1,88.000002685547,10|0,0:2|1:2,0:0:0:0:
488,50,104682,2,0,P|444:45|400:40,1,88.000002685547,8|0,0:2|1:2,0:0:0:0:
179,16,104995,1,10,0:2:0:0:
270,235,105151,1,0,1:2:0:0:
270,235,105229,1,0,1:0:0:0:
270,235,105307,1,10,0:2:0:0:
375,36,105463,1,0,1:2:0:0:
174,129,105620,6,0,B|92:148|92:148|58:133|43:111,1,132.00000402832,14|0,1:2|0:0,0:0:0:0:
4,48,105932,2,0,P|46:29|96:30,1,88.000002685547,8|0,0:2|0:2,0:0:0:0:
296,99,106245,1,8,0:2:0:0:
165,229,106401,1,0,1:2:0:0:
221,16,106557,1,8,0:2:0:0:
364,182,106713,1,0,1:2:0:0:
145,253,106870,5,4,1:2:0:0:
321,81,107026,1,0,1:0:0:0:
321,81,107104,1,8,0:0:0:0:
321,81,107182,1,8,0:0:0:0:
293,325,107338,1,8,0:0:0:0:
160,115,107495,1,8,1:2:0:0:
384,190,107651,1,8,0:0:0:0:
396,195,107729,1,8,0:0:0:0:
408,199,107807,5,8,0:0:0:0:
442,172,107885,1,8,0:0:0:0:
460,132,107963,1,8,0:0:0:0:
460,89,108041,1,8,0:0:0:0:
440,48,108120,6,0,B|349:67|349:67|305:42,1,132.00000402832,14|0,1:2|0:0,0:0:0:0:
240,1,108432,2,0,P|226:45|243:100,1,88.000002685547,8|0,0:2|0:2,0:0:0:0:
298,296,108745,1,8,0:2:0:0:
442,172,108901,1,0,1:2:0:0:
224,205,109057,1,8,0:2:0:0:
430,279,109213,1,0,1:2:0:0:
224,205,109370,5,10,0:2:0:0:
315,47,109526,1,0,1:2:0:0:
317,275,109682,1,8,0:2:0:0:
108,206,109838,1,0,1:2:0:0:
338,145,109995,1,10,0:2:0:0:
195,334,110151,1,0,1:2:0:0:
195,334,110229,1,0,1:0:0:0:
195,334,110307,2,0,P|149:330|93:324,1,88.000002685547,10|0,0:2|1:2,0:0:0:0:
26,106,110620,6,0,B|111:87|111:87|161:105,1,132.00000402832,12|0,1:2|0:0,0:0:0:0:
235,132,110932,2,0,P|278:127|322:123,1,88.000002685547,8|0,0:2|0:2,0:0:0:0:
129,186,111245,1,8,0:2:0:0:
237,36,111401,1,0,1:2:0:0:
310,233,111557,1,8,0:2:0:0:
418,83,111713,1,0,1:2:0:0:
310,233,111870,5,8,0:2:0:0:
332,14,112026,1,0,1:2:0:0:
443,203,112182,1,8,0:2:0:0:
235,132,112339,1,0,1:2:0:0:
346,321,112495,1,8,0:2:0:0:
418,83,112651,1,0,1:2:0:0:
418,83,112729,1,0,1:0:0:0:
418,83,112807,2,0,P|462:85|505:87,1,88.000002685547,8|0,0:2|1:2,0:0:0:0:
310,233,113120,6,0,B|266:255|266:255|163:236,1,132.00000402832,14|0,1:2|0:0,0:0:0:0:
99,222,113432,2,0,P|88:270|103:315,1,88.000002685547,8|0,0:2|0:2,0:0:0:0:
251,134,113745,1,8,0:2:0:0:
52,93,113901,1,0,1:2:0:0:
278,24,114057,1,8,0:2:0:0:
185,240,114213,1,0,1:2:0:0:
278,24,114370,5,10,0:2:0:0:
337,217,114526,1,0,1:2:0:0:
153,67,114682,1,8,0:2:0:0:
385,111,114838,1,0,1:2:0:0:
162,220,114995,1,10,0:2:0:0:
405,295,115151,1,0,1:2:0:0:
405,295,115229,1,0,1:0:0:0:
405,295,115307,2,0,P|467:300|507:281,1,88.000002685547,10|0,0:2|1:2,0:0:0:0:
271,126,115620,6,0,B|221:121|221:121|191:102|191:102|130:94,1,132.00000402832,14|0,1:2|0:0,0:0:0:0:
57,87,115932,2,0,P|45:144|57:183,1,88.000002685547,8|0,0:2|0:2,0:0:0:0:
146,371,116245,1,8,0:2:0:0:
231,217,116401,1,0,1:2:0:0:
41,309,116557,1,8,0:2:0:0:
251,324,116713,1,0,1:2:0:0:
41,309,116870,5,6,1:2:0:0:
178,126,117026,1,0,1:0:0:0:
178,126,117104,1,8,0:0:0:0:
178,126,117182,1,8,0:0:0:0:
274,332,117338,1,8,0:0:0:0:
63,201,117495,5,6,1:2:0:0:
299,105,117651,1,0,1:0:0:0:
299,105,117729,1,8,0:0:0:0:
299,105,117807,1,8,0:0:0:0:
96,20,117963,1,8,0:0:0:0:
303,240,118120,6,0,P|356:233|427:224,1,111.999996582031,14|0,1:2|0:2,0:0:0:0:
117,41,118432,2,0,P|64:34|-7:25,1,111.999996582031,8|0,0:2|0:2,0:0:0:0:
190,238,118745,1,8,0:2:0:0:
267,4,118901,1,0,1:2:0:0:
414,225,119057,1,8,0:2:0:0:
195,111,119213,1,0,1:2:0:0:
414,225,119370,6,0,P|432:282|418:342,1,111.999996582031,10|0,0:2|1:2,0:0:0:0:
89,332,119682,2,0,P|80:277|98:225,1,111.999996582031,8|0,0:2|1:2,0:0:0:0:
256,6,119995,1,10,0:2:0:0:
197,290,120151,1,0,1:2:0:0:
197,290,120229,1,0,1:0:0:0:
197,290,120307,1,10,0:2:0:0:
94,66,120463,1,0,1:2:0:0:
355,134,120620,6,0,P|410:128|466:123,1,111.999996582031,12|0,1:2|0:2,0:0:0:0:
298,333,120932,2,0,P|242:328|186:321,1,111.999996582031,8|0,0:2|0:2,0:0:0:0:
337,111,121245,1,8,0:2:0:0:
431,313,121401,1,0,1:2:0:0:
197,180,121557,1,8,0:2:0:0:
451,218,121713,1,0,1:2:0:0:
197,180,121870,6,0,P|139:192|84:177,1,111.999996582031,8|0,0:2|1:2,0:0:0:0:
291,21,122182,2,0,P|349:9|404:24,1,111.999996582031,8|0,0:2|1:2,0:0:0:0:
306,311,122495,1,8,0:2:0:0:
192,67,122651,1,0,1:2:0:0:
192,67,122729,1,0,1:0:0:0:
192,67,122807,1,8,0:2:0:0:
423,150,122963,1,0,1:2:0:0:
192,330,123120,6,0,P|98:320|19:313,1,167.999994873047,14|0,1:2|0:0,0:0:0:0:
5,203,123432,2,0,P|57:173|132:173,1,111.999996582031,8|0,0:2|0:2,0:0:0:0:
370,233,123745,1,8,0:2:0:0:
201,362,123901,1,0,1:2:0:0:
265,101,124057,1,8,0:2:0:0:
387,255,124213,1,0,1:2:0:0:
123,194,124370,5,10,0:2:0:0:
386,141,124526,1,0,1:2:0:0:
140,31,124682,1,8,0:2:0:0:
263,269,124838,1,0,1:2:0:0:
398,22,124995,1,10,0:2:0:0:
140,179,125151,1,0,1:2:0:0:
140,179,125229,1,0,1:0:0:0:
140,179,125307,2,0,P|81:173|21:169,1,111.999996582031,10|0,0:2|1:2,0:0:0:0:
259,366,125620,6,0,B|325:355|325:355|364:371|364:371|446:357,1,167.999994873047,14|0,1:2|0:0,0:0:0:0:
496,277,125932,2,0,P|504:216|483:163,1,111.999996582031,8|0,0:2|0:2,0:0:0:0:
226,240,126245,1,8,0:2:0:0:
450,355,126401,1,0,1:2:0:0:
329,115,126557,1,8,0:2:0:0:
238,343,126713,1,0,1:2:0:0:
181,67,126870,5,6,1:2:0:0:
385,258,127026,1,0,1:0:0:0:
385,258,127104,1,8,0:0:0:0:
385,258,127182,1,8,0:0:0:0:
103,248,127338,1,8,0:0:0:0:
323,88,127495,5,6,0:3:0:0:
218,323,127651,1,4,0:3:0:0:
323,88,127807,1,4,0:3:0:0:
218,323,127963,1,4,0:3:0:0:
35,182,128120,6,0,B|3:125|3:74|38:25|38:25|82:0|159:4|170:95|170:95|125:129|83:79,1,440,6|0,0:0|0:0,0:0:0:0:
256,192,129916,12,0,135620,0:0:0:0:
