osu file format v14

[General]
AudioFilename: audio.mp3
AudioLeadIn: 0
PreviewTime: 68041
Countdown: 0
SampleSet: Normal
StackLeniency: 0.2
Mode: 0
LetterboxInBreaks: 0
WidescreenStoryboard: 0

[Editor]
DistanceSpacing: 2.3
BeatDivisor: 4
GridSize: 32
TimelineZoom: 1

[Metadata]
Title:Colorful
TitleUnicode:カラフル
Artist:HAG
ArtistUnicode:H△G
Creator:DemoPlayer
Version:AIM
Source:
Tags:
BeatmapID:2187329
BeatmapSetID:1046318

[Difficulty]
HPDrainRate:5
CircleSize:4.2
OverallDifficulty:7
ApproachRate:9.6
SliderMultiplier:1.4
SliderTickRate:1

[Events]
//Background and Video events
0,0,"stockvault-abstract-colorful-background268118.jpg",0,0
//Break Periods
//Storyboard Layer 0 (Background)
//Storyboard Layer 1 (Fail)
//Storyboard Layer 2 (Pass)
//Storyboard Layer 3 (Foreground)
//Storyboard Layer 4 (Overlay)
//Storyboard Sound Samples

[TimingPoints]
620,312.5,4,1,0,100,1,0
620,-50,4,1,0,100,0,0
3432,-200,4,1,0,100,0,0
5620,-50,4,1,0,100,0,0
5932,-200,4,1,0,100,0,0
8120,-50,4,1,0,100,0,0

[HitObjects]
93,218,620,5,0,0:0:0:0:
246,68,932,2,0,B|224:101|224:101|240:226,1,140
245,248,1167,1,0,0:0:0:0:
247,258,1245,1,0,0:0:0:0:
345,176,1401,1,0,0:0:0:0:
124,211,1557,1,0,0:0:0:0:
269,354,1713,2,0,B|291:321|291:321|275:196,1,140
145,112,2026,1,0,0:0:0:0:
298,321,2182,1,0,0:0:0:0:
298,62,2338,1,0,0:0:0:0:
145,271,2495,1,0,0:0:0:0:
392,192,2651,1,0,0:0:0:0:
256,192,2807,1,0,0:0:0:0:
461,137,3120,2,0,P|433:68|371:37,1,140
308,93,3432,2,0,P|336:162|398:193,3,140
149,191,5620,2,0,P|98:245|96:314,1,140
173,348,5932,2,0,P|223:293|225:224,3,140
146,124,8120,2,0,B|118:160|118:160|132:267,1,140
145,354,8432,1,0,0:0:0:0:
160,347,9057,1,0,0:0:0:0:
175,340,9682,1,0,0:0:0:0:
190,333,10307,1,0,0:0:0:0:
166,83,10620,1,0,0:0:0:0:
346,279,10776,2,0,B|367:246|367:246|347:118,1,140
198,336,11088,1,0,0:0:0:0:
320,70,11244,2,0,B|353:97|353:97|376:238,1,140
154,69,11557,1,0,0:0:0:0:
366,299,11713,2,0,B|392:265|392:265|367:105,1,140
184,370,12025,1,0,0:0:0:0:
335,40,12181,2,0,B|371:64|371:64|396:222,1,140
211,218,12495,1,0,0:0:0:0:
229,178,12573,1,0,0:0:0:0:
273,161,12651,1,0,0:0:0:0:
317,170,12729,1,0,0:0:0:0:
345,208,12807,1,0,0:0:0:0:
323,356,13120,2,0,B|283:326|287:319|276:207,1,140
233,24,13432,5,0,0:0:0:0:
409,116,13588,1,0,0:0:0:0:
349,0,13744,5,0,0:0:0:0:
408,188,13900,1,0,0:0:0:0:
447,65,14057,5,0,0:0:0:0:
355,241,14213,1,0,0:0:0:0:
470,180,14369,5,0,0:0:0:0:
281,239,14525,1,0,0:0:0:0:
407,280,14682,5,0,0:0:0:0:
230,187,14838,1,0,0:0:0:0:
289,302,14994,5,0,0:0:0:0:
230,112,15150,1,0,0:0:0:0:
191,239,15307,5,0,0:0:0:0:
284,62,15463,1,0,0:0:0:0:
169,128,15619,5,0,0:0:0:0:
358,68,15775,1,0,0:0:0:0:
174,53,15932,5,0,0:0:0:0:
350,144,16088,1,0,0:0:0:0:
232,4,16245,5,0,0:0:0:0:
292,194,16401,1,0,0:0:0:0:
306,10,16557,5,0,0:0:0:0:
215,186,16713,1,0,0:0:0:0:
401,71,16870,5,0,0:0:0:0:
225,163,17026,1,0,0:0:0:0:
443,177,17182,5,0,0:0:0:0:
246,151,17338,1,0,0:0:0:0:
417,287,17495,5,0,0:0:0:0:
271,153,17651,1,0,0:0:0:0:
333,363,17807,5,0,0:0:0:0:
289,169,17963,1,0,0:0:0:0:
189,321,18120,2,0,B|157:286|153:278|192:148,1,140
400,56,18432,5,0,0:0:0:0:
440,193,18588,1,0,0:0:0:0:
342,296,18745,1,0,0:0:0:0:
203,261,18901,1,0,0:0:0:0:
163,123,19057,1,0,0:0:0:0:
263,22,19213,1,0,0:0:0:0:
342,296,19370,5,0,0:0:0:0:
263,22,19526,1,0,0:0:0:0:
203,261,19682,5,0,0:0:0:0:
400,56,19838,1,0,0:0:0:0:
163,123,19995,5,0,0:0:0:0:
440,193,20151,1,0,0:0:0:0:
263,22,20307,5,0,0:0:0:0:
342,296,20463,1,0,0:0:0:0:
112,215,20620,2,0,B|99:241|84:254|63:257|38:185|127:109|210:135|260:177,1,280
328,279,21088,1,0,0:0:0:0:
272,64,21245,1,0,0:0:0:0:
112,215,21401,1,0,0:0:0:0:
328,279,21557,1,0,0:0:0:0:
458,106,21713,2,0,B|371:79|325:149|326:158|327:166|288:235|163:189,1,280
96,92,22182,2,0,P|149:80|237:102,1,140
236,346,22495,1,0,0:0:0:0:
437,202,22651,1,0,0:0:0:0:
437,202,22729,1,0,0:0:0:0:
437,202,22807,2,0,P|368:218|288:180,1,140
