osu file format v14

[General]
AudioFilename: audio.mp3
AudioLeadIn: 0
PreviewTime: 65615
Countdown: 0
SampleSet: Soft
StackLeniency: 0.7
Mode: 3
LetterboxInBreaks: 0
SpecialStyle: 0
WidescreenStoryboard: 1

[Editor]
DistanceSpacing: 1.8
BeatDivisor: 4
GridSize: 4
TimelineZoom: 2.000003

[Metadata]
Title:Colorful (Cut Ver.)
TitleUnicode:カラフル (Cut Ver.)
Artist:HAG
ArtistUnicode:H△G
Creator:-Xooti-
Version:Normal
Source:
Tags:Yuta Yukihito Mitomo 榎本健志 Enomoto Takeshi Shoko Masataka Everlasting Night of Teenage Girls Wish Records Jpop J-pop pop japanese ハグ Chiho hagu
BeatmapID:4066460
BeatmapSetID:1962079

[Difficulty]
HPDrainRate:7
CircleSize:4
OverallDifficulty:7
ApproachRate:5
SliderMultiplier:1.4
SliderTickRate:1

[Events]
//Background and Video events
0,0,"BG.jpg",0,0
//Break Periods
//Storyboard Layer 0 (Background)
//Storyboard Layer 1 (Fail)
//Storyboard Layer 2 (Pass)
//Storyboard Layer 3 (Foreground)
//Storyboard Layer 4 (Overlay)
//Storyboard Sound Samples

[TimingPoints]
615,312.5,4,2,1,45,1,0
88115,-100,4,2,1,45,0,1
128115,-100,4,2,1,45,0,0

[HitObjects]
64,192,615,5,2,0:0:0:0:
448,192,615,1,0,0:0:0:0:
192,192,927,1,8,0:0:0:0:
448,192,927,1,0,0:0:0:0:
320,192,1083,1,8,0:0:0:0:
64,192,1240,1,8,0:0:0:0:
192,192,1240,1,0,0:0:0:0:
320,192,1396,1,0,0:0:0:70:Tom1
64,192,1708,1,2,0:0:0:0:
448,192,1708,1,0,0:0:0:0:
320,192,2021,1,8,0:0:0:0:
64,192,2177,1,8,0:0:0:0:
192,192,2177,1,0,0:0:0:0:
320,192,2333,1,0,0:0:0:70:Tom2
64,192,2490,128,8,2802:0:0:0:0:
448,192,2490,1,0,0:0:0:0:
192,192,2646,1,0,0:0:0:70:Tom2
320,192,2802,128,0,3115:0:0:0:70:Tom3
64,192,3115,1,2,0:0:0:0:
448,192,3115,1,0,0:0:0:0:
192,192,3271,128,2,3583:0:0:0:0:
320,192,3427,1,0,0:0:0:0:
320,192,4052,1,0,0:0:0:0:
320,192,4677,1,0,0:0:0:0:
320,192,5302,1,0,0:0:0:0:
64,192,5615,1,2,0:0:0:0:
448,192,5615,1,0,0:0:0:0:
320,192,5771,128,2,6552:0:0:0:0:
192,192,5927,1,0,0:0:0:0:
192,192,6552,1,0,0:0:0:0:
192,192,7177,1,0,0:0:0:0:
192,192,7802,1,0,0:0:0:0:
64,192,8115,1,2,0:0:0:0:
448,192,8115,1,0,0:0:0:0:
192,192,8271,128,2,9052:0:0:0:0:
320,192,8427,1,2,0:0:0:0:
320,192,9052,1,2,0:0:0:0:
320,192,9677,1,2,0:0:0:0:
320,192,10302,1,2,0:0:0:0:
192,192,10615,1,8,0:0:0:0:
448,192,10615,1,0,0:0:0:0:
320,192,10771,1,2,0:0:0:0:
192,192,10927,1,0,0:0:0:0:
64,192,11083,1,8,0:0:0:0:
448,192,11083,1,0,0:0:0:0:
192,192,11396,1,2,0:0:0:0:
64,192,11552,1,8,0:0:0:0:
448,192,11552,1,0,0:0:0:0:
320,192,11708,1,2,0:0:0:0:
192,192,12021,1,8,0:0:0:0:
320,192,12021,1,0,0:0:0:0:
320,192,12333,1,0,0:0:0:70:Tom1
64,192,12490,1,8,0:0:0:0:
448,192,12490,1,0,0:0:0:70:Tom1
192,192,12646,1,0,0:0:0:70:Tom2
320,192,12802,1,6,0:0:0:0:
448,192,12802,1,0,0:0:0:70:Tom3
64,192,13115,1,2,0:0:0:0:
448,192,13115,1,4,0:0:0:0:
320,192,13427,128,8,13740:0:0:0:0:
448,192,13427,1,0,0:0:0:0:
64,192,13740,1,8,0:0:0:0:
192,192,13740,128,0,14052:0:0:0:0:
320,192,14052,1,8,0:0:0:0:
448,192,14052,128,0,14365:0:0:0:0:
64,192,14365,128,8,14677:0:0:0:0:
192,192,14365,1,0,0:0:0:0:
192,192,14677,1,8,0:0:0:0:
320,192,14677,128,0,14990:0:0:0:0:
64,192,14990,1,8,0:0:0:0:
448,192,14990,128,0,15302:0:0:0:0:
192,192,15146,1,2,0:0:0:0:
64,192,15302,128,8,15615:0:0:0:0:
320,192,15302,1,0,0:0:0:0:
192,192,15458,1,2,0:0:0:0:
320,192,15615,1,2,0:0:0:0:
448,192,15615,1,4,0:0:0:0:
64,192,15927,1,8,0:0:0:0:
192,192,15927,128,0,16240:0:0:0:0:
320,192,16240,128,8,16552:0:0:0:0:
448,192,16240,1,0,0:0:0:0:
64,192,16552,128,8,16865:0:0:0:0:
192,192,16552,1,0,0:0:0:0:
320,192,16865,1,8,0:0:0:0:
448,192,16865,128,0,17177:0:0:0:0:
192,192,17177,128,8,17490:0:0:0:0:
320,192,17177,1,0,0:0:0:0:
64,192,17490,128,8,17802:0:0:0:0:
448,192,17490,1,0,0:0:0:0:
320,192,17646,1,2,0:0:0:0:
192,192,17802,1,8,0:0:0:0:
448,192,17802,128,0,18115:0:0:0:0:
320,192,17958,1,2,0:0:0:0:
64,192,18115,1,2,0:0:0:0:
192,192,18115,1,4,0:0:0:0:
192,192,18427,128,8,18740:0:0:0:0:
448,192,18427,1,0,0:0:0:0:
64,192,18740,1,8,0:0:0:0:
448,192,18740,128,0,19052:0:0:0:0:
64,192,19052,128,8,19365:0:0:0:0:
320,192,19052,1,0,0:0:0:0:
192,192,19365,1,8,0:0:0:0:
320,192,19365,128,0,19677:0:0:0:0:
192,192,19677,128,8,19990:0:0:0:0:
448,192,19677,1,0,0:0:0:0:
64,192,19990,1,8,0:0:0:0:
448,192,19990,128,0,20302:0:0:0:0:
320,192,20146,1,2,0:0:0:0:
64,192,20302,128,8,20615:0:0:0:0:
192,192,20302,1,0,0:0:0:0:
320,192,20458,1,2,0:0:0:0:
192,192,20615,1,4,0:0:0:0:
448,192,20615,1,2,0:0:0:0:
320,192,20927,1,8,0:0:0:0:
448,192,20927,128,0,21240:0:0:0:0:
64,192,21240,128,8,21552:0:0:0:0:
320,192,21240,1,0,0:0:0:0:
192,192,21396,1,2,0:0:0:0:
320,192,21552,1,8,0:0:0:0:
448,192,21552,128,0,21708:0:0:0:0:
64,192,21708,1,2,0:0:0:0:
192,192,21708,1,4,0:0:0:0:
192,192,22021,1,2,0:0:0:0:
64,192,22177,1,8,0:0:0:0:
448,192,22177,1,0,0:0:0:0:
320,192,22333,1,2,0:0:0:0:
192,192,22490,1,0,0:0:0:70:Tom2
64,192,22802,128,8,23115:0:0:0:0:
448,192,22802,1,0,0:0:0:0:
192,192,22958,1,8,0:0:0:0:
320,192,23115,1,2,0:0:0:0:
448,192,23115,128,4,23427:0:0:0:0:
64,192,23427,1,8,0:0:0:0:
192,192,23427,1,0,0:0:0:0:
320,192,23740,1,2,0:0:0:0:
192,192,23896,1,2,0:0:0:0:
64,192,24052,1,8,0:0:0:0:
448,192,24052,1,0,0:0:0:0:
192,192,24365,1,2,0:0:0:0:
320,192,24521,1,2,0:0:0:0:
64,192,24677,1,8,0:0:0:0:
448,192,24677,1,0,0:0:0:0:
192,192,24833,1,2,0:0:0:0:
320,192,25146,1,2,0:0:0:0:
64,192,25302,1,8,0:0:0:0:
448,192,25302,128,0,25615:0:0:0:0:
192,192,25615,128,2,25927:0:0:0:0:
64,192,25927,1,8,0:0:0:0:
448,192,25927,128,0,26240:0:0:0:0:
320,192,26240,1,2,0:0:0:0:
192,192,26396,1,2,0:0:0:0:
64,192,26552,1,8,0:0:0:0:
448,192,26552,1,0,0:0:0:0:
192,192,26865,1,2,0:0:0:0:
320,192,27021,1,2,0:0:0:0:
64,192,27177,1,8,0:0:0:0:
448,192,27177,1,0,0:0:0:0:
192,192,27333,1,2,0:0:0:0:
320,192,27646,1,2,0:0:0:0:
64,192,27802,128,8,28115:0:0:0:0:
448,192,27802,1,0,0:0:0:0:
320,192,28115,128,2,28427:0:0:0:0:
64,192,28427,128,8,28740:0:0:0:0:
448,192,28427,1,0,0:0:0:0:
192,192,28740,1,2,0:0:0:0:
320,192,28896,1,2,0:0:0:0:
64,192,29052,1,8,0:0:0:0:
448,192,29052,1,0,0:0:0:0:
320,192,29365,1,2,0:0:0:0:
192,192,29521,1,2,0:0:0:0:
64,192,29677,1,8,0:0:0:0:
448,192,29677,1,0,0:0:0:0:
320,192,29833,1,2,0:0:0:0:
192,192,30146,1,2,0:0:0:0:
64,192,30302,1,8,0:0:0:0:
448,192,30302,128,0,30615:0:0:0:0:
64,192,30615,128,2,30927:0:0:0:0:
192,192,30927,1,8,0:0:0:0:
448,192,30927,128,0,31240:0:0:0:0:
64,192,31240,1,2,0:0:0:0:
192,192,31396,1,8,0:0:0:0:
320,192,31396,1,0,0:0:0:0:
448,192,31708,1,2,0:0:0:0:
64,192,31865,128,0,32177:0:0:0:0:
192,192,32177,1,8,0:0:0:0:
448,192,32177,128,0,32333:0:0:0:0:
64,192,32333,128,2,32490:0:0:0:0:
320,192,32490,128,8,32802:0:0:0:0:
448,192,32490,1,0,0:0:0:0:
64,192,32802,1,8,0:0:0:0:
192,192,32802,128,0,33115:0:0:0:0:
320,192,33115,1,2,0:0:0:0:
448,192,33115,1,4,0:0:0:0:
192,192,33427,1,8,0:0:0:0:
448,192,33427,1,0,0:0:0:0:
320,192,33740,1,2,0:0:0:0:
192,192,33896,1,2,0:0:0:0:
64,192,34052,1,8,0:0:0:0:
448,192,34052,1,0,0:0:0:0:
192,192,34365,1,2,0:0:0:0:
448,192,34521,1,2,0:0:0:0:
64,192,34677,1,8,0:0:0:0:
320,192,34677,1,0,0:0:0:0:
192,192,34833,1,2,0:0:0:0:
320,192,35146,1,2,0:0:0:0:
64,192,35302,128,8,35615:0:0:0:0:
448,192,35302,1,0,0:0:0:0:
448,192,35615,128,2,35927:0:0:0:0:
64,192,35927,128,8,36240:0:0:0:0:
320,192,35927,1,0,0:0:0:0:
192,192,36240,1,2,0:0:0:0:
320,192,36396,1,2,0:0:0:0:
64,192,36552,1,8,0:0:0:0:
448,192,36552,1,0,0:0:0:0:
320,192,36865,1,2,0:0:0:0:
64,192,37021,1,2,0:0:0:0:
192,192,37177,1,8,0:0:0:0:
448,192,37177,1,0,0:0:0:0:
320,192,37333,1,2,0:0:0:0:
192,192,37646,1,2,0:0:0:0:
64,192,37802,1,8,0:0:0:0:
448,192,37802,128,0,38115:0:0:0:0:
64,192,38115,128,2,38427:0:0:0:0:
192,192,38427,1,8,0:0:0:0:
448,192,38427,128,0,38740:0:0:0:0:
320,192,38740,1,2,0:0:0:0:
192,192,38896,1,2,0:0:0:0:
64,192,39052,1,8,0:0:0:0:
448,192,39052,1,0,0:0:0:0:
192,192,39365,1,2,0:0:0:0:
320,192,39521,1,2,0:0:0:0:
64,192,39677,1,8,0:0:0:0:
448,192,39677,1,0,0:0:0:0:
192,192,39833,1,2,0:0:0:0:
320,192,40146,1,2,0:0:0:0:
64,192,40302,128,8,40615:0:0:0:0:
448,192,40302,1,0,0:0:0:0:
320,192,40615,128,2,40927:0:0:0:0:
64,192,40927,128,8,41240:0:0:0:0:
448,192,40927,1,0,0:0:0:0:
192,192,41240,1,2,0:0:0:0:
320,192,41396,1,2,0:0:0:0:
64,192,41552,1,8,0:0:0:0:
192,192,41552,1,0,0:0:0:0:
320,192,41708,1,2,0:0:0:0:
448,192,41708,1,4,0:0:0:0:
64,192,42177,128,8,42490:0:0:0:0:
320,192,42177,1,0,0:0:0:0:
448,192,42490,128,0,42802:0:0:0:0:
192,192,42802,128,0,43115:0:0:0:70:Tom1
320,192,42958,1,0,0:0:0:70:Tom2
64,192,43115,1,2,0:0:0:0:
448,192,43115,128,4,43427:0:0:0:0:
64,192,43427,128,2,43740:0:0:0:0:
448,192,43740,1,8,0:0:0:0:
320,192,43740,128,0,44052:0:0:0:0:
192,192,44052,128,2,44365:0:0:0:0:
320,192,44208,1,8,0:0:0:0:
64,192,44365,1,2,0:0:0:0:
448,192,44365,128,0,44677:0:0:0:0:
64,192,44677,128,2,44990:0:0:0:0:
192,192,44990,128,8,45302:0:0:0:0:
448,192,44990,1,0,0:0:0:0:
320,192,45302,128,2,45615:0:0:0:0:
192,192,45458,1,8,0:0:0:0:
64,192,45615,128,2,45927:0:0:0:0:
448,192,45615,1,0,0:0:0:0:
448,192,45927,128,2,46240:0:0:0:0:
64,192,46240,1,8,0:0:0:0:
320,192,46240,128,0,46552:0:0:0:0:
192,192,46552,128,2,46865:0:0:0:0:
320,192,46708,1,8,0:0:0:0:
64,192,46865,128,2,47490:0:0:0:0:
448,192,46865,1,0,0:0:0:0:
320,192,47177,1,2,0:0:0:0:
192,192,47490,1,8,0:0:0:0:
448,192,47490,1,0,0:0:0:0:
320,192,47802,1,2,0:0:0:0:
192,192,47958,1,8,0:0:0:0:
64,192,48115,1,2,0:0:0:0:
448,192,48115,128,4,48427:0:0:0:0:
192,192,48427,128,2,48740:0:0:0:0:
320,192,48740,128,8,49052:0:0:0:0:
448,192,48740,1,0,0:0:0:0:
64,192,49052,128,2,49365:0:0:0:0:
192,192,49208,1,8,0:0:0:0:
320,192,49365,1,2,0:0:0:0:
448,192,49365,128,0,49677:0:0:0:0:
192,192,49677,128,2,49990:0:0:0:0:
320,192,49990,1,8,0:0:0:0:
448,192,49990,1,0,0:0:0:0:
64,192,50302,1,8,0:0:0:0:
192,192,50302,1,0,0:0:0:0:
64,192,50615,1,2,0:0:0:0:
448,192,50615,1,4,0:0:0:0:
192,192,50927,1,8,0:0:0:0:
320,192,50927,1,0,0:0:0:0:
64,192,51240,1,2,0:0:0:0:
192,192,51396,1,2,0:0:0:0:
320,192,51552,1,8,0:0:0:0:
448,192,51552,1,0,0:0:0:0:
64,192,51708,1,4,0:0:0:0:
192,192,51708,1,2,0:0:0:0:
320,192,52021,1,2,0:0:0:0:
64,192,52177,1,8,0:0:0:0:
448,192,52177,1,0,0:0:0:0:
448,192,52490,1,2,0:0:0:0:
320,192,52646,1,2,0:0:0:0:
64,192,52802,1,8,0:0:0:0:
192,192,52802,1,0,0:0:0:0:
64,192,53115,128,2,53427:0:0:0:0:
448,192,53115,1,4,0:0:0:0:
192,192,53427,128,8,53740:0:0:0:0:
320,192,53427,1,0,0:0:0:0:
448,192,53740,128,2,54052:0:0:0:0:
320,192,53896,1,2,0:0:0:0:
64,192,54052,128,8,54365:0:0:0:0:
192,192,54052,1,0,0:0:0:0:
320,192,54365,128,2,54677:0:0:0:0:
192,192,54677,128,8,54990:0:0:0:0:
448,192,54677,1,0,0:0:0:0:
320,192,54990,128,2,55302:0:0:0:0:
192,192,55146,1,2,0:0:0:0:
64,192,55302,1,8,0:0:0:0:
448,192,55302,128,0,55615:0:0:0:0:
192,192,55615,128,2,55927:0:0:0:0:
320,192,55615,1,4,0:0:0:0:
64,192,55927,1,8,0:0:0:0:
320,192,55927,128,0,56240:0:0:0:0:
64,192,56240,128,2,56552:0:0:0:0:
192,192,56396,1,2,0:0:0:0:
320,192,56552,1,8,0:0:0:0:
448,192,56552,128,0,56865:0:0:0:0:
64,192,56865,1,2,0:0:0:0:
192,192,56865,1,4,0:0:0:0:
64,192,57177,1,8,0:0:0:0:
448,192,57177,1,0,0:0:0:0:
320,192,57490,1,2,0:0:0:0:
192,192,57646,1,2,0:0:0:0:
64,192,57802,1,8,0:0:0:0:
448,192,57802,1,0,0:0:0:0:
64,192,58115,128,2,58427:0:0:0:0:
192,192,58427,1,8,0:0:0:0:
448,192,58427,1,0,0:0:0:0:
320,192,58740,1,0,0:0:0:70:Tom1
64,192,59052,1,8,0:0:0:0:
448,192,59052,1,0,0:0:0:0:
192,192,59208,1,6,0:0:0:0:
320,192,59208,1,8,0:0:0:0:
192,192,59521,1,2,0:0:0:0:
64,192,59677,1,8,0:0:0:0:
448,192,59677,1,0,0:0:0:0:
192,192,59990,1,2,0:0:0:0:
320,192,60146,1,2,0:0:0:0:
64,192,60302,1,8,0:0:0:0:
448,192,60302,1,0,0:0:0:0:
192,192,60615,1,2,0:0:0:0:
448,192,60615,128,4,60927:0:0:0:0:
64,192,60927,1,8,0:0:0:0:
320,192,60927,1,0,0:0:0:0:
64,192,61240,1,8,0:0:0:0:
192,192,61240,1,0,0:0:0:0:
448,192,61396,1,2,0:0:0:0:
192,192,61552,1,8,0:0:0:0:
320,192,61552,1,0,0:0:0:0:
64,192,61708,1,2,0:0:0:0:
320,192,61865,1,8,0:0:0:0:
448,192,61865,1,0,0:0:0:0:
64,192,62177,1,8,0:0:0:0:
192,192,62177,1,0,0:0:0:0:
320,192,62490,1,8,0:0:0:0:
448,192,62490,1,0,0:0:0:0:
64,192,62646,1,2,0:0:0:0:
192,192,62802,1,8,0:0:0:0:
320,192,62802,1,0,0:0:0:0:
448,192,62958,1,2,0:0:0:0:
64,192,63115,1,8,0:0:0:0:
192,192,63115,1,0,0:0:0:0:
320,192,63271,1,8,0:0:0:0:
320,192,63427,1,8,0:0:0:0:
64,192,63583,1,2,0:0:0:0:
448,192,63583,1,0,0:0:0:0:
192,192,63740,128,0,64365:0:0:0:0:
64,192,64365,128,0,64990:0:0:0:0:
320,192,64677,1,0,0:0:0:0:
192,192,64990,1,8,0:0:0:0:
448,192,64990,128,0,65615:0:0:0:0:
320,192,65146,1,0,0:0:0:70:Tom1
64,192,65302,1,6,0:0:0:0:
192,192,65302,1,0,0:0:0:70:Tom3
64,192,65615,1,8,0:0:0:0:
320,192,65615,1,0,0:0:0:0:
192,192,65771,1,8,0:0:0:0:
192,192,65927,1,8,0:0:0:0:
64,192,66083,1,2,0:0:0:0:
448,192,66083,1,0,0:0:0:0:
320,192,66240,128,0,66865:0:0:0:0:
448,192,66865,128,0,67490:0:0:0:0:
192,192,67177,128,0,67490:0:0:0:0:
64,192,67490,128,0,67802:0:0:0:0:
320,192,67802,1,0,0:0:0:70:Tom2
448,192,67802,1,0,0:0:0:0:
64,192,68115,1,2,0:0:0:0:
448,192,68115,128,4,68740:0:0:0:0:
64,192,68427,1,8,0:0:0:0:
192,192,68427,1,0,0:0:0:0:
320,192,68740,1,2,0:0:0:0:
192,192,68896,1,2,0:0:0:0:
64,192,69052,1,8,0:0:0:0:
448,192,69052,1,0,0:0:0:0:
192,192,69365,128,2,69677:0:0:0:0:
320,192,69365,1,0,0:0:0:0:
64,192,69677,1,8,0:0:0:0:
448,192,69677,128,0,69990:0:0:0:0:
64,192,69990,128,2,70302:0:0:0:0:
192,192,70146,1,2,0:0:0:0:
320,192,70302,1,8,0:0:0:0:
448,192,70302,1,0,0:0:0:0:
192,192,70615,1,2,0:0:0:0:
448,192,70615,128,0,70927:0:0:0:0:
64,192,70927,1,8,0:0:0:0:
320,192,70927,1,0,0:0:0:0:
192,192,71240,1,2,0:0:0:0:
320,192,71396,1,2,0:0:0:0:
64,192,71552,1,8,0:0:0:0:
448,192,71552,1,0,0:0:0:0:
64,192,71865,128,2,72177:0:0:0:0:
192,192,71865,1,0,0:0:0:0:
320,192,72177,128,8,72490:0:0:0:0:
448,192,72177,1,0,0:0:0:0:
192,192,72490,128,2,72802:0:0:0:0:
320,192,72646,1,2,0:0:0:0:
64,192,72802,1,8,0:0:0:0:
448,192,72802,128,0,73115:0:0:0:0:
64,192,73115,128,2,73740:0:0:0:0:
192,192,73115,1,0,0:0:0:0:
320,192,73427,1,8,0:0:0:0:
448,192,73427,1,0,0:0:0:0:
448,192,73740,1,2,0:0:0:0:
320,192,73896,1,2,0:0:0:0:
64,192,74052,1,8,0:0:0:0:
192,192,74052,1,0,0:0:0:0:
320,192,74365,1,2,0:0:0:0:
448,192,74365,128,0,74990:0:0:0:0:
64,192,74677,1,8,0:0:0:0:
192,192,74677,1,0,0:0:0:0:
192,192,74990,1,2,0:0:0:0:
320,192,75146,1,2,0:0:0:0:
64,192,75302,128,8,75615:0:0:0:0:
448,192,75302,1,0,0:0:0:0:
192,192,75615,1,2,0:0:0:0:
448,192,75615,128,0,75927:0:0:0:0:
64,192,75927,1,8,0:0:0:0:
320,192,75927,1,0,0:0:0:0:
192,192,76240,128,2,76552:0:0:0:0:
320,192,76396,1,2,0:0:0:0:
64,192,76552,1,8,0:0:0:0:
448,192,76552,1,0,0:0:0:0:
320,192,76865,128,2,77490:0:0:0:0:
448,192,76865,1,0,0:0:0:0:
64,192,77177,1,8,0:0:0:0:
192,192,77177,1,0,0:0:0:0:
64,192,77490,1,2,0:0:0:0:
448,192,77490,128,0,78115:0:0:0:0:
192,192,77646,1,8,0:0:0:0:
320,192,77802,1,8,0:0:0:0:
192,192,77958,1,8,0:0:0:0:
64,192,78115,128,2,78427:0:0:0:0:
320,192,78115,1,4,0:0:0:0:
192,192,78427,1,8,0:0:0:0:
448,192,78427,1,0,0:0:0:0:
320,192,78740,1,2,0:0:0:0:
192,192,78896,1,2,0:0:0:0:
64,192,79052,1,8,0:0:0:0:
448,192,79052,1,0,0:0:0:0:
192,192,79365,1,2,0:0:0:0:
320,192,79365,128,0,79677:0:0:0:0:
64,192,79677,128,8,79990:0:0:0:0:
448,192,79677,1,0,0:0:0:0:
448,192,79990,128,2,80302:0:0:0:0:
320,192,80146,1,2,0:0:0:0:
64,192,80302,1,8,0:0:0:0:
192,192,80302,1,0,0:0:0:0:
64,192,80615,128,2,80927:0:0:0:0:
448,192,80615,1,0,0:0:0:0:
320,192,80927,1,8,0:0:0:0:
448,192,80927,1,0,0:0:0:0:
192,192,81240,1,2,0:0:0:0:
320,192,81396,1,2,0:0:0:0:
64,192,81552,1,8,0:0:0:0:
448,192,81552,1,0,0:0:0:0:
192,192,81865,128,2,82177:0:0:0:0:
320,192,81865,1,0,0:0:0:0:
64,192,82177,1,8,0:0:0:0:
320,192,82177,128,0,82490:0:0:0:0:
448,192,82490,128,2,82802:0:0:0:0:
64,192,82646,1,2,0:0:0:0:
192,192,82802,128,8,83115:0:0:0:0:
320,192,82802,1,0,0:0:0:0:
64,192,83115,1,2,0:0:0:0:
448,192,83115,128,4,83740:0:0:0:0:
64,192,83427,1,8,0:0:0:0:
192,192,83427,1,0,0:0:0:0:
320,192,83740,1,2,0:0:0:0:
64,192,83896,1,2,0:0:0:0:
192,192,84052,1,8,0:0:0:0:
320,192,84052,1,0,0:0:0:0:
64,192,84365,128,2,84990:0:0:0:0:
448,192,84365,1,4,0:0:0:0:
320,192,84677,1,8,0:0:0:0:
448,192,84677,1,0,0:0:0:0:
192,192,84990,1,8,0:0:0:0:
320,192,84990,1,0,0:0:0:0:
64,192,85302,1,8,0:0:0:0:
448,192,85302,1,4,0:0:0:0:
192,192,85615,1,2,0:0:0:0:
320,192,85615,128,4,86240:0:0:0:0:
64,192,86083,1,8,0:0:0:0:
192,192,86240,128,0,86865:0:0:0:0:
448,192,86552,1,8,0:0:0:0:
320,192,86865,1,8,0:0:0:0:
64,192,87021,1,8,0:0:0:0:
448,192,87021,1,0,0:0:0:0:
192,192,87177,128,0,87490:0:0:0:0:
64,192,87490,1,8,0:0:0:0:
320,192,87490,128,0,87802:0:0:0:70:Tom1
64,192,87802,1,0,0:0:0:70:Tom2
448,192,87802,128,0,88115:0:0:0:0:
192,192,88115,1,4,0:0:0:0:
320,192,88115,1,2,0:0:0:0:
64,192,88427,1,8,0:0:0:0:
320,192,88427,128,0,88740:0:0:0:0:
192,192,88740,128,8,89052:0:0:0:0:
448,192,88740,1,0,0:0:0:0:
64,192,89052,1,8,0:0:0:0:
448,192,89052,128,0,89365:0:0:0:0:
64,192,89365,128,8,89677:0:0:0:0:
320,192,89365,1,0,0:0:0:0:
192,192,89677,1,8,0:0:0:0:
320,192,89677,128,0,89990:0:0:0:0:
64,192,89990,128,8,90302:0:0:0:0:
448,192,89990,1,0,0:0:0:0:
320,192,90146,1,2,0:0:0:0:
192,192,90302,1,8,0:0:0:0:
448,192,90302,128,0,90615:0:0:0:0:
320,192,90458,1,2,0:0:0:0:
64,192,90615,1,4,0:0:0:0:
192,192,90615,1,2,0:0:0:0:
192,192,90927,128,8,91240:0:0:0:0:
448,192,90927,1,0,0:0:0:0:
64,192,91240,1,8,0:0:0:0:
320,192,91240,128,0,91552:0:0:0:0:
64,192,91552,128,8,91865:0:0:0:0:
448,192,91552,1,0,0:0:0:0:
192,192,91865,1,8,0:0:0:0:
448,192,91865,128,0,92177:0:0:0:0:
192,192,92177,128,8,92490:0:0:0:0:
320,192,92177,1,0,0:0:0:0:
64,192,92490,1,8,0:0:0:0:
448,192,92490,128,0,92802:0:0:0:0:
192,192,92646,1,2,0:0:0:0:
64,192,92802,128,8,93115:0:0:0:0:
320,192,92802,1,0,0:0:0:0:
192,192,92958,1,2,0:0:0:0:
320,192,93115,1,4,0:0:0:0:
448,192,93115,1,2,0:0:0:0:
192,192,93427,1,8,0:0:0:0:
320,192,93427,128,0,93740:0:0:0:0:
64,192,93740,128,8,94052:0:0:0:0:
448,192,93740,1,0,0:0:0:0:
192,192,94052,1,8,0:0:0:0:
448,192,94052,128,0,94365:0:0:0:0:
64,192,94365,1,8,0:0:0:0:
320,192,94365,128,0,94677:0:0:0:0:
448,192,94677,1,8,0:0:0:0:
192,192,94677,128,0,94990:0:0:0:0:
64,192,94990,1,8,0:0:0:0:
448,192,94990,128,0,95302:0:0:0:0:
320,192,95146,1,2,0:0:0:0:
64,192,95302,128,8,95615:0:0:0:0:
192,192,95302,1,0,0:0:0:0:
320,192,95458,1,2,0:0:0:0:
192,192,95615,1,2,0:0:0:0:
448,192,95615,1,4,0:0:0:0:
192,192,95927,1,8,0:0:0:0:
320,192,95927,128,0,96240:0:0:0:0:
64,192,96240,128,8,96552:0:0:0:0:
448,192,96240,1,0,0:0:0:0:
192,192,96396,1,2,0:0:0:0:
320,192,96552,1,8,0:0:0:0:
448,192,96552,128,0,96865:0:0:0:0:
192,192,96708,1,2,0:0:0:0:
64,192,96865,1,2,0:0:0:0:
320,192,96865,1,4,0:0:0:0:
192,192,97177,1,8,0:0:0:0:
448,192,97177,1,0,0:0:0:0:
192,192,97490,1,2,0:0:0:0:
320,192,97490,1,0,0:0:0:70:Tom1
320,192,97802,1,8,0:0:0:0:
64,192,97958,1,8,0:0:0:0:
192,192,97958,1,0,0:0:0:0:
320,192,98115,1,10,0:0:0:0:
448,192,98115,1,4,0:0:0:0:
64,192,98427,128,8,98740:0:0:0:0:
448,192,98427,1,0,0:0:0:0:
192,192,98740,1,8,0:0:0:0:
448,192,98740,128,0,99052:0:0:0:0:
192,192,99052,128,8,99365:0:0:0:0:
320,192,99052,1,0,0:0:0:0:
64,192,99365,1,8,0:0:0:0:
320,192,99365,128,0,99677:0:0:0:0:
64,192,99677,128,8,99990:0:0:0:0:
448,192,99677,1,0,0:0:0:0:
192,192,99990,1,8,0:0:0:0:
448,192,99990,128,0,100302:0:0:0:0:
320,192,100146,1,2,0:0:0:0:
64,192,100302,128,8,100615:0:0:0:0:
192,192,100302,1,0,0:0:0:0:
320,192,100458,1,2,0:0:0:0:
192,192,100615,1,2,0:0:0:0:
448,192,100615,1,4,0:0:0:0:
64,192,100927,1,8,0:0:0:0:
448,192,100927,128,0,101240:0:0:0:0:
64,192,101240,128,8,101552:0:0:0:0:
320,192,101240,1,0,0:0:0:0:
192,192,101552,1,8,0:0:0:0:
320,192,101552,128,0,101865:0:0:0:0:
192,192,101865,128,8,102177:0:0:0:0:
448,192,101865,1,0,0:0:0:0:
64,192,102177,1,8,0:0:0:0:
448,192,102177,128,0,102490:0:0:0:0:
64,192,102490,128,8,102802:0:0:0:0:
320,192,102490,1,0,0:0:0:0:
192,192,102646,1,2,0:0:0:0:
320,192,102802,1,8,0:0:0:0:
448,192,102802,128,0,103115:0:0:0:0:
192,192,102958,1,2,0:0:0:0:
64,192,103115,1,2,0:0:0:0:
320,192,103115,1,4,0:0:0:0:
192,192,103427,1,8,0:0:0:0:
320,192,103427,128,0,103740:0:0:0:0:
192,192,103740,128,8,104052:0:0:0:0:
448,192,103740,1,0,0:0:0:0:
64,192,104052,1,8,0:0:0:0:
448,192,104052,128,0,104365:0:0:0:0:
64,192,104365,128,8,104677:0:0:0:0:
320,192,104365,1,0,0:0:0:0:
192,192,104677,1,8,0:0:0:0:
320,192,104677,128,0,104990:0:0:0:0:
64,192,104990,128,8,105302:0:0:0:0:
448,192,104990,1,0,0:0:0:0:
192,192,105146,1,2,0:0:0:0:
320,192,105302,1,8,0:0:0:0:
448,192,105302,128,0,105615:0:0:0:0:
192,192,105458,1,2,0:0:0:0:
64,192,105615,1,2,0:0:0:0:
320,192,105615,1,4,0:0:0:0:
192,192,105927,128,8,106240:0:0:0:0:
448,192,105927,1,0,0:0:0:0:
64,192,106240,1,8,0:0:0:0:
448,192,106240,128,0,106552:0:0:0:0:
320,192,106396,1,2,0:0:0:0:
64,192,106552,128,8,106865:0:0:0:0:
192,192,106552,1,0,0:0:0:0:
320,192,106708,1,2,0:0:0:0:
192,192,106865,1,2,0:0:0:0:
448,192,106865,1,4,0:0:0:0:
320,192,107177,1,8,0:0:0:0:
192,192,107333,1,8,0:0:0:0:
64,192,107490,1,8,0:0:0:0:
448,192,107490,1,2,0:0:0:0:
320,192,107646,1,8,0:0:0:0:
64,192,107802,1,8,0:0:0:0:
192,192,107802,1,0,0:0:0:0:
448,192,107958,1,8,0:0:0:0:
192,192,108115,1,4,0:0:0:0:
320,192,108115,1,2,0:0:0:0:
192,192,108427,128,8,108740:0:0:0:0:
448,192,108427,1,0,0:0:0:0:
64,192,108740,1,8,0:0:0:0:
320,192,108740,128,0,109052:0:0:0:0:
64,192,109052,128,8,109365:0:0:0:0:
448,192,109052,1,0,0:0:0:0:
192,192,109365,128,8,109677:0:0:0:0:
448,192,109365,1,0,0:0:0:0:
320,192,109677,128,8,109990:0:0:0:0:
64,192,109677,1,0,0:0:0:0:
64,192,109990,1,8,0:0:0:0:
448,192,109990,128,0,110302:0:0:0:0:
192,192,110146,1,2,0:0:0:0:
64,192,110302,128,8,110615:0:0:0:0:
320,192,110302,1,0,0:0:0:0:
192,192,110458,1,2,0:0:0:0:
320,192,110615,1,4,0:0:0:0:
448,192,110615,1,2,0:0:0:0:
64,192,110927,1,8,0:0:0:0:
320,192,110927,128,0,111240:0:0:0:0:
192,192,111240,128,8,111552:0:0:0:0:
448,192,111240,1,0,0:0:0:0:
64,192,111552,1,8,0:0:0:0:
448,192,111552,128,0,111865:0:0:0:0:
64,192,111865,1,8,0:0:0:0:
320,192,111865,128,0,112177:0:0:0:0:
448,192,112177,1,8,0:0:0:0:
192,192,112177,128,0,112490:0:0:0:0:
64,192,112490,128,8,112802:0:0:0:0:
448,192,112490,1,0,0:0:0:0:
320,192,112646,1,2,0:0:0:0:
192,192,112802,1,8,0:0:0:0:
448,192,112802,128,0,113115:0:0:0:0:
320,192,112958,1,2,0:0:0:0:
64,192,113115,1,4,0:0:0:0:
192,192,113115,1,2,0:0:0:0:
64,192,113427,1,8,0:0:0:0:
320,192,113427,128,0,113740:0:0:0:0:
192,192,113740,128,8,114052:0:0:0:0:
448,192,113740,1,0,0:0:0:0:
320,192,114052,1,8,0:0:0:0:
448,192,114052,128,0,114365:0:0:0:0:
64,192,114365,128,8,114677:0:0:0:0:
320,192,114365,1,0,0:0:0:0:
192,192,114677,128,8,114990:0:0:0:0:
448,192,114677,1,0,0:0:0:0:
64,192,114990,1,8,0:0:0:0:
448,192,114990,128,0,115302:0:0:0:0:
320,192,115146,1,2,0:0:0:0:
64,192,115302,128,8,115615:0:0:0:0:
192,192,115302,1,0,0:0:0:0:
320,192,115458,1,2,0:0:0:0:
192,192,115615,1,2,0:0:0:0:
448,192,115615,1,4,0:0:0:0:
192,192,115927,128,8,116240:0:0:0:0:
320,192,115927,1,0,0:0:0:0:
64,192,116240,128,8,116552:0:0:0:0:
448,192,116240,1,0,0:0:0:0:
320,192,116396,1,2,0:0:0:0:
192,192,116552,1,8,0:0:0:0:
448,192,116552,128,0,116865:0:0:0:0:
320,192,116708,1,2,0:0:0:0:
64,192,116865,1,2,0:0:0:0:
192,192,116865,1,4,0:0:0:0:
320,192,117177,1,8,0:0:0:0:
64,192,117333,1,8,0:0:0:0:
192,192,117333,1,0,0:0:0:0:
320,192,117490,1,2,0:0:0:0:
448,192,117490,1,4,0:0:0:0:
192,192,117802,1,8,0:0:0:0:
320,192,117958,1,8,0:0:0:0:
448,192,117958,1,0,0:0:0:0:
64,192,118115,1,2,0:0:0:0:
192,192,118115,1,4,0:0:0:0:
192,192,118427,128,8,118740:0:0:0:0:
448,192,118427,1,0,0:0:0:0:
64,192,118740,1,8,0:0:0:0:
448,192,118740,128,0,119052:0:0:0:0:
64,192,119052,128,8,119365:0:0:0:0:
320,192,119052,1,0,0:0:0:0:
192,192,119365,1,8,0:0:0:0:
320,192,119365,128,0,119677:0:0:0:0:
192,192,119677,128,8,119990:0:0:0:0:
448,192,119677,1,0,0:0:0:0:
64,192,119990,1,8,0:0:0:0:
448,192,119990,128,0,120302:0:0:0:0:
320,192,120146,1,2,0:0:0:0:
64,192,120302,128,8,120615:0:0:0:0:
192,192,120302,1,0,0:0:0:0:
320,192,120458,1,2,0:0:0:0:
192,192,120615,1,2,0:0:0:0:
448,192,120615,1,4,0:0:0:0:
64,192,120927,1,8,0:0:0:0:
320,192,120927,128,0,121240:0:0:0:0:
64,192,121240,128,8,121552:0:0:0:0:
448,192,121240,1,0,0:0:0:0:
192,192,121552,1,8,0:0:0:0:
448,192,121552,128,0,121865:0:0:0:0:
192,192,121865,128,8,122177:0:0:0:0:
320,192,121865,1,0,0:0:0:0:
64,192,122177,1,8,0:0:0:0:
320,192,122177,128,0,122490:0:0:0:0:
64,192,122490,128,8,122802:0:0:0:0:
448,192,122490,1,0,0:0:0:0:
192,192,122646,1,2,0:0:0:0:
320,192,122802,1,8,0:0:0:0:
448,192,122802,128,0,123115:0:0:0:0:
192,192,122958,1,2,0:0:0:0:
64,192,123115,1,2,0:0:0:0:
320,192,123115,1,4,0:0:0:0:
192,192,123427,128,8,123740:0:0:0:0:
320,192,123427,1,0,0:0:0:0:
64,192,123740,1,8,0:0:0:0:
448,192,123740,128,0,124052:0:0:0:0:
64,192,124052,128,8,124365:0:0:0:0:
320,192,124052,1,0,0:0:0:0:
192,192,124365,128,8,124677:0:0:0:0:
448,192,124365,1,0,0:0:0:0:
64,192,124677,1,8,0:0:0:0:
320,192,124677,128,0,124990:0:0:0:0:
64,192,124990,128,8,125302:0:0:0:0:
448,192,124990,1,0,0:0:0:0:
192,192,125146,1,2,0:0:0:0:
320,192,125302,1,8,0:0:0:0:
448,192,125302,128,0,125615:0:0:0:0:
192,192,125458,1,2,0:0:0:0:
64,192,125615,1,4,0:0:0:0:
320,192,125615,1,2,0:0:0:0:
192,192,125927,128,8,126240:0:0:0:0:
448,192,125927,1,0,0:0:0:0:
64,192,126240,1,8,0:0:0:0:
448,192,126240,128,0,126552:0:0:0:0:
320,192,126396,1,2,0:0:0:0:
64,192,126552,128,8,126865:0:0:0:0:
192,192,126552,1,0,0:0:0:0:
320,192,126708,1,2,0:0:0:0:
192,192,126865,1,2,0:0:0:0:
448,192,126865,1,4,0:0:0:0:
64,192,127177,1,8,0:0:0:0:
320,192,127333,1,8,0:0:0:0:
448,192,127333,1,0,0:0:0:0:
192,192,127490,1,0,0:0:0:70:Tom1
448,192,127646,1,0,0:0:0:70:Tom1
320,192,127802,1,0,0:0:0:70:Tom2
192,192,127958,1,0,0:0:0:70:Tom3
64,192,128115,128,4,129833:0:0:0:0:
448,192,128115,128,2,135302:0:0:0:0:
