osu file format v14

[General]
AudioFilename: audio114.6.mp3
AudioLeadIn: 0
PreviewTime: 55551
Countdown: 1
SampleSet: None
StackLeniency: 0.7
Mode: 0
LetterboxInBreaks: 0
WidescreenStoryboard: 1

[Editor]
Bookmarks: 69225,70043
DistanceSpacing: 2
BeatDivisor: 4
GridSize: 32
TimelineZoom: 1.9

[Metadata]
Title:Colorful
TitleUnicode:カラフル
Artist:HAG
ArtistUnicode:ハグ
Creator:Coodywoo
Version:220BPM AR10
Source:
Tags:
BeatmapID:1992361
BeatmapSetID:934015

[Difficulty]
HPDrainRate:3
CircleSize:4.2
OverallDifficulty:8
ApproachRate:10
SliderMultiplier:1.6
SliderTickRate:1

[Events]
//Background and Video events
0,0,"hag colorful.png",0,0
//Break Periods
2,103238,104393
//Storyboard Layer 0 (Background)
//Storyboard Layer 1 (Fail)
//Storyboard Layer 2 (Pass)
//Storyboard Layer 3 (Foreground)
//Storyboard Sound Samples

[TimingPoints]
2689,272.687609075044,4,1,0,100,1,0
2689,-100,4,1,0,100,0,0
5552,-100,4,1,0,5,0,0
5688,-100,4,1,0,100,0,0
8057,-100,4,1,0,5,0,0
8398,-100,4,1,0,100,0,0
8602,-100,4,1,0,5,0,0
8943,-100,4,1,0,100,0,0
9147,-100,4,1,0,5,0,0
9216,-100,4,1,0,100,0,0
10034,-100,4,1,0,100,0,0
10393,-100,4,1,0,5,0,0
10461,-100,4,1,0,100,0,0
11415,-45.4545454545455,4,1,0,100,0,1
11551,-45.4545454545455,4,3,0,100,0,1
11687,-100,4,3,0,100,0,1
11824,-100,4,3,0,100,0,1
11961,-100,4,1,0,100,0,1
12233,-100,4,1,0,100,0,1
12506,-45.4545454545455,4,3,0,100,0,1
12778,-50,4,1,0,100,0,1
13597,-50,4,3,0,100,0,1
19868,-66.6666666666667,4,3,0,100,0,1
20072,-100,4,1,0,5,0,0
20141,-100,4,2,0,100,0,0
20345,-100,4,2,0,5,0,0
20413,-100,4,2,0,100,0,0
22254,-100,4,2,0,5,0,0
22323,-100,4,2,0,100,0,0
22527,-100,4,2,0,5,0,0
22595,-100,4,2,0,100,0,0
24435,-100,4,2,0,5,0,0
24504,-100,4,2,0,100,0,0
24708,-100,4,2,0,5,0,0
24776,-100,4,2,0,100,0,0
25050,-100,4,2,0,5,0,0
25186,-100,4,2,0,100,0,0
25322,-100,4,2,0,55,0,0
25458,-100,4,2,0,100,0,0
28798,-100,4,2,0,5,0,0
28867,-100,4,2,0,100,0,0
29413,-100,4,2,0,5,0,0
29544,-100,4,2,0,100,0,0
29685,-100,4,2,0,5,0,0
29821,-100,4,2,0,100,0,0
31594,-100,4,2,0,5,0,0
31730,-66.6666666666667,4,2,0,100,0,0
31866,-66.6666666666667,4,2,0,5,0,0
32002,-66.6666666666667,4,2,0,100,0,0
32548,-100,4,2,0,100,0,0
33161,-100,4,2,0,5,0,0
33230,-100,4,2,0,100,0,0
33434,-100,4,2,0,5,0,0
33502,-100,4,2,0,100,0,0
33639,-80,4,2,0,100,0,0
34525,-100,4,2,0,5,0,0
34593,-100,4,2,0,100,0,0
34797,-100,4,2,0,5,0,0
34866,-100,4,2,0,100,0,0
35002,-66.6666666666667,4,2,0,100,0,0
35275,-100,4,2,0,100,0,0
36093,-66.6666666666667,4,2,0,100,0,0
36775,-100,4,2,0,100,0,0
37593,-100,4,2,0,100,0,0
37797,-100,4,2,0,5,0,0
37865,-100,4,2,0,100,0,0
38070,-100,4,2,0,5,0,0
38139,-100,4,2,0,100,0,0
38343,-100,4,2,0,5,0,0
38411,-100,4,2,0,100,0,0
38615,-100,4,2,0,5,0,0
38684,-100,4,2,0,100,0,0
39706,-100,4,2,0,5,0,0
39775,-100,4,2,0,100,0,0
39979,-100,4,2,0,5,0,0
40047,-100,4,2,0,100,0,0
40251,-100,4,2,0,5,0,0
40320,-100,4,2,0,100,0,0
40524,-100,4,2,0,5,0,0
40592,-100,4,2,0,100,0,0
40797,-100,4,2,0,5,0,0
40865,-100,4,2,0,100,0,0
43251,-100,4,2,0,5,0,0
43319,-100,4,2,0,100,0,0
43523,-100,4,2,0,5,0,0
43592,-80,4,2,0,100,0,0
43797,-80,4,2,0,5,0,0
43865,-80,4,2,0,100,0,0
44069,-80,4,2,0,5,0,0
44138,-100,4,2,0,100,0,0
45637,-100,4,2,0,5,0,0
46319,-66.6666666666667,4,2,0,100,0,0
46523,-66.6666666666667,4,2,0,5,0,0
46591,-66.6666666666667,4,2,0,100,0,0
46796,-66.6666666666667,4,2,0,5,0,0
46865,-66.6666666666667,4,2,0,100,0,0
47069,-66.6666666666667,4,2,0,5,0,0
47137,-100,4,2,0,100,0,0
47955,-66.6666666666667,4,2,0,100,0,0
48160,-66.6666666666667,4,2,0,5,0,0
48228,-66.6666666666667,4,2,0,100,0,0
48432,-66.6666666666667,4,2,0,5,0,0
48501,-66.6666666666667,4,2,0,100,0,0
49046,-66.6666666666667,4,2,0,100,0,0
49250,-66.6666666666667,4,2,0,5,0,0
49318,-66.6666666666667,4,2,0,100,0,0
49523,-66.6666666666667,4,2,0,5,0,0
49591,-66.6666666666667,4,2,0,100,0,0
50000,-66.6666666666667,4,2,0,5,0,0
50409,-66.6666666666667,4,2,0,100,0,0
50886,-66.6666666666667,4,2,0,5,0,0
50954,-66.6666666666667,4,2,0,100,0,0
51364,-66.6666666666667,4,2,0,100,0,0
51500,-66.6666666666667,4,2,0,100,0,0
51704,-66.6666666666667,4,2,0,5,0,0
51909,-66.6666666666667,4,2,0,100,0,0
52795,-66.6666666666667,4,2,0,5,0,0
52864,-66.6666666666667,4,2,0,100,0,0
53068,-66.6666666666667,4,2,0,5,0,0
53136,-66.6666666666667,4,2,0,100,0,0
55591,-100,4,2,0,100,0,0
56067,-100,4,2,0,5,0,0
56136,-100,4,2,0,100,0,0
56612,-100,4,2,0,5,0,0
56680,-200,4,2,0,100,0,0
57090,-200,4,2,0,5,0,0
57227,-55.5555555555556,4,2,0,100,0,0
57363,-55.5555555555556,4,2,0,5,0,0
57499,-55.5555555555556,4,2,0,100,0,0
59476,-55.5555555555556,4,2,0,5,0,0
59544,-55.5555555555556,4,2,0,100,0,0
59885,-66.6666666666667,4,2,0,100,0,0
59954,-55.5555555555556,4,2,0,100,0,0
60499,-55.5555555555556,4,2,0,100,0,0
60703,-55.5555555555556,4,2,0,5,0,0
60771,-55.5555555555556,4,2,0,100,0,0
60975,-55.5555555555556,4,2,0,5,0,0
61044,-55.5555555555556,4,2,0,100,0,0
61249,-55.5555555555556,4,2,0,5,0,0
61317,-55.5555555555556,4,2,0,100,0,0
61521,-55.5555555555556,4,2,0,5,0,0
61521,-55.5555555555556,4,2,0,5,0,0
61590,-55.5555555555556,4,2,0,100,0,0
66157,-55.5555555555556,4,2,0,5,0,0
66225,-55.5555555555556,4,2,0,100,0,0
67248,-55.5555555555556,4,2,0,5,0,0
67316,-55.5555555555556,4,2,0,100,0,0
67520,-55.5555555555556,4,2,0,5,0,0
67589,-55.5555555555556,4,2,0,100,0,0
67793,-55.5555555555556,4,2,0,5,0,0
67861,-55.5555555555556,4,2,0,100,0,0
68338,-55.5555555555556,4,2,0,5,0,0
68406,-55.5555555555556,4,2,0,100,0,0
73792,-55.5555555555556,4,2,0,5,0,0
73860,-55.5555555555556,4,2,0,100,0,0
74064,-55.5555555555556,4,2,0,5,0,0
74133,-55.5555555555556,4,2,0,100,0,0
74338,-55.5555555555556,4,2,0,5,0,0
74406,-55.5555555555556,4,2,0,100,0,0
74610,-55.5555555555556,4,2,0,5,0,0
74679,-55.5555555555556,4,3,0,100,0,1
75769,-50,4,3,0,100,0,1
82314,-50,4,3,0,100,0,1
82518,-50,4,3,0,5,0,1
82586,-50,4,3,0,100,0,1
82790,-50,4,3,0,5,0,1
82859,-50,4,3,0,100,0,1
83064,-50,4,3,0,5,0,1
83132,-50,4,3,0,100,0,1
83336,-50,4,3,0,5,0,1
83405,-50,4,3,0,100,0,1
91244,-50,4,3,0,5,0,1
91312,-50,4,3,0,100,0,1
91448,-50,4,3,0,5,0,1
91585,-50,4,3,0,100,0,1
91790,-50,4,3,0,5,0,1
91858,-50,4,3,0,100,0,1
91877,-50,4,3,0,5,0,1
92062,-100,4,3,0,5,0,1
92131,-50,4,3,0,100,0,0
92812,-100,4,3,0,100,0,0
94039,-50,4,3,0,100,0,0
94243,-50,4,3,0,5,0,0
94312,-66.6666666666667,4,2,0,100,0,0
96425,-66.6666666666667,4,2,0,5,0,0
96494,-66.6666666666667,4,2,0,100,0,0
99425,-66.6666666666667,4,2,0,5,0,0
99629,-66.6666666666667,4,2,0,100,0,0
100584,-100,4,2,0,100,0,0
100788,-100,4,2,0,5,0,0
100857,-100,4,2,0,100,0,0
101811,-100,4,2,0,5,0,0
101948,-100,4,2,0,53,0,0
105151,-100,4,2,0,5,0,0
105220,-100,4,2,0,53,0,0
105628,-100,4,2,0,5,0,0
106583,-66.6666666666667,4,1,0,100,0,0
107060,-66.6666666666667,4,2,0,5,0,0
107128,-66.6666666666667,4,2,0,100,0,0
107332,-66.6666666666667,4,2,0,5,0,0
107401,-66.6666666666667,4,2,0,100,0,0
108968,-66.6666666666667,4,2,0,5,0,0
109037,-66.6666666666667,4,2,0,100,0,0
109242,-66.6666666666667,4,2,0,5,0,0
109310,-66.6666666666667,4,2,0,100,0,0
109514,-66.6666666666667,4,2,0,5,0,0
109583,-66.6666666666667,4,2,0,100,0,0
111764,-50,4,2,0,100,0,0
111968,-50,4,2,0,5,0,0
112037,-50,4,2,0,100,0,0
112241,-50,4,2,0,5,0,0
112310,-50,4,2,0,100,0,0
112514,-50,4,2,0,5,0,0
112582,-50,4,2,0,100,0,0
112786,-50,4,2,0,5,0,0
112855,-66.6666666666667,4,2,0,100,0,0
115241,-66.6666666666667,4,2,0,5,0,0
115309,-66.6666666666667,4,2,0,100,0,0
115513,-66.6666666666667,4,2,0,5,0,0
115582,-66.6666666666667,4,2,0,100,0,0
115786,-66.6666666666667,4,2,0,5,0,0
115854,-66.6666666666667,4,2,0,100,0,0
116058,-66.6666666666667,4,2,0,5,0,0
116127,-100,4,2,0,100,0,0
117763,-100,4,2,0,5,0,0
118309,-66.6666666666667,4,2,0,100,0,0
118513,-66.6666666666667,4,2,0,5,0,0
118581,-66.6666666666667,4,2,0,100,0,0
119604,-66.6666666666667,4,2,0,5,0,0
119672,-66.6666666666667,4,2,0,100,0,0
120694,-66.6666666666667,4,2,0,5,0,0
120763,-66.6666666666667,4,2,0,100,0,0
120967,-66.6666666666667,4,2,0,5,0,0
121036,-66.6666666666667,4,2,0,100,0,0
121240,-66.6666666666667,4,2,0,5,0,0
121308,-66.6666666666667,4,2,0,100,0,0
121512,-66.6666666666667,4,2,0,5,0,0
121581,-66.6666666666667,4,2,0,100,0,0
122057,-66.6666666666667,4,2,0,5,0,0
122126,-66.6666666666667,4,2,0,100,0,0
122876,-66.6666666666667,4,2,0,5,0,0
122944,-66.6666666666667,4,2,0,100,0,0
123148,-66.6666666666667,4,2,0,5,0,0
123217,-66.6666666666667,4,2,0,100,0,0
125399,-57.1428571428571,4,2,0,100,0,0
125944,-50,4,2,0,100,0,0
126489,-50,4,2,0,100,0,0
128057,-50,4,2,0,5,0,0
128126,-62.5,4,2,0,100,0,0
128602,-62.5,4,2,0,5,0,0
128671,-76.9230769230769,4,2,0,100,0,0
129147,-76.9230769230769,4,2,0,5,0,0
129216,-66.6666666666667,4,2,0,100,0,0
145782,-66.6666666666667,4,2,0,5,0,0
145850,-66.6666666666667,4,2,0,100,0,0
152394,-100,4,2,0,100,0,0
152667,-66.6666666666667,4,2,0,100,0,0
152940,-66.6666666666667,4,2,0,100,0,0
156893,-66.6666666666667,4,2,0,5,0,0
157030,-66.6666666666667,4,2,0,100,0,0
157303,-66.6666666666667,4,2,0,100,0,0
161052,-66.6666666666667,4,2,0,5,0,0
161120,-66.6666666666667,4,2,0,100,0,0
161461,-66.6666666666667,4,2,0,5,0,0
161530,-66.6666666666667,4,2,0,100,0,0
161802,-66.6666666666667,4,2,0,100,0,0
165074,-66.6666666666667,4,2,0,5,0,0
165211,-66.6666666666667,4,2,0,100,0,0
165415,-66.6666666666667,4,2,0,5,0,0
165483,-66.6666666666667,4,2,0,100,0,0
165687,-66.6666666666667,4,2,0,5,0,0
165756,-58.8235294117647,4,2,0,100,0,0
165961,-58.8235294117647,4,2,0,5,0,0
166029,-58.8235294117647,4,2,0,100,0,0
166233,-58.8235294117647,4,2,0,5,0,0
166302,-55.5555555555556,4,2,0,100,0,0
166506,-55.5555555555556,4,2,0,5,0,0
166574,-55.5555555555556,4,2,0,100,0,0
166778,-55.5555555555556,4,2,0,5,0,0
166847,-55.5555555555556,4,2,5,100,0,0
167051,-55.5555555555556,4,2,0,5,0,0
167119,-55.5555555555556,4,2,0,100,0,0
167324,-55.5555555555556,4,2,0,5,0,0
167393,-66.6666666666667,4,2,0,100,0,0
169778,-66.6666666666667,4,2,0,5,0,0
169846,-66.6666666666667,4,2,0,100,0,0
170050,-66.6666666666667,4,2,0,5,0,0
170119,-66.6666666666667,4,2,0,100,0,0
172301,-66.6666666666667,4,2,0,5,0,0
172846,-66.6666666666667,4,2,0,100,0,0
173050,-66.6666666666667,4,2,0,5,0,0
173119,-66.6666666666667,4,2,0,100,0,0
174141,-66.6666666666667,4,2,0,5,0,0
174209,-66.6666666666667,4,2,0,100,0,0
174413,-66.6666666666667,4,2,0,5,0,0
174482,-66.6666666666667,4,2,0,100,0,0
178572,-66.6666666666667,4,2,0,100,0,0
182118,-100,4,2,0,100,0,0
182594,-133.333333333333,4,3,0,5,0,0
182663,-125,4,2,0,100,0,0
183139,-125,4,2,0,5,0,0
183208,-125,4,2,0,100,0,0
183617,-100,4,2,0,5,0,0
183754,-100,4,3,0,100,0,0
184026,-66.6666666666667,4,3,0,100,0,0
184299,-66.6666666666667,4,3,0,100,0,0
184776,-83.3333333333333,4,3,0,5,0,0
184845,-66.6666666666667,4,3,0,100,0,0
185321,-66.6666666666667,4,3,0,5,0,0
185390,-333.333333333333,4,3,0,100,0,0
185798,-111.111111111111,4,3,0,5,0,0
185935,-58.8235294117647,4,3,0,100,0,0
200387,-66.6666666666667,4,3,0,100,0,0
200660,-66.6666666666667,4,3,0,100,0,0
200933,-58.8235294117647,4,3,0,100,0,0
202297,-66.6666666666667,4,3,0,100,0,0
203387,-66.6666666666667,4,3,0,100,0,1
205773,-66.6666666666667,4,3,0,5,0,1
205841,-66.6666666666667,4,3,0,100,0,1
206045,-66.6666666666667,4,3,0,5,0,1
206114,-66.6666666666667,4,3,0,100,0,1
238291,-166.666666666667,4,1,0,100,0,0
244836,-166.666666666667,4,1,0,5,0,0

[HitObjects]
97,183,2144,6,0,P|86:99|239:53,1,240
282,70,2689,5,0,0:0:0:0:
404,176,2825,1,0,0:0:0:0:
251,192,3507,1,0,42:2:0:0:
251,192,4052,1,0,42:2:0:0:
251,192,4598,1,0,42:2:0:0:
219,228,4871,5,0,0:0:0:0:
94,47,5007,2,0,P|219:17|149:138,1,320
164,68,5688,1,0,42:2:0:0:
164,68,6234,1,0,42:2:0:0:
164,68,6779,1,0,42:2:0:0:
376,72,7052,5,0,0:0:0:0:
364,211,7188,1,0,0:0:0:0:
364,211,7870,6,0,P|302:189|306:208,1,120,0|0,2:2|2:2,2:2:0:0:
302,184,8415,2,0,P|250:200|188:164,1,120,0|0,2:2|2:2,2:2:0:0:
193,171,8961,2,0,P|131:149|135:168,1,120,0|0,2:2|2:2,2:2:0:0:
49,28,9234,5,0,0:0:0:0:
23,184,9370,1,0,0:0:0:0:
172,126,9506,1,0,0:0:0:0:
176,13,9642,2,4,P|263:62|276:136,1,160
389,40,10051,5,0,0:0:0:0:
318,210,10187,2,0,B|353:150|454:143,1,120
403,27,10461,1,0,0:0:0:0:
425,168,10733,5,0,0:0:0:0:
292,136,10870,2,0,L|199:174,1,80
212,168,11074,1,0,0:0:0:0:
206,170,11142,1,0,0:0:0:0:
202,273,11415,6,0,P|157:262|121:121,1,176.000005371094,0|0,3:3|3:3,3:3:0:0:
230,50,11687,5,0,43:3:0:0:
285,249,11824,1,0,43:3:0:0:
380,66,11961,1,0,43:3:0:0:
141,207,12097,1,0,43:3:0:0:
230,50,12233,1,0,43:3:0:0:
337,188,12369,1,0,43:3:0:0:
197,228,12506,6,0,P|322:302|382:238,1,176.000005371094
397,146,12778,5,0,43:3:0:0:
197,228,12914,1,0,43:3:0:0:
406,218,13051,5,0,43:3:0:0:
197,228,13187,1,0,43:3:0:0:
400,285,13324,5,0,43:3:0:0:
197,228,13460,1,0,43:3:0:0:
155,31,13597,6,0,B|116:62|116:62|83:237,1,160
341,266,13870,2,0,B|399:172|399:172|392:123,1,160
148,16,14142,6,0,B|109:47|109:47|76:222,1,160
334,251,14415,2,0,B|392:157|392:157|385:108,1,160
355,48,14687,5,0,0:0:0:0:
123,192,14824,1,0,0:0:0:0:
173,56,14960,6,0,P|119:117|138:216,1,160
393,198,15233,1,0,0:0:0:0:
162,129,15369,1,0,0:0:0:0:
403,132,15505,2,0,P|417:212|350:287,1,160
269,87,15778,5,0,0:0:0:0:
154,219,15914,1,0,0:0:0:0:
345,254,16050,1,0,0:0:0:0:
260,178,16187,1,0,0:0:0:0:
237,88,16324,5,0,0:0:0:0:
360,224,16460,1,0,0:0:0:0:
167,249,16596,1,0,0:0:0:0:
256,177,16732,1,0,0:0:0:0:
211,75,16869,6,0,P|331:128|325:155,1,160
300,309,17141,2,0,P|226:323|181:263,1,160
171,64,17414,6,0,B|166:123|166:123|135:164|135:164|118:227,1,160
341,64,17687,2,0,B|346:123|346:123|377:164|377:164|394:227,1,160
175,52,17960,5,0,0:0:0:0:
120,215,18096,1,0,0:0:0:0:
49,90,18232,1,0,0:0:0:0:
7,272,18368,1,0,0:0:0:0:
185,49,18505,5,0,0:0:0:0:
126,219,18641,1,0,0:0:0:0:
243,200,18777,2,0,P|337:184|386:121,1,160
273,57,19050,6,0,P|126:50|83:92,1,160
27,178,19323,2,0,P|101:203|177:182,1,160
184,98,19596,2,0,P|269:151|258:205,1,160
238,277,19868,6,0,B|283:311|283:311|436:280|436:280,1,180.000006866455
434,203,20141,2,0,P|394:115|373:106,1,120
271,205,20413,2,0,L|374:180,2,80
321,93,20823,5,0,0:0:0:0:
229,32,20959,1,0,0:0:0:0:
164,135,21095,2,0,P|248:152|267:143,1,80
238,41,21368,1,0,0:0:0:0:
357,34,21504,1,0,0:0:0:0:
403,155,21640,2,0,P|351:149|298:115,1,80
234,146,21913,1,0,0:0:0:0:
135,143,22050,6,0,B|70:171|70:171|26:218,1,120
88,265,22323,2,0,P|176:316|217:306,1,120
274,207,22595,1,0,0:0:0:0:
186,146,22731,2,0,B|250:171|281:137|351:179,2,160
87,220,23413,5,0,0:0:0:0:
92,224,23550,1,0,0:0:0:0:
149,98,23686,1,0,0:0:0:0:
216,215,23822,2,0,L|229:160,2,40
92,224,24095,1,0,0:0:0:0:
149,98,24231,6,0,B|225:112|225:112|271:173,1,120
304,223,24504,6,0,B|226:222|226:222|195:193,1,120
346,120,24776,1,0,0:0:0:0:
408,218,24913,2,0,P|397:273|320:300,1,120
247,228,25186,2,0,P|258:283|299:314,2,80
316,144,25595,2,0,P|177:122|152:134,2,160
215,142,26413,1,0,0:0:0:0:
286,218,26549,2,0,P|373:198|351:67,1,240
308,137,27094,5,0,0:0:0:0:
212,141,27367,1,0,0:0:0:0:
129,135,27639,6,0,L|80:67,2,80
45,42,28049,2,0,L|52:136,1,80
134,180,28322,2,0,L|99:255,1,80
27,227,28594,2,0,P|19:267|77:327,1,120
148,317,28867,6,0,B|206:211|206:211|274:186,1,160
318,134,29276,2,0,P|331:169|326:242,1,80
328,120,29549,2,0,P|341:155|336:228,1,80
254,256,29821,2,0,B|348:281|348:281|363:289|424:268,1,160
343,158,30230,1,0,0:0:0:0:
321,320,30366,1,0,0:0:0:0:
343,158,30503,2,0,P|290:113|223:40,2,160
179,130,31321,5,0,0:0:0:0:
90,164,31457,2,0,P|128:215|161:213,1,80
184,134,31730,2,0,P|262:192|279:178,1,120.000004577637
268,115,32002,2,4,B|310:31|420:81|420:81|527:151|570:22,1,360.000013732911,0|0,0:0|0:0,0:0:0:0:
376,212,32548,6,0,L|317:242,2,40
267,259,32821,1,0,0:0:0:0:
403,140,32957,2,0,P|466:176|455:209,1,120
470,291,33230,2,0,P|417:326|328:330,1,120
361,248,33502,1,0,0:0:0:0:
275,217,33639,2,0,P|187:263|185:393,2,200
296,182,34321,6,0,L|197:100,1,100
142,146,34593,6,0,L|217:209,1,80
265,296,34866,2,0,B|260:209|288:213|287:124,1,160
205,150,35275,2,0,P|324:214|262:58,1,400
443,202,36093,6,0,P|292:187|299:119,2,240.000009155274
452,132,36775,6,0,P|353:26|323:21,2,160
387,176,37593,6,0,P|355:108|300:89,1,120
310,165,37865,2,0,P|258:193|184:184,1,120
237,123,38139,2,0,P|158:57|114:57,1,120
153,133,38411,2,0,B|29:141|29:141,1,120
25,216,38684,6,0,P|99:275|176:279,2,160
201,345,39502,1,0,0:0:0:0:
112,189,39638,1,0,0:0:0:0:
163,124,39775,6,0,P|162:51|208:3,1,120
163,124,40047,6,0,P|213:71|280:70,1,120
163,123,40320,6,0,P|236:122|284:168,1,120
163,124,40592,6,0,P|215:174|216:241,1,120
289,229,40865,2,0,P|194:281|249:157,1,320
312,329,41683,1,0,0:0:0:0:
248,149,41819,1,0,0:0:0:0:
276,219,41956,6,0,P|316:106|270:69,2,160
135,260,42774,1,0,0:0:0:0:
172,119,42910,1,0,0:0:0:0:
303,73,43047,6,0,B|404:182,1,120
307,99,43319,2,0,B|408:208,1,120
465,170,43592,2,0,P|444:253|366:266,1,150
385,192,43865,2,0,P|303:240|309:293,1,150
359,358,44138,2,0,B|314:377|270:372|241:348|214:312|211:273|213:235|213:235|171:120|76:118|21:187|40:300|175:269|170:241|170:226|168:84|168:84|101:69|32:93|-14:193,1,880
48,55,46319,6,0,P|125:160|148:142,1,180.000006866455
188,193,46591,6,0,P|110:87|87:105,1,180.000006866455
36,46,46865,6,0,P|113:151|136:133,1,180.000006866455
196,173,47137,6,0,P|134:65|108:73,2,160
117,140,47955,2,0,B|50:194|108:262|20:316,1,180.000006866455
42,298,48228,2,0,B|94:257|50:194|117:140,1,180.000006866455
235,87,48501,6,0,P|305:47|466:53,2,240.000009155274
274,193,49318,6,0,P|381:153|476:201,1,180.000006866455
447,278,49591,2,0,B|384:331|304:326|304:326|180:258|82:292,1,360.000013732911
97,52,50409,5,0,0:0:0:0:
81,240,50545,1,0,0:0:0:0:
140,53,50682,2,0,P|210:82|221:178,1,180.000006866455
147,152,50954,2,0,P|137:228|134:281,1,120.000004577637
139,281,51228,5,0,0:0:0:0:
142,289,51296,1,0,0:0:0:0:
145,298,51364,1,0,0:0:0:0:
148,306,51432,1,0,0:0:0:0:
151,315,51500,1,0,0:0:0:0:
331,273,51636,6,0,P|220:273|186:258,1,120.000004577637
424,309,51909,6,0,P|428:243|371:189,1,120.000004577637
297,276,52181,5,0,0:0:0:0:
300,284,52249,1,0,0:0:0:0:
303,293,52317,1,0,0:0:0:0:
209,346,52454,1,0,0:0:0:0:
196,237,52591,6,0,P|111:180|16:176,1,180.000006866455
59,67,52864,2,0,P|144:10|239:6,1,180.000006866455
340,58,53136,6,0,P|335:133|246:153,1,120.000004577637
155,84,53409,2,0,P|107:142|158:217,1,120.000004577637
340,58,53681,5,0,0:0:0:0:
300,166,53817,1,0,0:0:0:0:
155,86,53954,5,0,0:0:0:0:
112,184,54091,1,0,0:0:0:0:
384,45,54227,6,0,L|388:217,1,120.000004577637
184,96,54500,2,0,L|185:235,1,120.000004577637
186,230,54704,1,0,0:0:0:0:
186,244,54772,1,0,0:0:0:0:
371,295,54908,1,0,0:0:0:0:
259,50,55045,5,0,0:0:0:0:
407,204,55181,1,0,0:0:0:0:
180,262,55317,1,0,0:0:0:0:
259,50,55454,1,0,0:0:0:0:
349,11,55591,6,0,B|281:43|281:43|211:125|211:125|111:184,1,280
135,188,56136,2,0,P|240:263|391:255,1,280
398,261,56681,2,0,P|435:242|389:247,1,120
158,264,57227,6,0,P|123:253|89:144,1,143.999995605469
180,44,57499,1,0,0:0:0:0:
253,162,57635,5,0,0:0:0:0:
256,170,57703,1,0,0:0:0:0:
259,179,57771,1,0,0:0:0:0:
206,252,57908,2,0,P|306:261|327:233,2,143.999995605469
322,44,58317,6,0,L|369:191,1,143.999995605469
322,44,58590,6,0,B|328:93|328:93|350:122|350:122|369:191,1,143.999995605469
321,297,58863,1,0,0:0:0:0:
326,302,58999,1,0,0:0:0:0:
203,128,59135,1,0,0:0:0:0:
258,198,59271,6,0,P|287:96|191:44,1,215.999993408203
90,224,59544,1,0,0:0:0:0:
221,44,59680,1,0,0:0:0:0:
258,207,59817,1,0,0:0:0:0:
262,213,59885,1,0,0:0:0:0:
267,219,59954,1,0,0:0:0:0:
381,188,60090,2,0,P|356:89|394:44,2,143.999995605469
436,123,60499,6,0,P|489:218|412:288,1,215.999993408203
415,205,60771,2,0,P|344:121|407:38,1,215.999993408203
337,122,61044,2,0,P|316:224|215:278,1,215.999993408203
251,171,61317,2,0,B|185:177|185:177|23:117,1,215.999993408203
61,287,61590,5,0,0:0:0:0:
66,292,61726,1,0,0:0:0:0:
44,124,61862,2,0,P|84:172|162:214,1,143.999995605469
164,217,62067,5,0,0:0:0:0:
174,224,62135,1,0,0:0:0:0:
276,289,62271,2,0,B|320:261|320:261|339:213|366:173,1,143.999995605469
462,185,62543,2,0,P|434:115|374:59,1,143.999995605469
348,182,62817,5,0,0:0:0:0:
251,46,62953,1,0,0:0:0:0:
196,197,63089,1,0,0:0:0:0:
261,56,63226,1,0,0:0:0:0:
363,186,63362,1,0,0:0:0:0:
256,62,63498,1,0,0:0:0:0:
207,198,63634,1,0,0:0:0:0:
256,294,63771,6,0,B|168:313|72:209,1,143.999995605469
110,86,64043,1,0,0:0:0:0:
135,246,64180,1,0,0:0:0:0:
37,211,64317,6,0,P|137:151|227:165,1,143.999995605469
254,29,64589,1,0,0:0:0:0:
177,154,64725,1,0,0:0:0:0:
343,174,64862,6,0,P|295:280|257:265,1,143.999995605469
253,100,65134,1,0,0:0:0:0:
285,277,65270,1,0,0:0:0:0:
139,254,65407,6,0,P|76:204|66:118,1,143.999995605469
223,112,65680,1,0,0:0:0:0:
99,48,65816,1,0,0:0:0:0:
91,45,65884,1,0,0:0:0:0:
84,42,65953,6,0,P|-13:70|51:184,1,215.999993408203
147,123,66225,1,0,0:0:0:0:
15,169,66361,1,0,0:0:0:0:
84,242,66498,2,0,P|185:270|197:254,1,143.999995605469
304,65,66770,1,0,0:0:0:0:
205,246,66906,1,0,0:0:0:0:
318,60,67043,6,0,P|357:148|315:261,1,215.999993408203
350,255,67316,6,0,P|388:156|349:59,1,215.999993408203
390,55,67589,6,0,P|429:143|387:256,1,215.999993408203
304,65,67861,1,0,0:0:0:0:
351,192,67997,2,0,P|187:202|201:173,1,359.999989013672
224,43,68406,1,0,0:0:0:0:
229,211,68543,2,0,L|181:156,2,71.9999978027344
135,235,68816,1,0,0:0:0:0:
51,50,68952,2,0,P|125:165|155:150,1,143.999995605469
132,188,69225,5,0,0:0:0:0:
173,200,69293,1,0,0:0:0:0:
212,184,69361,1,0,0:0:0:0:
234,148,69429,1,0,0:0:0:0:
229,106,69497,1,0,0:0:0:0:
201,76,69565,1,0,0:0:0:0:
166,106,69633,5,0,0:0:0:0:
174,152,69701,1,0,0:0:0:0:
208,184,69769,1,0,0:0:0:0:
255,191,69838,1,0,0:0:0:0:
297,169,69906,1,0,0:0:0:0:
317,126,69974,5,0,0:0:0:0:
309,80,70042,1,0,0:0:0:0:
282,41,70111,1,0,0:0:0:0:
234,34,70179,6,0,P|252:136|437:10,1,431.999986816407
386,64,70724,2,0,P|341:111|295:67,2,143.999995605469
260,135,71133,1,0,0:0:0:0:
264,139,71269,1,0,0:0:0:0:
408,45,71406,6,0,L|251:103,1,143.999995605469
89,252,71679,6,0,L|224:202,1,143.999995605469
408,45,71952,5,0,0:0:0:0:
273,94,72088,1,0,0:0:0:0:
89,252,72224,5,0,0:0:0:0:
225,203,72360,1,0,0:0:0:0:
348,65,72497,6,0,P|458:149|448:193,1,143.999995605469
256,151,72769,2,0,L|398:229,1,143.999995605469
357,84,73043,6,0,P|467:168|457:212,1,143.999995605469
410,242,73315,1,0,0:0:0:0:
299,205,73451,1,0,0:0:0:0:
191,142,73588,6,0,P|301:226|281:283,1,215.999993408203
191,142,73860,6,0,P|107:252|50:232,1,215.999993408203
191,142,74133,6,0,P|81:58|100:4,1,215.999993408203
191,142,74406,6,0,P|275:32|331:52,1,215.999993408203
444,170,74679,6,0,P|386:229|301:201,1,143.999995605469
228,34,74951,1,0,0:0:0:0:
129,262,75087,1,0,0:0:0:0:
234,37,75224,1,0,0:0:0:0:
326,210,75360,1,0,0:0:0:0:
228,34,75496,1,0,0:0:0:0:
129,262,75632,1,0,0:0:0:0:
211,304,75769,6,0,P|74:315|49:280,1,160
151,31,76042,1,0,0:0:0:0:
137,253,76178,1,0,0:0:0:0:
281,40,76315,1,0,0:0:0:0:
50,227,76451,1,0,0:0:0:0:
157,31,76587,1,0,0:0:0:0:
217,243,76723,1,0,0:0:0:0:
314,141,76860,6,0,P|250:245|178:230,1,160
67,28,77132,1,0,0:0:0:0:
242,169,77269,1,0,0:0:0:0:
53,41,77406,1,0,0:0:0:0:
253,157,77542,1,0,0:0:0:0:
42,55,77678,1,0,0:0:0:0:
264,144,77814,1,0,0:0:0:0:
353,9,77951,6,0,P|426:105|401:197,1,160
120,127,78223,2,0,P|132:196|206:267,1,160
361,0,78496,6,0,P|434:96|409:188,1,160
128,118,78769,2,0,P|140:187|214:258,1,160
181,278,79042,6,0,P|125:222|109:144,1,160
193,31,79314,1,0,0:0:0:0:
334,170,79450,1,0,0:0:0:0:
148,221,79587,1,0,0:0:0:0:
201,34,79723,1,0,0:0:0:0:
339,164,79859,1,0,0:0:0:0:
153,223,79995,1,0,0:0:0:0:
208,33,80132,6,0,P|272:171|234:217,1,160
88,28,80405,1,0,0:0:0:0:
71,275,80541,1,0,0:0:0:0:
153,152,80678,1,0,0:0:0:0:
71,275,80814,1,0,0:0:0:0:
88,28,80950,1,0,0:0:0:0:
274,162,81086,1,0,0:0:0:0:
411,152,81223,6,0,P|360:250|264:254,1,160
167,67,81495,1,0,0:0:0:0:
311,171,81632,1,0,0:0:0:0:
234,170,81769,6,0,P|134:112|138:68,1,160
211,100,82041,2,0,P|190:26|116:6,1,160
269,0,82314,6,0,P|391:88|397:73,1,240
435,156,82586,2,0,P|313:67|307:83,1,240
256,0,82859,6,0,P|378:88|384:73,1,240
422,156,83132,2,0,P|300:67|294:83,1,240
365,107,83405,2,0,P|223:202|222:202,1,160
88,224,83677,5,0,0:0:0:0:
76,0,83813,1,0,0:0:0:0:
233,192,83950,1,0,0:0:0:0:
0,112,84086,1,0,0:0:0:0:
223,54,84222,1,0,0:0:0:0:
88,224,84358,1,0,0:0:0:0:
0,204,84495,6,0,P|41:305|126:309,1,160
181,64,84768,1,0,0:0:0:0:
106,306,84904,1,0,0:0:0:0:
32,82,85041,1,0,0:0:0:0:
206,296,85177,1,0,0:0:0:0:
163,60,85313,1,0,0:0:0:0:
319,247,85449,1,0,0:0:0:0:
332,49,85586,6,0,L|400:202,1,160
131,36,85858,6,0,B|102:72|102:72|83:222,1,160
215,247,86132,6,0,B|272:134|272:134|262:83,1,160
108,25,86404,1,0,0:0:0:0:
68,177,86540,1,0,0:0:0:0:
292,41,86677,6,0,P|408:152|401:180,1,160
273,227,86949,2,0,P|157:115|164:87,1,160
302,33,87222,6,0,P|418:144|411:172,1,160
260,236,87495,2,0,P|143:125|150:97,1,160
235,89,87768,6,0,P|127:21|106:27,1,160
148,104,88040,5,0,0:0:0:0:
312,188,88176,1,0,0:0:0:0:
398,326,88313,5,0,0:0:0:0:
234,242,88449,1,0,0:0:0:0:
144,95,88585,5,0,0:0:0:0:
308,179,88722,1,0,0:0:0:0:
408,227,88858,2,0,B|450:120|315:69,1,160
243,48,89131,5,0,0:0:0:0:
41,189,89267,1,0,0:0:0:0:
55,49,89404,5,0,0:0:0:0:
257,190,89540,1,0,0:0:0:0:
237,42,89676,5,0,0:0:0:0:
35,183,89812,1,0,0:0:0:0:
297,149,89949,6,0,L|134:176,1,160
76,39,90222,1,0,0:0:0:0:
176,244,90358,2,0,P|70:168|91:142,2,160
212,44,90767,1,0,0:0:0:0:
135,188,90903,1,0,0:0:0:0:
336,41,91040,6,0,P|417:139|355:220,1,240
344,125,91312,6,0,P|320:250|219:254,1,240
286,180,91585,6,0,P|206:279|114:235,1,240
197,200,91858,6,0,P|68:166|23:243,1,240
138,283,92131,5,0,0:0:0:0:
143,288,92267,1,0,0:0:0:0:
149,293,92403,1,0,0:0:0:0:
156,298,92539,1,0,0:0:0:0:
308,246,92812,2,0,L|232:281,3,80
114,77,93767,2,0,L|162:182,1,80
236,130,94039,2,0,P|76:200|64:162,1,240
167,31,94312,6,0,L|147:150,1,120.000004577637
271,42,94585,1,0,0:0:0:0:
386,75,94721,1,0,0:0:0:0:
380,81,94789,1,0,0:0:0:0:
374,87,94858,2,0,B|264:184|264:184,1,120.000004577637
144,73,95130,1,0,0:0:0:0:
294,152,95266,1,0,0:0:0:0:
374,206,95403,6,0,P|281:244|243:240,1,120.000004577637
167,108,95675,1,0,0:0:0:0:
255,255,95811,6,0,P|314:248|366:218,1,120.000004577637
319,85,96085,1,0,0:0:0:0:
158,102,96221,2,0,P|82:177|51:249,1,180.000006866455
155,305,96494,5,0,0:0:0:0:
317,309,96630,1,0,0:0:0:0:
247,160,96766,1,0,0:0:0:0:
412,185,96902,2,0,L|383:113,2,60.0000022888184
242,164,97175,1,0,0:0:0:0:
409,191,97311,2,0,P|404:130|366:56,1,120.000004577637
239,182,97585,5,0,0:0:0:0:
334,254,97721,1,0,0:0:0:0:
341,48,97857,2,0,P|406:137|396:177,1,120.000004577637
406,148,98061,1,0,0:0:0:0:
406,155,98130,1,0,0:0:0:0:
234,187,98266,1,0,0:0:0:0:
158,85,98402,2,0,P|272:77|287:101,1,120.000004577637
417,166,98675,6,0,P|319:218|280:220,1,120.000004577637
263,128,98948,1,0,0:0:0:0:
150,213,99084,2,0,P|250:279|263:279,1,120.000004577637
287,142,99357,2,0,L|236:188,1,60.0000022888184
77,75,99629,5,0,0:0:0:0:
240,59,99766,2,0,P|219:141|192:148,1,120.000004577637
88,144,100038,2,0,P|109:226|136:233,1,120.000004577637
254,72,100311,2,0,P|233:154|206:161,1,120.000004577637
102,157,100584,2,0,P|123:239|181:251,1,120
289,168,100857,2,0,P|414:197|258:195,1,560
163,108,102765,5,0,0:0:0:0:
308,106,103038,1,0,0:0:0:0:
433,173,104947,6,0,P|364:257|325:262,1,120
378,349,105220,2,0,P|301:324|235:168,1,240
128,160,106583,6,0,B|131:112|196:92|196:92|177:121|214:82|214:82|194:117|231:75|231:75|206:116|246:69|246:69|217:115|264:64|264:64|230:113|280:59|280:59|241:112|294:56|294:56|295:70,1,420.000016021729
385,0,107128,2,0,P|391:154|380:166,1,180.000006866455
135,85,107401,6,0,L|192:204,1,120.000004577637
341,114,107674,2,0,L|241:234,1,120.000004577637
127,88,107947,6,0,L|184:207,1,120.000004577637
354,114,108219,2,0,L|254:234,1,120.000004577637
352,273,108492,2,0,P|269:311|227:299,1,120.000004577637
75,109,108764,6,0,P|75:226|127:276,1,180.000006866455
174,338,109037,2,0,P|198:260|139:168,1,180.000006866455
57,177,109310,2,0,P|120:91|235:87,1,180.000006866455
346,35,109583,6,0,L|180:220,2,240.000009155274
234,235,110400,1,0,0:0:0:0:
389,74,110537,1,0,0:0:0:0:
395,151,110674,6,0,P|469:87|349:16,2,240.000009155274
383,284,111491,1,0,0:0:0:0:
233,83,111627,1,0,0:0:0:0:
126,153,111764,6,0,B|70:115|101:41|101:41|165:84|159:141,1,240
126,153,112037,6,0,B|130:85|210:75|210:75|205:152|152:175,1,240
126,153,112310,6,0,B|186:123|235:187|235:187|166:221|119:187,1,240
126,153,112582,6,0,B|181:190|151:265|151:265|87:222|93:165,1,240
126,153,112855,6,0,B|121:220|41:230|41:230|46:153|99:130,2,240
221,54,113673,1,0,0:0:0:0:
352,89,113946,2,0,P|450:69|426:166,2,240.000009155274
385,258,114763,1,0,0:0:0:0:
331,91,114900,1,0,0:0:0:0:
411,161,115037,6,0,B|412:159|412:159|467:66|354:38|343:101,1,180.000006866455
343,101,115309,6,0,B|341:98|341:98|305:-3|211:65|252:114,1,180.000006866455
252,114,115582,6,0,B|249:113|249:113|148:75|140:191|204:191,1,180.000006866455
204,191,115854,6,0,B|201:192|201:192|107:245|191:326|232:277,1,180.000006866455
232,277,116127,6,0,B|271:138|271:138|194:43|296:0|327:-6|379:32|425:151|356:188|124:149|52:124|52:124|28:63|32:35|32:35|117:68|188:72,1,960
74,43,118309,6,0,P|37:135|78:200,1,180.000006866455
288,46,118581,1,0,0:0:0:0:
161,113,118717,1,0,0:0:0:0:
250,193,118854,2,0,P|197:226|123:216,2,120.000004577637
37,188,119263,1,0,0:0:0:0:
61,80,119400,6,0,P|169:38|229:58,1,180.000006866455
358,64,119672,1,0,0:0:0:0:
274,141,119808,6,0,P|338:198|417:200,2,120.000004577637
120,43,120217,1,0,0:0:0:0:
252,186,120353,1,0,0:0:0:0:
385,29,120490,6,0,P|311:79|257:178,1,180.000006866455
305,247,120763,2,0,P|196:220|127:161,1,180.000006866455
62,156,121036,2,0,P|126:95|222:42,1,180.000006866455
284,42,121308,2,0,P|316:119|412:191,1,180.000006866455
353,260,121581,6,0,P|448:242|302:195,1,420.000016021729
43,195,122399,6,0,L|188:120,1,120.000004577637
232,51,122672,2,0,P|354:117|339:158,1,180.000006866455
260,171,122944,2,0,P|285:244|397:276,1,180.000006866455
454,198,123217,5,0,0:0:0:0:
470,173,123285,1,0,0:0:0:0:
476,143,123353,1,0,0:0:0:0:
471,114,123421,1,0,0:0:0:0:
456,88,123489,2,0,P|357:50|299:55,1,120.000004577637
99,215,123899,5,0,0:0:0:0:
197,40,124035,1,0,0:0:0:0:
107,214,124171,1,0,0:0:0:0:
203,43,124308,1,0,0:0:0:0:
244,150,124444,1,0,0:0:0:0:
203,41,124580,1,0,0:0:0:0:
107,214,124716,1,0,0:0:0:0:
351,102,124853,6,0,L|393:265,1,120.000004577637
161,102,125126,6,0,L|119:265,1,120.000004577637
358,94,125399,6,0,L|403:266,1,140.000001335144
153,94,125671,6,0,L|109:266,1,140.000001335144
260,85,125944,6,0,P|206:42|58:44,1,160
226,110,126216,2,0,P|280:67|428:69,1,160
418,162,126489,5,0,0:0:0:0:
416,170,126557,1,0,0:0:0:0:
415,177,126626,1,0,0:0:0:0:
415,185,126694,1,0,0:0:0:0:
413,194,126762,2,0,B|361:248|229:227|229:227|228:227,1,160
82,95,127035,5,0,0:0:0:0:
252,3,127171,1,0,0:0:0:0:
329,174,127307,1,0,0:0:0:0:
159,266,127443,1,0,0:0:0:0:
99,211,127580,6,0,P|12:185|165:171,1,560
86,109,128126,2,0,B|150:91|150:91|190:142|242:165|242:165|248:210|272:253|320:275|372:263|405:233|414:196|415:172|414:155|383:138,1,448
328,159,128671,2,0,B|322:84|359:17|359:17|284:69|284:69|238:36|138:-3,1,363.999983337403
0,97,129216,6,0,P|33:185|56:197,1,120.000004577637
181,48,129489,1,0,0:0:0:0:
268,183,129625,2,0,L|178:267,1,120.000004577637
52,195,129898,1,0,0:0:0:0:
63,53,130034,2,0,B|135:41|135:41|206:89,1,120.000004577637
399,72,130307,6,0,P|454:135|417:215,1,180.000006866455
335,144,130579,2,0,P|281:198|336:294,1,180.000006866455
418,214,130852,6,0,P|453:136|416:79,1,120.000004577637
331,44,131125,1,0,0:0:0:0:
209,79,131261,1,0,0:0:0:0:
102,11,131398,6,0,P|94:102|129:163,1,120.000004577637
209,79,131670,2,0,P|303:121|314:156,1,120.000004577637
198,230,131943,1,0,0:0:0:0:
331,281,132079,1,0,0:0:0:0:
430,181,132215,2,0,P|439:86|428:65,1,120.000004577637
204,31,132489,6,0,B|0:137,1,180.000006866455
28,211,132761,2,0,B|232:317,1,180.000006866455
286,313,133034,2,0,P|448:291|462:247,1,180.000006866455
356,210,133306,2,0,P|432:164|513:194,1,180.000006866455
481,66,133579,6,0,P|428:79|346:39,1,120.000004577637
263,51,133852,1,0,0:0:0:0:
172,107,133988,1,0,0:0:0:0:
68,111,134125,2,0,P|98:185|156:209,1,120.000004577637
350,129,134397,2,0,L|255:210,1,120.000004577637
186,315,134670,5,0,0:0:0:0:
318,326,134806,1,0,0:0:0:0:
257,207,134942,2,0,L|170:119,1,120.000004577637
85,42,135215,1,0,0:0:0:0:
30,149,135352,1,0,0:0:0:0:
125,224,135488,2,0,P|232:220|265:200,1,120.000004577637
347,294,135761,5,0,0:0:0:0:
370,181,135897,1,0,0:0:0:0:
465,309,136033,2,0,L|485:181,1,120.000004577637
270,227,136306,5,0,0:0:0:0:
247,114,136442,1,0,0:0:0:0:
152,242,136578,2,0,L|132:114,1,120.000004577637
40,52,136852,5,0,0:0:0:0:
133,123,136988,1,0,0:0:0:0:
253,109,137124,2,0,P|289:76|348:38,1,120.000004577637
423,124,137397,2,0,P|439:204|403:218,1,120.000004577637
288,185,137669,5,8,0:0:0:0:
261,156,137737,1,0,0:0:0:0:
236,128,137805,1,0,0:0:0:0:
210,99,137873,1,0,0:0:0:0:
185,71,137942,2,0,P|132:70|61:101,1,120.000004577637
218,153,138215,5,0,0:0:0:0:
101,197,138351,1,0,0:0:0:0:
141,286,138488,2,0,L|265:285,1,120.000004577637
328,188,138760,2,0,P|397:132|383:98,1,120.000004577637
300,34,139033,6,0,L|157:70,1,120.000004577637
301,117,139305,1,0,0:0:0:0:
185,193,139441,1,0,0:0:0:0:
300,258,139578,1,0,0:0:0:0:
178,340,139715,1,0,0:0:0:0:
185,193,139851,1,0,0:0:0:0:
278,119,139987,6,0,P|226:83|151:63,1,120.000004577637
108,191,140260,1,0,0:0:0:0:
172,65,140396,1,0,0:0:0:0:
230,200,140532,2,0,P|275:155|347:143,1,120.000004577637
331,271,140805,1,0,0:0:0:0:
455,171,140941,1,0,0:0:0:0:
343,69,141078,1,0,0:0:0:0:
216,21,141215,5,0,0:0:0:0:
171,12,141305,1,0,0:0:0:0:
126,20,141396,1,0,0:0:0:0:
58,60,141487,5,0,0:0:0:0:
29,95,141578,1,0,0:0:0:0:
17,139,141668,1,0,0:0:0:0:
21,218,141759,5,0,0:0:0:0:
40,257,141851,1,0,0:0:0:0:
73,288,141941,2,0,B|112:306|186:302|186:302,1,80.0000030517579
216,188,142168,1,0,0:0:0:0:
260,71,142305,6,0,P|327:160|315:196,1,120.000004577637
126,128,142578,1,0,0:0:0:0:
255,222,142714,1,0,0:0:0:0:
125,266,142851,2,0,B|183:310|248:323|270:327,1,120.000004577637
392,204,143123,2,0,P|338:287|297:313,1,120.000004577637
152,91,143396,5,0,0:0:0:0:
199,248,143532,1,0,0:0:0:0:
278,98,143668,1,0,0:0:0:0:
345,242,143804,2,0,P|406:212|416:138,1,120.000004577637
227,211,144078,2,0,P|166:181|156:107,1,120.000004577637
251,301,144350,5,0,0:0:0:0:
208,69,144487,2,0,P|83:75|69:98,1,120.000004577637
326,83,144759,1,0,0:0:0:0:
149,135,144895,1,0,0:0:0:0:
116,45,145032,6,0,P|46:128|65:177,1,120.000004577637
321,75,145304,1,0,0:0:0:0:
144,127,145441,1,0,0:0:0:0:
92,172,145578,6,0,P|140:259|240:220,1,180.000006866455
178,182,145850,2,0,P|285:221|236:328,2,240.000009155274
76,56,146531,5,0,0:0:0:0:
79,67,146599,1,0,0:0:0:0:
81,77,146668,2,0,P|129:134|195:138,1,120.000004577637
366,29,146941,1,0,0:0:0:0:
361,248,147077,1,0,0:0:0:0:
157,138,147214,6,0,P|161:75|223:33,1,120.000004577637
435,62,147486,1,0,0:0:0:0:
292,261,147622,1,0,0:0:0:0:
65,193,147759,6,0,L|98:142,2,60.0000022888184
219,60,148031,1,0,0:0:0:0:
143,283,148167,1,0,0:0:0:0:
119,32,148304,1,0,0:0:0:0:
235,201,148441,1,0,0:0:0:0:
332,37,148577,1,0,0:0:0:0:
236,211,148713,1,0,0:0:0:0:
168,46,148850,6,0,P|78:91|75:111,1,120.000004577637
129,266,149122,1,0,0:0:0:0:
237,82,149258,1,0,0:0:0:0:
405,196,149395,6,0,P|438:120|423:69,1,120.000004577637
164,169,149667,1,0,0:0:0:0:
360,123,149804,1,0,0:0:0:0:
177,29,149941,6,0,P|135:68|92:126,1,120.000004577637
319,60,150213,2,0,P|361:99|404:157,1,120.000004577637
179,215,150486,2,0,P|134:175|99:126,1,120.000004577637
329,53,150758,1,0,0:0:0:0:
423,223,150894,1,0,0:0:0:0:
251,242,151031,6,0,P|152:243|139:233,1,120.000004577637
81,100,151304,2,0,P|125:69|198:52,1,120.000004577637
269,243,151577,1,0,0:0:0:0:
274,247,151713,1,0,0:0:0:0:
439,92,151849,2,0,P|383:68|325:55,1,120.000004577637
220,164,152122,6,0,P|317:127|390:12,2,240.000009155274
170,317,152804,1,0,0:0:0:0:
51,92,152940,2,0,P|129:64|183:103,1,120.000004577637
257,31,153213,5,0,0:0:0:0:
417,155,153349,1,0,0:0:0:0:
362,337,153485,1,0,0:0:0:0:
272,22,153621,5,0,0:0:0:0:
418,162,153757,1,0,0:0:0:0:
344,337,153893,1,0,0:0:0:0:
292,19,154030,5,0,0:0:0:0:
234,202,154167,1,0,0:0:0:0:
79,53,154304,1,0,0:0:0:0:
327,111,154440,1,0,0:0:0:0:
89,188,154576,1,0,0:0:0:0:
246,28,154712,2,0,P|338:98|326:129,1,120.000004577637
176,226,154985,1,0,0:0:0:0:
24,136,155121,5,0,0:0:0:0:
37,109,155189,1,0,0:0:0:0:
54,84,155257,1,0,0:0:0:0:
73,62,155325,1,0,0:0:0:0:
95,42,155393,1,0,0:0:0:0:
247,11,155530,6,0,P|313:62|329:124,1,120.000004577637
148,70,155803,2,0,B|101:65|57:62|-32:102|-4:258,1,240.000009155274
0,284,156212,2,0,B|122:280|213:239|218:189|169:21|7:75|-99:296|215:309|272:318,1,600.000022888184
425,148,157303,6,0,L|373:39,1,120.000004577637
338,229,157576,2,0,P|231:179|226:164,1,120.000004577637
281,37,157848,1,0,0:0:0:0:
127,46,157984,2,0,P|87:95|160:236,1,240.000009155274
294,206,158393,1,0,0:0:0:0:
183,126,158530,1,0,0:0:0:0:
82,29,158667,5,0,0:0:0:0:
126,21,158735,1,0,0:0:0:0:
171,19,158803,1,0,0:0:0:0:
215,23,158871,1,0,0:0:0:0:
259,33,158939,5,0,0:0:0:0:
215,38,159007,1,0,0:0:0:0:
172,53,159075,1,0,0:0:0:0:
135,77,159143,1,0,0:0:0:0:
103,110,159211,5,0,0:0:0:0:
144,128,159280,1,0,0:0:0:0:
188,136,159348,1,0,0:0:0:0:
233,131,159416,1,0,0:0:0:0:
275,115,159484,1,0,0:0:0:0:
30,189,159757,6,0,P|77:262|254:282,1,240.000009155274
223,33,160166,1,0,0:0:0:0:
95,139,160303,1,0,0:0:0:0:
227,225,160439,2,0,P|319:195|339:128,1,120.000004577637
207,102,160711,1,0,0:0:0:0:
395,29,160848,6,0,P|436:107|345:195,1,180.000006866455
325,207,161120,1,0,0:0:0:0:
178,25,161256,2,0,B|83:43|39:144,1,180.000006866455
122,178,161530,2,0,P|167:118|252:101,2,120.000004577637
327,42,161939,5,0,0:0:0:0:
293,293,162075,1,0,0:0:0:0:
75,129,162211,1,0,0:0:0:0:
195,20,162347,5,0,0:0:0:0:
133,286,162484,1,0,0:0:0:0:
377,215,162620,1,0,0:0:0:0:
342,50,162756,5,0,0:0:0:0:
282,296,162893,1,0,0:0:0:0:
83,111,163030,2,0,P|135:59|199:51,1,120.000004577637
311,56,163302,6,0,L|286:95,5,40.000001525879
236,134,163575,2,0,L|261:173,5,40.000001525879
329,182,163847,2,0,L|304:221,5,40.000001525879
169,311,164120,6,0,P|2:182|319:207,1,840.000032043458
252,192,165211,6,0,P|261:129|170:49,1,180.000006866455
79,100,165483,2,0,P|70:163|161:242,1,180.000006866455
301,187,165756,6,0,P|269:62|196:26,1,204.000003890991
38,102,166029,2,0,P|70:227|144:261,1,204.000003890991
365,79,166302,6,0,P|271:27|121:52,1,215.999993408203
43,76,166574,6,0,P|119:129|242:123,1,215.999993408203
402,171,166847,6,0,P|326:224|202:218,1,215.999993408203
80,185,167119,6,0,P|174:133|324:158,1,215.999993408203
380,34,167393,6,0,P|437:133|421:181,1,120.000004577637
339,109,167665,2,0,P|269:107|225:151,1,120.000004577637
309,187,167938,2,0,P|243:235|176:250,1,120.000004577637
169,183,168210,2,0,L|44:227,1,120.000004577637
387,167,168483,6,0,P|338:83|203:54,2,240.000009155274
203,243,169301,1,0,0:0:0:0:
204,53,169437,1,0,0:0:0:0:
72,47,169574,6,0,B|46:126|170:156|80:228|83:265,1,180.000006866455
209,240,169846,2,0,P|212:108|186:62,1,180.000006866455
297,33,170119,2,0,P|341:188|317:274,1,240.000009155274
385,278,170665,6,0,B|292:204|-11:-99|570:-1|490:146|425:212|207:304|-21:162|96:34|152:28|237:15|237:15|188:69|165:124|230:247|294:297|294:297|103:173|165:315|21:130|32:100,1,1440.00005493164
434,190,172846,6,0,B|398:138|477:131|425:98|385:64|385:64|310:57,1,180.000006866455
198,189,173119,1,0,0:0:0:0:
344,148,173255,1,0,0:0:0:0:
309,331,173392,2,0,P|186:284|172:257,1,120.000004577637
279,106,173664,1,0,0:0:0:0:
272,251,173800,1,0,0:0:0:0:
119,266,173937,6,0,B|95:234|95:234|134:84,1,180.000006866455
229,49,174209,2,0,B|256:88|256:88|222:215,1,180.000006866455
266,316,174482,2,0,P|334:332|409:311,1,120.000004577637
444,217,174755,1,0,0:0:0:0:
413,88,174891,1,0,0:0:0:0:
286,45,175028,6,0,P|173:90|162:129,1,120.000004577637
143,247,175300,1,0,0:0:0:0:
258,129,175436,1,0,0:0:0:0:
183,70,175573,6,0,P|230:35|289:35,1,120.000004577637
361,158,175845,1,0,0:0:0:0:
239,243,175982,1,0,0:0:0:0:
398,91,176119,6,0,P|442:146|427:188,1,120.000004577637
423,285,176391,2,0,P|367:329|325:314,1,120.000004577637
228,310,176664,2,0,P|183:254|198:212,1,120.000004577637
203,116,176936,2,0,P|258:71|300:86,1,120.000004577637
331,247,177209,6,0,L|204:288,1,120.000004577637
313,86,177482,1,0,0:0:0:0:
195,123,177618,1,0,0:0:0:0:
93,198,177755,5,0,43:0:0:0:
111,233,177823,1,0,0:0:0:0:
134,266,177891,1,0,0:0:0:0:
161,295,177959,1,0,0:0:0:0:
189,320,178027,1,0,0:0:0:0:
298,157,178163,2,0,B|288:129|302:103|329:87|350:95|377:107|385:137|381:168|319:222|306:273,1,240.000009155274,4|0,0:0|0:0,0:0:0:0:
183,118,178572,5,0,0:0:0:0:
117,253,178708,1,0,0:0:0:0:
255,323,178845,1,0,0:0:0:0:
110,254,178982,1,0,0:0:0:0:
183,118,179118,1,0,0:0:0:0:
104,253,179254,1,0,0:0:0:0:
345,86,179391,6,0,L|382:251,1,120.000004577637
304,289,179663,1,0,0:0:0:0:
192,288,179799,2,0,P|147:188|141:136,1,120.000004577637
191,67,180072,1,0,0:0:0:0:
310,42,180208,2,0,P|362:111|372:199,1,120.000004577637
360,281,180482,5,0,0:0:0:0:
226,268,180618,1,0,0:0:0:0:
138,195,180754,2,0,P|115:126|130:60,1,120.000004577637
245,29,181027,2,0,P|300:50|345:113,1,120.000004577637
225,277,181299,2,0,L|239:101,1,120.000004577637
241,49,181572,5,0,0:0:0:0:
373,144,181708,1,0,0:0:0:0:
277,276,181845,1,0,0:0:0:0:
144,181,181981,1,0,0:0:0:0:
285,104,182118,6,0,B|248:124|188:112|188:112|244:149|256:180|256:180|256:215|305:273,1,280
350,210,182663,2,0,P|368:271|230:300,1,224
173,342,183208,2,0,P|176:257|270:245,1,192
220,89,183754,5,0,0:0:0:0:
310,277,183890,1,0,0:0:0:0:
140,220,184026,1,0,0:0:0:0:
343,146,184162,1,0,0:0:0:0:
218,67,184299,6,0,B|192:9|132:13|94:46|72:65|100:121|86:182|181:236|237:303,1,420.000016021729
239,66,184845,6,0,B|265:8|325:11|364:45|386:63|357:119|371:180|277:235|222:303,1,420.000016021729
240,156,185390,2,0,P|184:131|172:129,1,71.9999978027344
20,244,185935,6,0,P|103:300|175:309,1,136.000002593994
285,133,186208,1,0,0:0:0:0:
128,205,186344,1,0,0:0:0:0:
266,307,186481,5,0,0:0:0:0:
261,313,186617,1,0,0:0:0:0:
292,129,186753,1,0,0:0:0:0:
134,200,186889,1,0,0:0:0:0:
294,135,187026,2,0,P|336:77|435:187,2,272.000005187988
405,306,187708,1,0,0:0:0:0:
372,151,187844,1,0,0:0:0:0:
240,93,187980,6,0,B|151:108|134:197|7:237,1,272.000005187988
365,74,188389,1,0,0:0:0:0:
425,233,188525,1,0,0:0:0:0:
249,285,188662,1,0,0:0:0:0:
186,142,188798,1,0,0:0:0:0:
19,83,188934,1,0,0:0:0:0:
42,265,189071,1,0,0:0:0:0:
284,157,189208,6,0,P|279:77|334:168,1,272.000005187988
363,293,189616,1,0,0:0:0:0:
438,169,189753,2,0,P|453:99|405:19,1,136.000002593994
198,59,190025,2,0,P|183:116|204:191,1,136.000002593994
355,132,190298,2,0,B|325:119|313:58|313:58|264:131|138:140,2,272.000005187988
285,281,190980,1,0,0:0:0:0:
255,165,191116,2,0,L|219:33,2,136.000002593994
341,208,191525,5,0,0:0:0:0:
442,100,191661,1,0,0:0:0:0:
480,247,191797,1,0,0:0:0:0:
346,100,191934,1,0,0:0:0:0:
304,268,192071,1,0,0:0:0:0:
418,209,192207,1,0,0:0:0:0:
287,137,192343,1,0,0:0:0:0:
198,278,192480,6,0,B|156:267|144:237|144:237|58:175,1,136.000002593994
73,69,192752,1,0,0:0:0:0:
204,98,192888,1,0,0:0:0:0:
315,201,193025,6,0,P|257:234|185:221,1,136.000002593994
131,40,193297,1,0,0:0:0:0:
250,163,193434,1,0,0:0:0:0:
423,202,193571,5,0,0:0:0:0:
359,64,193707,1,0,0:0:0:0:
242,149,193843,2,0,B|281:218|281:218|277:278,1,136.000002593994
131,304,194116,1,0,0:0:0:0:
56,191,194252,1,0,0:0:0:0:
171,52,194388,5,8,0:0:0:0:
179,80,194456,1,0,0:0:0:0:
188,109,194524,1,0,0:0:0:0:
196,138,194592,1,0,0:0:0:0:
205,166,194660,1,0,0:0:0:0:
270,299,194797,5,0,0:0:0:0:
356,155,194934,2,0,B|220:169|220:169,1,136.000002593994
111,266,195207,1,0,0:0:0:0:
222,166,195343,1,0,0:0:0:0:
138,47,195479,1,0,0:0:0:0:
310,34,195615,1,0,0:0:0:0:
332,209,195752,2,0,B|394:186|445:115|440:101|440:101|335:143,2,272.000005187988
210,275,196434,1,0,0:0:0:0:
170,51,196570,2,0,P|125:154|143:214,1,136.000002593994
359,133,196843,6,0,L|214:133,1,136.000002593994
322,43,197115,1,0,0:0:0:0:
294,214,197251,1,0,0:0:0:0:
163,320,197388,2,0,P|107:266|95:199,1,136.000002593994
184,54,197660,1,0,0:0:0:0:
257,195,197797,1,0,0:0:0:0:
327,243,197934,5,0,0:0:0:0:
283,275,198002,1,0,0:0:0:0:
228,275,198070,1,0,0:0:0:0:
184,243,198138,1,0,0:0:0:0:
167,191,198206,1,0,0:0:0:0:
184,140,198274,5,0,0:0:0:0:
232,171,198342,1,0,0:0:0:0:
275,211,198410,1,0,0:0:0:0:
314,262,198478,1,0,0:0:0:0:
360,308,198546,5,0,0:0:0:0:
384,242,198615,1,0,0:0:0:0:
399,174,198683,1,0,0:0:0:0:
390,105,198751,1,0,0:0:0:0:
201,66,199024,6,0,B|65:72|10:235,2,272.000005187988
146,221,199706,1,0,0:0:0:0:
306,171,199842,1,0,0:0:0:0:
195,66,199978,1,0,0:0:0:0:
81,67,200115,6,0,P|60:166|50:202,1,136.000002593994
158,171,200387,2,0,L|200:308,1,120.000004577637
290,255,200660,2,0,L|381:300,1,60.0000022888184
437,284,200865,1,0,0:0:0:0:
434,265,200933,2,0,P|412:208|330:115,1,136.000002593994
190,47,201206,6,0,B|145:115|162:105|134:228,1,136.000002593994
359,78,201478,1,0,0:0:0:0:
267,221,201614,1,0,0:0:0:0:
334,100,201751,6,0,P|390:173|371:240,1,136.000002593994
125,239,202023,1,0,0:0:0:0:
320,170,202160,1,0,0:0:0:0:
152,166,202297,2,0,B|236:169|236:169|263:140|263:140|290:169|290:169|416:169,2,240.000009155274
264,37,202978,1,0,0:0:0:0:
439,36,203114,1,0,0:0:0:0:
339,196,203250,1,0,0:0:0:0:
137,306,203387,6,0,P|59:221|65:166,1,120.000004577637
200,54,203660,1,0,0:0:0:0:
145,219,203796,1,0,0:0:0:0:
359,170,203933,1,0,0:0:0:0:
182,302,204069,1,0,0:0:0:0:
294,101,204205,1,0,0:0:0:0:
345,313,204341,1,0,0:0:0:0:
468,119,204478,6,0,P|422:64|339:37,1,120.000004577637
226,151,204750,1,0,0:0:0:0:
384,270,204886,1,0,0:0:0:0:
176,346,205023,1,0,0:0:0:0:
61,173,205160,1,0,0:0:0:0:
209,23,205296,1,0,0:0:0:0:
246,215,205432,1,0,0:0:0:0:
384,284,205569,6,0,P|416:186|388:98,1,180.000006866455
196,31,205841,2,0,P|105:93|85:213,1,180.000006866455
96,236,206114,2,0,P|174:323|290:347,2,240.000009155274
239,178,206796,1,0,0:0:0:0:
157,32,206932,5,0,0:0:0:0:
350,112,207068,1,0,0:0:0:0:
129,109,207205,1,0,0:0:0:0:
303,185,207341,1,0,0:0:0:0:
103,185,207477,1,0,0:0:0:0:
221,319,207613,1,0,0:0:0:0:
218,142,207750,6,0,P|216:78|256:27,1,120.000004577637
416,67,208023,1,0,0:0:0:0:
408,231,208159,1,0,0:0:0:0:
294,103,208296,1,0,0:0:0:0:
222,250,208432,1,0,0:0:0:0:
381,150,208568,1,0,0:0:0:0:
208,67,208704,1,0,0:0:0:0:
81,186,208841,6,0,P|133:259|188:284,1,120.000004577637
431,186,209113,2,0,P|379:259|324:284,1,120.000004577637
252,36,209386,1,0,0:0:0:0:
169,182,209523,1,0,0:0:0:0:
335,189,209659,1,0,0:0:0:0:
248,325,209795,1,0,0:0:0:0:
142,50,209932,5,0,0:0:0:0:
101,286,210068,1,0,0:0:0:0:
312,68,210204,5,0,0:0:0:0:
78,122,210340,1,0,0:0:0:0:
395,281,210477,5,0,0:0:0:0:
155,228,210613,1,0,0:0:0:0:
386,91,210749,5,0,0:0:0:0:
193,287,210886,1,0,0:0:0:0:
228,128,211023,2,0,P|239:65|115:96,2,240.000009155274
119,230,211704,1,0,0:0:0:0:
248,253,211840,2,0,L|292:197,2,60.0000022888184
428,126,212113,6,0,P|325:58|189:58,1,240.000009155274
81,198,212522,1,0,0:0:0:0:
233,288,212659,1,0,0:0:0:0:
220,133,212795,1,0,0:0:0:0:
372,61,212931,1,0,0:0:0:0:
370,225,213067,1,0,0:0:0:0:
190,220,213204,5,0,0:0:0:0:
293,78,213340,1,0,0:0:0:0:
294,290,213476,1,0,0:0:0:0:
213,113,213612,1,0,0:0:0:0:
392,133,213749,1,0,0:0:0:0:
201,267,213886,1,0,0:0:0:0:
207,28,214022,2,0,P|135:69|125:131,1,120.000004577637
329,193,214295,6,0,P|381:164|402:110,1,120.000004577637
133,45,214567,1,0,0:0:0:0:
326,112,214703,1,0,0:0:0:0:
81,166,214840,1,0,0:0:0:0:
263,288,214976,1,0,0:0:0:0:
212,39,215112,1,0,0:0:0:0:
105,244,215249,1,0,0:0:0:0:
363,53,215386,6,0,L|371:223,1,120.000004577637
173,197,215658,2,0,P|240:294|273:320,1,120.000004577637
376,50,215931,1,0,0:0:0:0:
385,173,216067,1,0,0:0:0:0:
162,197,216203,1,0,0:0:0:0:
235,298,216339,1,0,0:0:0:0:
205,64,216476,6,0,P|115:62|46:106,1,120.000004577637
47,238,216749,1,0,0:0:0:0:
221,280,216885,1,0,0:0:0:0:
283,83,217022,1,0,0:0:0:0:
121,157,217158,1,0,0:0:0:0:
300,253,217294,1,0,0:0:0:0:
183,58,217430,1,0,0:0:0:0:
165,291,217567,6,0,B|127:257|127:257|158:180,1,120.000004577637
315,99,217839,1,0,0:0:0:0:
335,277,217975,1,0,0:0:0:0:
197,117,218112,1,0,0:0:0:0:
223,280,218249,1,0,0:0:0:0:
339,140,218385,1,0,0:0:0:0:
250,20,218521,1,0,0:0:0:0:
101,64,218658,5,0,0:0:0:0:
20,267,218794,1,0,0:0:0:0:
207,7,218930,5,0,0:0:0:0:
117,224,219066,1,0,0:0:0:0:
352,97,219203,5,0,0:0:0:0:
169,246,219339,1,0,0:0:0:0:
237,44,219475,5,0,0:0:0:0:
319,291,219612,1,0,0:0:0:0:
83,233,219749,2,0,B|92:190|92:190|135:149|146:113,1,120.000004577637
304,40,220021,1,0,0:0:0:0:
390,218,220157,1,0,0:0:0:0:
232,301,220294,1,0,0:0:0:0:
150,126,220430,1,0,0:0:0:0:
309,35,220566,5,0,0:0:0:0:
308,49,220634,1,0,0:0:0:0:
308,64,220702,1,0,0:0:0:0:
308,79,220770,1,0,0:0:0:0:
307,98,220839,2,0,B|291:166|201:186,1,120.000004577637
178,45,221112,5,0,0:0:0:0:
81,203,221248,1,0,0:0:0:0:
241,297,221385,1,0,0:0:0:0:
224,161,221521,1,0,0:0:0:0:
326,36,221657,1,0,0:0:0:0:
159,125,221793,1,0,0:0:0:0:
315,123,221930,6,0,P|363:149|379:222,1,120.000004577637
135,240,222202,1,0,0:0:0:0:
309,202,222338,1,0,0:0:0:0:
296,355,222475,1,0,0:0:0:0:
138,226,222612,1,0,0:0:0:0:
212,42,222748,1,0,0:0:0:0:
243,265,222884,1,0,0:0:0:0:
377,58,223021,6,0,L|283:202,1,120.000004577637
226,17,223293,1,0,0:0:0:0:
151,227,223429,1,0,0:0:0:0:
86,52,223566,1,0,0:0:0:0:
207,140,223702,1,0,0:0:0:0:
317,45,223838,1,0,0:0:0:0:
333,207,223975,5,0,0:0:0:0:
320,39,224112,1,0,0:0:0:0:
196,145,224248,1,0,0:0:0:0:
229,316,224384,1,0,0:0:0:0:
341,189,224520,5,0,0:0:0:0:
166,223,224657,1,0,0:0:0:0:
261,81,224793,1,0,0:0:0:0:
367,321,224929,2,0,P|385:264|379:204,1,120.000004577637
330,33,225202,6,2,B|288:155,1,120.000004577637
213,53,225475,5,0,0:0:0:0:
300,259,225611,2,0,P|248:228|205:188,1,120.000004577637
74,224,225884,1,0,0:0:0:0:
116,64,226020,1,0,0:0:0:0:
261,113,226156,1,0,0:0:0:0:
214,326,226293,6,0,L|246:180,1,120.000004577637
195,58,226565,1,0,0:0:0:0:
90,191,226701,1,0,0:0:0:0:
281,126,226838,1,0,0:0:0:0:
89,76,226975,1,0,0:0:0:0:
174,257,227111,1,0,0:0:0:0:
196,44,227247,1,0,0:0:0:0:
319,218,227384,6,0,P|371:191|394:137,1,120.000004577637
241,73,227656,1,0,0:0:0:0:
319,58,227792,5,0,0:0:0:0:
333,237,227929,1,0,0:0:0:0:
159,150,228065,1,0,0:0:0:0:
371,159,228201,1,0,0:0:0:0:
225,256,228338,1,0,0:0:0:0:
226,76,228475,5,4,0:0:0:0:
390,80,228611,1,0,0:0:0:0:
313,230,228747,1,0,0:0:0:0:
159,211,228883,1,0,0:0:0:0:
242,74,229020,1,4,0:0:0:0:
356,211,229156,2,0,L|327:141,2,60.0000022888184
227,285,229428,1,0,0:0:0:0:
86,162,229565,6,0,P|135:45|161:33,1,120.000004577637
301,29,229838,1,0,0:0:0:0:
381,186,229974,1,0,0:0:0:0:
257,307,230111,1,0,0:0:0:0:
120,195,230247,1,0,0:0:0:0:
190,34,230383,1,0,0:0:0:0:
260,165,230519,1,0,0:0:0:0:
363,306,230656,6,0,P|408:223|421:146,1,120.000004577637
323,30,230928,1,0,0:0:0:0:
305,243,231064,1,0,0:0:0:0:
121,151,231201,1,0,0:0:0:0:
309,235,231338,1,0,0:0:0:0:
328,24,231474,1,0,0:0:0:0:
309,246,231610,1,0,0:0:0:0:
115,157,231747,6,0,P|115:67|183:24,1,120.000004577637
352,108,232019,1,0,0:0:0:0:
176,106,232155,1,0,0:0:0:0:
196,269,232292,2,0,P|230:317|281:348,1,120.000004577637
357,184,232565,1,0,0:0:0:0:
285,37,232701,1,0,0:0:0:0:
169,167,232838,1,0,0:0:0:0:
288,310,232974,6,0,B|237:229|316:233|282:160,1,120.000004577637
283,46,233246,1,0,0:0:0:0:
136,128,233383,1,0,0:0:0:0:
177,274,233519,1,0,0:0:0:0:
322,136,233655,2,0,P|380:141|431:111,1,120.000004577637
226,27,233928,5,2,0:0:0:0:
302,231,234064,1,0,0:0:0:0:
141,150,234201,1,0,0:0:0:0:
302,239,234337,1,0,0:0:0:0:
348,44,234474,1,0,0:0:0:0:
455,166,234610,1,0,0:0:0:0:
407,316,234746,1,0,0:0:0:0:
269,324,234882,1,0,0:0:0:0:
146,240,235019,6,0,P|103:153|97:100,1,120.000004577637
281,26,235291,1,0,0:0:0:0:
191,152,235427,1,0,0:0:0:0:
354,260,235564,6,0,P|413:182|429:132,1,120.000004577637
263,24,235837,1,0,0:0:0:0:
327,165,235973,1,0,0:0:0:0:
125,37,236110,6,4,P|43:113|39:169,1,120.000004577637
402,79,236382,1,0,0:0:0:0:
108,133,236518,1,0,0:0:0:0:
275,318,236655,1,0,0:0:0:0:
231,37,236791,1,0,0:0:0:0:
408,209,236927,1,0,0:0:0:0:
137,253,237064,2,0,P|102:156|108:135,1,120.000004577637
291,33,237337,5,0,42:0:0:0:
298,65,237405,1,0,42:0:0:0:
301,99,237473,1,0,42:0:0:0:
299,194,237609,1,0,0:0:0:0:
230,244,237746,1,0,0:0:0:0:
159,175,237882,1,0,0:0:0:0:
134,85,238018,1,0,0:0:0:0:
39,64,238154,1,0,0:0:0:0:
0,163,238291,6,0,B|-20:269|81:342|81:342|148:309|148:309|212:267|259:253|243:223|280:137|188:144|159:178|159:178|132:140|40:138|69:218|52:245|115:276|216:350|216:350|314:308|322:235|320:205|318:185|301:140|301:140|326:156|377:219|379:276|379:276|432:333|432:333|466:270|449:198|376:99|376:99|435:131|563:158|582:82|551:24|554:-6|481:18|420:8|420:49|431:69|491:170|569:210|502:230|543:294|506:330,1,2207.99993261719
