osu file format v14

[General]
AudioFilename: Arrow.mp3
AudioLeadIn: 0
PreviewTime: 194718
Countdown: 0
SampleSet: Soft
StackLeniency: 0.7
Mode: 0
LetterboxInBreaks: 0
WidescreenStoryboard: 0

[Editor]
DistanceSpacing: 1.2
BeatDivisor: 4
GridSize: 32
TimelineZoom: 1

[Metadata]
Title:Arrow
TitleUnicode:アロー
Artist:HAG
ArtistUnicode:H△G
Creator:Sarawatlism
Version:Starlight
Source:
Tags:青色フィルム Chiho Ao Iro Film ハグ hagu j-pop pop jpop japanese [_lost_] conner c_o_n_n_e_r Hazu- Firika door weapon xiced
BeatmapID:2279105
BeatmapSetID:1090194

[Difficulty]
HPDrainRate:7
CircleSize:4
OverallDifficulty:8.5
ApproachRate:9.3
SliderMultiplier:1.91
SliderTickRate:1

[Events]
//Background and Video events
0,0,"BG.jpg",0,0
//Break Periods
2,195995,205807
//Storyboard Layer 0 (Background)
//Storyboard Layer 1 (Fail)
//Storyboard Layer 2 (Pass)
//Storyboard Layer 3 (Foreground)
//Storyboard Layer 4 (Overlay)
//Storyboard Sound Samples

[TimingPoints]
-447,331.491712707182,4,2,1,40,1,0
878,-125,4,2,1,40,0,0
11486,-90.9090909090909,4,2,1,70,0,0
11735,-90.9090909090909,4,2,1,5,0,0
11818,-90.9090909090909,4,2,1,70,0,0
13061,-90.9090909090909,4,2,1,5,0,0
13144,-90.9090909090909,4,2,1,70,0,0
14387,-90.9090909090909,4,2,1,5,0,0
14470,-90.9090909090909,4,2,1,70,0,0
15713,-90.9090909090909,4,2,1,5,0,0
15796,-90.9090909090909,4,2,1,70,0,0
17039,-90.9090909090909,4,2,1,5,0,0
17122,-90.9090909090909,4,2,1,70,0,0
18365,-90.9090909090909,4,2,1,5,0,0
18448,-90.9090909090909,4,2,1,70,0,0
19691,-90.9090909090909,4,2,1,5,0,0
19773,-90.9090909090909,4,2,1,70,0,0
22094,-100,4,2,1,50,0,0
24994,-100,4,2,1,5,0,0
25077,-100,4,2,1,50,0,0
36928,-100,4,2,1,5,0,0
37011,-100,4,2,1,50,0,0
40243,-100,4,2,1,5,0,0
40326,-100,4,2,1,50,0,0
42978,-90.9090909090909,4,2,1,60,0,0
43309,-100,4,2,1,60,0,0
44055,-100,4,2,1,5,0,0
44138,-100,4,2,1,60,0,0
45878,-100,4,2,1,5,0,0
45961,-100,4,2,1,60,0,0
46707,-100,4,2,1,5,0,0
46790,-100,4,2,1,60,0,0
47370,-100,4,2,1,5,0,0
47453,-100,4,2,1,60,0,0
48530,-100,4,2,1,5,0,0
48613,-100,4,2,1,60,0,0
49359,-100,4,2,1,5,0,0
49442,-100,4,2,1,60,0,0
50685,-100,4,2,1,5,0,0
50768,-100,4,2,1,60,0,0
51265,-90.9090909090909,4,2,1,70,0,0
53917,-83.3333333333333,4,2,1,80,0,1
54166,-83.3333333333333,4,2,1,5,0,1
54249,-83.3333333333333,4,2,1,80,0,1
55492,-83.3333333333333,4,2,1,5,0,1
55575,-83.3333333333333,4,2,1,80,0,1
56818,-83.3333333333333,4,2,1,5,0,1
56901,-83.3333333333333,4,2,1,80,0,1
58144,-83.3333333333333,4,2,1,5,0,1
58227,-83.3333333333333,4,2,1,80,0,1
59470,-83.3333333333333,4,2,1,5,0,1
59552,-83.3333333333333,4,2,1,80,0,1
60796,-83.3333333333333,4,2,1,5,0,1
60878,-83.3333333333333,4,2,1,80,0,1
62122,-83.3333333333333,4,2,1,5,0,1
62204,-83.3333333333333,4,2,1,80,0,1
64773,-83.3333333333333,4,2,1,5,0,1
64856,-83.3333333333333,4,2,1,80,0,1
66099,-83.3333333333333,4,2,1,5,0,1
66182,-83.3333333333333,4,2,1,80,0,1
67425,-83.3333333333333,4,2,1,5,0,1
67508,-83.3333333333333,4,2,1,80,0,1
68751,-83.3333333333333,4,2,1,5,0,1
68834,-83.3333333333333,4,2,1,80,0,1
70077,-83.3333333333333,4,2,1,5,0,1
70160,-83.3333333333333,4,2,1,80,0,1
71403,-83.3333333333333,4,2,1,5,0,1
71486,-83.3333333333333,4,2,1,80,0,1
72729,-83.3333333333333,4,2,1,5,0,1
72812,-83.3333333333333,4,2,1,80,0,1
74801,-71.4285714285714,4,2,1,85,0,1
75050,-83.3333333333333,4,2,1,5,0,0
75133,-76.9230769230769,4,2,1,85,0,1
75381,-76.9230769230769,4,2,1,5,0,1
75464,-76.9230769230769,4,2,1,85,0,1
76707,-76.9230769230769,4,2,1,5,0,1
76790,-76.9230769230769,4,2,1,85,0,1
77702,-76.9230769230769,4,2,1,5,0,1
77785,-76.9230769230769,4,2,1,85,0,1
78033,-76.9230769230769,4,2,1,5,0,1
78116,-76.9230769230769,4,2,1,85,0,1
80354,-76.9230769230769,4,2,1,5,0,1
80436,-76.9230769230769,4,2,1,85,0,1
80685,-76.9230769230769,4,2,1,5,0,1
80768,-76.9230769230769,4,2,1,85,0,1
82011,-76.9230769230769,4,2,1,5,0,1
82094,-76.9230769230769,4,2,1,85,0,1
85989,-76.9230769230769,4,2,1,5,0,1
86072,-76.9230769230769,4,2,1,85,0,1
87315,-76.9230769230769,4,2,1,5,0,1
87398,-76.9230769230769,4,2,1,85,0,1
88641,-76.9230769230769,4,2,1,5,0,1
88724,-76.9230769230769,4,2,1,85,0,1
91293,-76.9230769230769,4,2,1,5,0,1
91376,-76.9230769230769,4,2,1,85,0,1
93696,-90.9090909090909,4,2,1,65,0,0
93945,-90.9090909090909,4,2,1,5,0,0
94028,-90.9090909090909,4,2,1,65,0,0
95271,-90.9090909090909,4,2,1,5,0,0
95354,-90.9090909090909,4,2,1,65,0,0
96597,-90.9090909090909,4,2,1,5,0,0
96680,-90.9090909090909,4,2,1,65,0,0
97923,-90.9090909090909,4,2,1,5,0,0
98006,-90.9090909090909,4,2,1,65,0,0
98917,-90.9090909090909,4,2,1,5,0,0
99000,-111.111111111111,4,2,1,65,0,0
101569,-111.111111111111,4,2,1,5,0,0
101652,-111.111111111111,4,2,1,65,0,0
103061,-111.111111111111,4,2,1,5,0,0
103144,-111.111111111111,4,2,1,65,0,0
104304,-125,4,2,1,60,0,0
108862,-125,4,2,1,5,0,0
108945,-125,4,2,1,60,0,0
114912,-166.666666666667,4,2,1,45,0,0
120133,-166.666666666667,4,2,1,5,0,0
120215,-166.666666666667,4,2,1,45,0,0
125519,-125,4,2,1,60,0,0
129580,-125,4,2,1,5,0,0
129663,-125,4,2,1,60,0,0
130823,-100,4,2,1,60,0,0
131569,-100,4,2,1,5,0,0
131652,-100,4,2,1,60,0,0
132895,-100,4,2,1,5,0,0
132978,-100,4,2,1,60,0,0
133475,-90.9090909090909,4,2,1,70,0,0
136127,-83.3333333333333,4,2,1,80,0,1
136376,-83.3333333333333,4,2,1,5,0,1
136459,-83.3333333333333,4,2,1,80,0,1
137702,-83.3333333333333,4,2,1,5,0,1
137785,-83.3333333333333,4,2,1,80,0,1
139028,-83.3333333333333,4,2,1,5,0,1
139111,-83.3333333333333,4,2,1,80,0,1
140354,-83.3333333333333,4,2,1,5,0,1
140436,-83.3333333333333,4,2,1,80,0,1
141680,-83.3333333333333,4,2,1,5,0,1
141762,-83.3333333333333,4,2,1,80,0,1
143006,-83.3333333333333,4,2,1,5,0,1
143088,-83.3333333333333,4,2,1,80,0,1
144332,-83.3333333333333,4,2,1,5,0,1
144414,-83.3333333333333,4,2,1,80,0,1
146983,-83.3333333333333,4,2,1,5,0,1
147066,-83.3333333333333,4,2,1,80,0,1
148309,-83.3333333333333,4,2,1,5,0,1
148392,-83.3333333333333,4,2,1,80,0,1
149635,-83.3333333333333,4,2,1,5,0,1
149718,-83.3333333333333,4,2,1,80,0,1
150961,-83.3333333333333,4,2,1,5,0,1
151044,-83.3333333333333,4,2,1,80,0,1
152287,-83.3333333333333,4,2,1,5,0,1
152370,-83.3333333333333,4,2,1,80,0,1
153613,-83.3333333333333,4,2,1,5,0,1
153696,-83.3333333333333,4,2,1,80,0,1
154939,-83.3333333333333,4,2,1,5,0,1
155022,-83.3333333333333,4,2,1,80,0,1
157011,-71.4285714285714,4,2,1,85,0,1
157260,-83.3333333333333,4,2,1,5,0,0
157343,-76.9230769230769,4,2,1,85,0,1
157591,-76.9230769230769,4,2,1,5,0,1
157674,-76.9230769230769,4,2,1,85,0,1
158917,-76.9230769230769,4,2,1,5,0,1
159000,-76.9230769230769,4,2,1,85,0,1
159912,-76.9230769230769,4,2,1,5,0,1
159994,-76.9230769230769,4,2,1,85,0,1
160243,-76.9230769230769,4,2,1,5,0,1
160326,-76.9230769230769,4,2,1,85,0,1
162564,-76.9230769230769,4,2,1,5,0,1
162646,-76.9230769230769,4,2,1,85,0,1
162895,-76.9230769230769,4,2,1,5,0,1
162978,-76.9230769230769,4,2,1,85,0,1
164221,-76.9230769230769,4,2,1,5,0,1
164304,-76.9230769230769,4,2,1,85,0,1
165215,-76.9230769230769,4,2,1,5,0,1
165298,-76.9230769230769,4,2,1,85,0,1
168199,-76.9230769230769,4,2,1,5,0,1
168282,-76.9230769230769,4,2,1,85,0,1
169525,-76.9230769230769,4,2,1,5,0,1
169608,-76.9230769230769,4,2,1,85,0,1
170851,-76.9230769230769,4,2,1,5,0,1
170934,-76.9230769230769,4,2,1,85,0,1
172177,-76.9230769230769,4,2,1,5,0,1
172260,-76.9230769230769,4,2,1,85,0,1
175492,-76.9230769230769,4,2,1,5,0,1
175575,-66.6666666666667,4,2,1,75,0,1
175906,-83.3333333333333,4,2,1,75,0,0
177315,-83.3333333333333,4,2,1,5,0,0
177398,-83.3333333333333,4,2,1,75,0,0
178807,-83.3333333333333,4,2,1,5,0,0
178890,-83.3333333333333,4,2,1,75,0,0
179967,-83.3333333333333,4,2,1,5,0,0
180050,-83.3333333333333,4,2,1,75,0,0
181459,-83.3333333333333,4,2,1,5,0,0
181541,-83.3333333333333,4,2,1,75,0,0
183779,-83.3333333333333,4,2,1,5,0,0
183862,-83.3333333333333,4,2,1,75,0,0
185105,-83.3333333333333,4,2,1,5,0,0
185188,-83.3333333333333,4,2,1,75,0,0
185934,-83.3333333333333,4,2,1,5,0,0
186017,-83.3333333333333,4,2,1,75,0,0
186182,-100,4,2,1,70,0,0
186514,-125,4,2,1,70,0,0
190492,-100,4,2,1,70,0,0
190740,-100,4,2,1,5,0,0
190823,-100,4,2,1,70,0,0
191403,-100,4,2,1,5,0,0
191486,-100,4,2,1,70,0,0
193144,-166.666666666667,4,2,1,60,0,0
194304,-250,4,2,1,60,0,0
195796,-250,4,2,1,40,0,0
206403,-125,4,2,1,60,0,0
211624,-125,4,2,1,5,0,0
211707,-250,4,2,1,60,0,0
211872,-250,4,2,1,50,0,0
213033,-166.666666666667,4,2,1,50,0,0
214359,-90.9090909090909,4,2,1,70,0,0
214608,-90.9090909090909,4,2,1,5,0,0
214691,-90.9090909090909,4,2,1,70,0,0
217011,-76.9230769230769,4,2,1,85,0,1
217260,-76.9230769230769,4,2,1,5,0,1
217343,-76.9230769230769,4,2,1,85,0,1
218586,-76.9230769230769,4,2,1,5,0,1
218669,-76.9230769230769,4,2,1,85,0,1
219580,-76.9230769230769,4,2,1,5,0,1
219663,-76.9230769230769,4,2,1,85,0,1
219912,-76.9230769230769,4,2,1,5,0,1
219994,-76.9230769230769,4,2,1,85,0,1
221238,-76.9230769230769,4,2,1,5,0,1
221320,-76.9230769230769,4,2,1,85,0,1
222564,-76.9230769230769,4,2,1,5,0,1
222646,-76.9230769230769,4,2,1,85,0,1
223558,-76.9230769230769,4,2,1,5,0,1
223641,-76.9230769230769,4,2,1,85,0,1
223890,-76.9230769230769,4,2,1,5,0,1
223972,-76.9230769230769,4,2,1,85,0,1
227867,-76.9230769230769,4,2,1,5,0,1
227950,-76.9230769230769,4,2,1,85,0,1
229193,-76.9230769230769,4,2,1,5,0,1
229276,-76.9230769230769,4,2,1,85,0,1
230519,-76.9230769230769,4,2,1,5,0,1
230602,-76.9230769230769,4,2,1,85,0,1
233171,-76.9230769230769,4,2,1,5,0,1
233254,-76.9230769230769,4,2,1,85,0,1
235575,-90.9090909090909,4,2,1,70,0,0
235823,-90.9090909090909,4,2,1,5,0,0
235906,-90.9090909090909,4,2,1,70,0,0
237149,-90.9090909090909,4,2,1,5,0,0
237232,-90.9090909090909,4,2,1,70,0,0
238475,-90.9090909090909,4,2,1,5,0,0
238558,-90.9090909090909,4,2,1,70,0,0
239801,-90.9090909090909,4,2,1,5,0,0
239884,-90.9090909090909,4,2,1,70,0,0
240796,-90.9090909090909,4,2,1,5,0,0
240878,-90.9090909090909,4,2,1,70,0,0
245436,-90.9090909090909,4,2,1,5,0,0
245519,-90.9090909090909,4,2,1,70,0,0
251403,-90.9090909090909,4,2,1,40,0,0

[Colours]
Combo1 : 149,233,251
Combo2 : 251,162,40
Combo3 : 0,128,255
Combo4 : 238,187,172

[HitObjects]
48,146,381,5,2,0:0:0:0:
124,105,547,1,2,0:0:0:0:
48,146,713,1,2,0:0:0:0:
122,189,878,6,0,P|187:168|200:88,1,152.8,2|2,0:1|0:0,0:0:0:0:
156,27,1376,2,0,B|112:10|79:33|94:51|58:78|10:60,2,152.8,2|2|2,0:0|0:0|0:0,0:0:0:0:
228,74,2204,2,0,P|284:97|344:38,1,152.8
343,39,2867,6,0,B|314:81|314:81|319:186,1,152.8,2|2,0:1|0:0,0:0:0:0:
383,238,3365,1,2,0:0:0:0:
331,306,3530,2,0,P|283:262|209:292,1,152.8,2|2,0:1|0:0,0:0:0:0:
143,334,4028,2,0,P|84:344|41:269,2,152.8,2|2|2,0:0|0:0|0:0,0:0:0:0:
209,291,4856,2,0,P|241:241|198:157,1,152.8
206,161,5519,6,0,L|109:174,1,76.4,2|2,0:1|0:0,0:0:0:0:
215,78,5851,2,0,P|265:84|282:111,1,76.4,2|2,0:0|0:0,0:0:0:0:
348,146,6182,2,0,P|415:149|455:60,1,152.8,2|2,0:1|0:0,0:0:0:0:
511,161,6680,2,0,P|505:233|502:326,2,152.8,2|2|2,0:0|0:0|0:0,0:0:0:0:
458,83,7508,2,0,B|391:51|391:51|312:86,1,152.8
234,237,8171,2,0,B|301:269|301:269|378:231,1,152.8,2|2,0:1|0:0,0:0:0:0:
247,111,8834,6,0,B|192:88|124:132|180:151|115:200|46:174,2,229.2,2|2|2,0:1|0:0|0:0,0:0:0:0:
256,192,9912,12,2,11320,0:0:0:0:
364,229,11486,6,0,P|300:215|246:279,1,157.575004808808,6|0,3:1|0:0,0:0:0:0:
241,295,11818,2,0,P|187:299|145:256,1,105.050003205872,2|2,3:2|1:2,0:0:0:0:
137,248,12066,1,0,1:2:0:0:
122,230,12149,2,0,P|63:231|36:266,1,105.050003205872,0|2,3:2|0:0,0:0:0:0:
214,187,12481,2,0,P|230:143|206:88,1,105.050003205872,0|2,3:2|1:2,0:0:0:0:
0,338,12812,6,0,P|90:334|158:334,1,157.575004808808,2|0,3:1|0:0,0:0:0:0:
157,333,13144,1,0,3:2:0:0:
246,263,13309,1,0,1:2:0:0:
246,263,13392,1,0,1:2:0:0:
246,263,13475,2,0,P|279:261|325:314,1,105.050003205872,2|2,3:1|1:2,0:0:0:0:
421,380,13807,2,0,P|401:337|425:281,1,105.050003205872,2|2,3:2|1:2,0:0:0:0:
493,233,14138,6,0,P|419:249|375:180,1,157.575004808808,6|0,3:1|0:0,0:0:0:0:
367,176,14470,2,0,P|318:167|267:207,1,105.050003205872,2|2,3:2|1:2,0:0:0:0:
259,211,14718,1,0,1:2:0:0:
244,227,14801,2,0,L|236:122,1,105.050003205872,6|2,3:1|1:2,0:0:0:0:
360,72,15133,2,0,L|367:176,1,105.050003205872,0|2,3:2|1:2,0:0:0:0:
163,99,15464,6,0,P|210:39|284:61,1,157.575004808808,6|0,3:1|0:0,0:0:0:0:
280,57,15796,1,0,3:2:0:0:
173,186,15961,1,0,1:2:0:0:
173,186,16044,1,0,1:2:0:0:
173,186,16127,2,0,P|112:177|85:129,1,105.050003205872,2|0,3:2|1:2,0:0:0:0:
159,5,16459,2,0,P|181:50|161:101,1,105.050003205872,2|0,3:2|3:2,0:0:0:0:
57,225,16790,6,0,P|111:163|180:196,1,157.575004808808,6|0,3:1|0:0,0:0:0:0:
181,203,17122,2,0,L|183:315,1,105.050003205872,2|2,3:2|1:2,0:0:0:0:
176,325,17370,1,0,1:2:0:0:
166,341,17453,2,0,P|114:352|66:310,1,105.050003205872,0|2,3:2|0:0,0:0:0:0:
253,265,17785,2,0,P|306:268|337:320,1,105.050003205872,0|2,3:2|1:2,0:0:0:0:
431,377,18116,6,0,P|389:308|436:251,1,157.575004808808,0|0,3:2|0:0,0:0:0:0:
430,254,18448,1,0,3:2:0:0:
351,165,18613,1,0,1:2:0:0:
351,165,18696,1,0,1:2:0:0:
351,165,18779,2,0,P|306:157|260:198,1,105.050003205872,2|0,3:2|0:0,0:0:0:0:
452,134,19111,2,0,P|471:97|448:30,1,105.050003205872,2|0,3:2|1:2,0:0:0:0:
338,38,19442,6,0,B|296:18|261:44|276:60|235:91|188:75,1,157.575004808808,6|0,3:1|0:0,0:0:0:0:
178,58,19773,2,0,P|126:31|79:45,1,105.050003205872,0|0,3:2|1:2,0:0:0:0:
63,58,20022,1,0,1:2:0:0:
43,73,20105,2,0,L|46:181,1,105.050003205872,0|2,3:2|1:2,0:0:0:0:
145,245,20436,2,0,P|165:191|133:145,1,105.050003205872,2|2,3:2|1:2,0:0:0:0:
44,249,20768,5,0,3:2:0:0:
145,324,20934,1,0,1:2:0:0:
0,321,21099,1,2,3:2:0:0:
145,245,21265,1,2,1:2:0:0:
66,374,21431,1,2,3:2:0:0:
234,268,21597,1,0,1:2:0:0:
234,268,21680,1,0,1:2:0:0:
234,268,21762,2,0,P|202:238|142:246,1,105.050003205872,0|2,3:2|3:2,0:0:0:0:
141,339,22094,6,0,P|232:332|337:341,1,191,6|2,3:1|3:2,0:0:0:0:
435,374,22591,1,2,0:0:0:0:
484,293,22757,2,0,P|500:242|475:204,1,95.5,0|0,3:2|0:0,0:0:0:0:
382,174,23088,2,0,P|366:225|393:264,1,95.5,2|0,3:2|0:0,0:0:0:0:
445,108,23420,6,0,B|395:91|351:117|376:144|339:175|273:162,1,191,2|2,3:2|3:2,0:0:0:0:
202,89,23917,1,2,0:0:0:0:
120,147,24083,2,0,B|107:192|107:192|121:238,1,95.5,0|0,3:2|0:0,0:0:0:0:
207,296,24414,2,0,B|220:251|220:251|205:203,1,95.5,2|0,3:2|0:0,0:0:0:0:
26,155,24746,6,0,P|30:231|32:312,1,143.25,2|0,3:1|0:0,0:0:0:0:
25,309,25077,1,2,3:2:0:0:
120,233,25243,1,2,0:0:0:0:
169,373,25409,2,0,P|131:341|84:352,1,95.5,0|0,3:2|0:0,0:0:0:0:
222,290,25740,2,0,P|276:289|302:246,1,95.5,2|2,3:2|0:0,0:0:0:0:
232,128,26072,6,0,P|214:175|235:218,1,95.5,2|0,3:2|0:0,0:0:0:0:
391,167,26403,2,0,L|289:171,1,95.5,2|0,3:2|0:0,0:0:0:0:
468,259,26735,2,0,L|366:264,1,95.5,2|0,3:2|0:0,0:0:0:0:
507,90,27066,2,0,L|406:94,1,95.5,2|0,3:2|0:0,0:0:0:0:
316,32,27398,5,2,3:1:0:0:
391,167,27564,1,2,0:0:0:0:
252,105,27729,1,2,3:2:0:0:
399,76,27895,1,2,0:0:0:0:
303,182,28061,5,2,3:2:0:0:
227,22,28227,1,2,0:0:0:0:
329,110,28392,1,2,3:2:0:0:
174,130,28558,1,2,0:0:0:0:
316,32,28724,6,0,P|394:29|425:129,1,191,2|2,3:2|3:2,0:0:0:0:
376,207,29221,1,2,0:0:0:0:
274,168,29387,2,0,P|309:131|353:135,1,95.5,0|0,3:2|0:0,0:0:0:0:
313,268,29718,2,0,P|258:264|208:264,1,95.5,2|2,3:2|0:0,0:0:0:0:
136,330,30050,5,2,3:1:0:0:
103,215,30215,1,8,0:0:0:0:
126,208,30298,1,8,0:0:0:0:
146,202,30381,1,8,3:2:0:0:
50,289,30547,1,8,0:0:0:0:
217,263,30713,5,2,3:2:0:0:
29,181,30878,1,8,0:0:0:0:
29,181,30961,1,8,0:0:0:0:
29,181,31044,1,8,3:2:0:0:
135,329,31210,1,8,0:0:0:0:
215,159,31376,6,0,P|175:124|133:132,1,95.5,2|8,3:2|0:0,0:0:0:0:
100,229,31707,1,8,3:2:0:0:
57,84,31873,1,8,0:0:0:0:
100,229,32039,1,2,3:2:0:0:
215,159,32204,1,10,0:0:0:0:
16,181,32370,2,0,L|21:280,1,95.5,10|10,3:2|0:0,0:0:0:0:
101,342,32702,6,0,B|151:359|195:333|170:306|215:274|272:299,1,191,6|2,3:1|3:2,0:0:0:0:
358,358,33199,1,2,0:0:0:0:
436,293,33365,2,0,P|399:258|343:266,1,95.5,0|0,3:2|0:0,0:0:0:0:
278,189,33696,2,0,P|321:186|355:146,1,95.5,2|2,3:2|0:0,0:0:0:0:
444,87,34028,6,0,P|441:162|441:291,1,191,0|2,3:2|3:2,0:0:0:0:
500,365,34525,1,2,0:0:0:0:
440,277,34691,2,0,P|389:279|362:319,1,95.5,0|0,3:2|0:0,0:0:0:0:
285,373,35022,1,2,3:2:0:0:
246,271,35188,1,2,0:0:0:0:
85,359,35354,6,0,P|164:354|277:355,1,191,2|2,3:1|3:2,0:0:0:0:
348,280,35851,1,2,0:0:0:0:
268,206,36017,2,0,P|213:207|181:242,1,95.5,0|0,3:2|0:0,0:0:0:0:
84,253,36348,2,0,P|31:250|9:209,1,95.5,2|2,3:2|0:0,0:0:0:0:
24,116,36680,6,0,B|61:103|94:122|82:143|113:161|154:149,1,143.25,2|0,3:2|0:0,0:0:0:0:
163,137,37011,1,2,3:2:0:0:
109,43,37177,1,0,0:0:0:0:
163,137,37343,1,2,3:2:0:0:
24,116,37508,1,0,0:0:0:0:
204,51,37674,2,0,P|250:53|280:97,1,95.5,2|0,3:2|0:0,0:0:0:0:
299,191,38006,5,2,3:1:0:0:
372,112,38171,1,2,0:0:0:0:
219,200,38337,1,2,3:2:0:0:
394,199,38503,1,2,0:0:0:0:
278,89,38669,5,2,3:2:0:0:
310,283,38834,1,2,0:0:0:0:
372,112,39000,1,2,3:2:0:0:
219,200,39166,1,2,0:0:0:0:
394,369,39332,6,0,P|430:275|389:194,1,191,2|2,3:2|3:2,0:0:0:0:
299,144,39829,1,2,0:0:0:0:
212,208,39994,2,0,B|174:220|141:201|161:180|119:158|83:174,1,143.25,0|0,3:2|0:0,0:0:0:0:
66,185,40326,2,0,B|50:234|50:234|72:278,1,95.5,2|2,3:2|0:0,0:0:0:0:
150,95,40657,5,2,3:1:0:0:
58,37,40823,1,8,0:0:0:0:
39,26,40906,1,8,0:0:0:0:
22,17,40989,1,8,3:2:0:0:
150,95,41155,1,8,0:0:0:0:
10,124,41320,5,2,3:2:0:0:
146,9,41486,1,8,0:0:0:0:
146,9,41569,1,8,0:0:0:0:
146,9,41652,1,8,3:2:0:0:
66,185,41818,1,8,0:0:0:0:
231,89,41983,5,2,3:2:0:0:
58,37,42149,1,8,0:0:0:0:
213,209,42315,1,8,3:2:0:0:
267,4,42481,1,2,1:2:0:0:
117,107,42646,5,2,3:2:0:0:
313,160,42812,1,2,0:0:0:0:
146,9,42978,2,0,P|87:8|54:53,1,105.050003205872,2|2,1:2|0:0,0:0:0:0:
118,194,43309,6,0,P|133:138|116:106,1,95.5,6|0,3:2|3:2,0:0:0:0:
15,146,43641,1,2,1:2:0:0:
47,256,43807,2,0,P|110:247|195:251,1,143.25,2|0,0:0|0:0,0:0:0:0:
189,250,44138,1,0,0:0:0:0:
136,354,44304,2,0,P|96:363|48:333,1,95.5,0|2,1:2|3:2,0:0:0:0:
189,250,44635,5,2,0:0:0:0:
244,368,44801,1,0,3:2:0:0:
367,263,44967,2,0,P|309:254|284:283,1,95.5,2|2,1:2|0:0,0:0:0:0:
278,291,45215,1,2,0:0:0:0:
278,291,45298,2,0,P|293:242|270:194,1,95.5,2|0,0:0|3:2,0:0:0:0:
344,358,45630,2,0,P|407:349|489:354,1,143.25,2|0,1:2|0:0,0:0:0:0:
492,365,45961,5,2,3:2:0:0:
367,263,46127,1,0,3:2:0:0:
492,365,46293,1,0,1:2:0:0:
509,243,46459,2,0,B|473:226|434:244|457:267|421:287|376:273,1,143.25,2|0,0:0|0:0,0:0:0:0:
367,263,46790,1,0,0:0:0:0:
408,163,46956,1,0,1:2:0:0:
233,138,47122,6,0,P|253:197|326:193,1,143.25,2|0,3:2|0:0,0:0:0:0:
333,180,47453,1,0,3:2:0:0:
241,57,47619,2,0,P|189:60|162:94,1,95.5,2|0,1:2|0:0,0:0:0:0:
165,194,47950,1,2,0:0:0:0:
305,111,48116,1,2,3:2:0:0:
84,15,48282,2,0,P|90:66|95:170,1,143.25,0|0,1:2|0:0,0:0:0:0:
92,170,48613,6,0,P|119:124|170:118,1,95.5,2|0,3:2|3:2,0:0:0:0:
187,218,48945,1,2,1:2:0:0:
36,281,49111,2,0,P|-8:241|8:160,1,143.25,2|0,0:0|0:0,0:0:0:0:
14,150,49442,1,0,3:2:0:0:
110,257,49608,2,0,P|154:265|194:233,1,95.5,0|0,1:2|0:0,0:0:0:0:
92,170,49939,5,2,3:2:0:0:
36,281,50105,1,0,3:2:0:0:
187,218,50271,1,0,1:2:0:0:
3,9,50436,2,0,P|10:93|10:157,1,143.25,2|0,0:0|0:0,0:0:0:0:
11,152,50768,1,0,3:2:0:0:
159,116,50934,2,0,P|128:84|80:84,1,95.5,2|2,1:2|0:0,0:0:0:0:
187,218,51265,5,2,3:2:0:0:
267,130,51431,1,0,3:2:0:0:
92,171,51597,2,0,L|94:289,1,105.050003205872,0|0,1:2|0:0,0:0:0:0:
267,130,51928,1,0,0:0:0:0:
155,9,52094,1,2,0:0:0:0:
349,156,52260,1,2,1:2:0:0:
92,171,52425,5,2,1:2:0:0:
92,171,52757,1,2,1:2:0:0:
326,45,52923,1,2,1:2:0:0:
326,45,53917,6,0,P|321:125|321:220,1,171.899994754028,6|0,3:1|0:0,0:0:0:0:
371,273,54249,2,0,P|337:225|271:231,1,114.599996502686,2|0,3:2|0:0,0:0:0:0:
377,364,54580,1,2,3:2:0:0:
436,225,54746,1,0,0:0:0:0:
224,268,54912,2,0,L|227:384,1,114.599996502686,2|0,3:2|1:2,0:0:0:0:
263,183,55243,6,0,B|218:169|170:193|201:222|156:245|101:231,1,171.899994754028,2|0,3:1|0:0,0:0:0:0:
45,198,55575,2,0,B|18:144|18:144|42:88,1,114.599996502686,2|0,3:2|0:0,0:0:0:0:
113,310,55906,2,0,P|52:300|-1:305,1,114.599996502686,2|0,3:1|1:2,0:0:0:0:
121,143,56238,2,0,P|182:118|253:195,1,171.899994754028,2|0,3:2|1:2,0:0:0:0:
284,251,56569,6,0,P|361:264|412:184,1,171.899994754028,2|0,3:1|0:0,0:0:0:0:
391,125,56901,2,0,P|343:134|325:193,1,114.599996502686,0|0,3:2|0:0,0:0:0:0:
478,116,57232,1,0,3:2:0:0:
351,42,57398,1,0,0:0:0:0:
398,206,57564,2,0,P|453:200|518:201,1,114.599996502686,2|0,3:2|1:2,0:0:0:0:
377,124,57895,6,0,B|332:110|284:134|315:163|270:186|218:173,1,171.899994754028,2|0,3:1|0:0,0:0:0:0:
155,129,58227,1,0,3:2:0:0:
248,24,58392,1,0,1:2:0:0:
268,30,58475,1,0,1:2:0:0:
290,38,58558,1,0,3:2:0:0:
123,0,58724,1,0,1:2:0:0:
223,174,58890,1,2,3:2:0:0:
15,132,59055,1,4,0:3:0:0:
20,107,59138,1,4,0:3:0:0:
27,82,59221,6,0,P|101:62|155:129,1,171.899994754028,6|0,3:1|0:0,0:0:0:0:
143,212,59552,2,0,P|74:206|18:215,1,114.599996502686,0|0,3:2|0:0,0:0:0:0:
231,96,59884,2,0,P|293:114|312:164,1,114.599996502686,2|0,3:2|1:2,0:0:0:0:
243,291,60215,2,0,P|219:240|245:192,1,114.599996502686,2|0,3:2|0:0,0:0:0:0:
470,244,60547,6,0,P|393:249|286:240,1,171.899994754028,0|0,3:2|0:0,0:0:0:0:
244,192,60878,1,2,3:2:0:0:
314,361,61044,1,0,1:2:0:0:
314,361,61127,1,0,1:2:0:0:
314,361,61210,2,0,P|355:334|424:337,1,114.599996502686,2|0,3:2|0:0,0:0:0:0:
146,251,61541,2,0,P|186:290|253:290,1,114.599996502686,2|0,3:2|1:2,0:0:0:0:
395,139,61873,6,0,B|350:125|302:149|333:178|290:205|233:189,1,171.899994754028,6|0,3:1|0:0,0:0:0:0:
185,140,62204,1,0,3:2:0:0:
60,175,62370,1,0,1:2:0:0:
41,180,62453,1,0,1:2:0:0:
22,186,62536,2,0,L|29:310,1,114.599996502686,0|0,3:2|0:0,0:0:0:0:
185,140,62867,2,0,P|205:85|176:36,1,114.599996502686,0|0,3:2|1:2,0:0:0:0:
61,98,63199,5,2,3:1:0:0:
145,263,63365,1,0,1:2:0:0:
21,188,63530,1,0,3:2:0:0:
185,140,63696,1,8,0:3:0:0:
207,149,63779,1,8,0:3:0:0:
229,157,63862,5,8,0:3:0:0:
28,293,64028,1,8,0:3:0:0:
28,293,64111,1,8,0:3:0:0:
28,293,64193,1,4,0:3:0:0:
5,40,64359,1,4,0:3:0:0:
5,40,64442,1,4,0:3:0:0:
5,40,64525,6,0,B|50:17|98:42|72:64|116:88|167:63,1,171.899994754028,6|0,3:1|0:0,0:0:0:0:
225,23,64856,2,0,P|292:16|324:58,1,114.599996502686,2|0,3:2|0:0,0:0:0:0:
289,211,65188,2,0,P|249:156|266:108,1,114.599996502686,2|0,3:2|0:0,0:0:0:0:
421,56,65519,2,0,P|393:117|340:123,1,114.599996502686,2|0,3:2|1:2,0:0:0:0:
289,211,65851,6,0,P|368:200|468:203,1,171.899994754028,0|0,3:2|0:0,0:0:0:0:
512,260,66182,1,0,3:2:0:0:
422,357,66348,1,0,1:2:0:0:
402,368,66431,1,0,1:2:0:0:
381,379,66514,2,0,P|346:339|359:279,1,114.599996502686,2|0,3:2|1:2,0:0:0:0:
206,164,66845,2,0,P|274:174|288:222,1,114.599996502686,2|0,3:2|1:2,0:0:0:0:
143,353,67177,6,0,P|172:283|268:312,1,171.899994754028,6|0,3:1|0:0,0:0:0:0:
267,367,67508,2,0,P|204:359|146:362,1,114.599996502686,2|0,3:2|0:0,0:0:0:0:
98,207,67840,2,0,P|151:207|198:168,1,114.599996502686,2|0,3:2|0:0,0:0:0:0:
117,349,68171,2,0,P|82:311|20:316,1,114.599996502686,2|0,3:2|1:2,0:0:0:0:
0,148,68503,6,0,B|53:164|87:130|64:112|113:84|161:113,1,171.899994754028,6|0,3:1|0:0,0:0:0:0:
197,169,68834,1,0,3:2:0:0:
308,119,69000,1,0,1:2:0:0:
325,112,69083,1,0,1:2:0:0:
341,105,69166,2,0,P|361:49|335:0,1,114.599996502686,0|0,3:2|1:2,0:0:0:0:
269,39,69414,1,0,1:2:0:0:
250,22,69497,2,0,P|194:3|151:45,1,114.599996502686,2|4,3:2|0:3,0:0:0:0:
154,109,69746,1,4,0:3:0:0:
134,113,69829,6,0,L|139:294,1,171.899994754028,6|0,3:1|0:0,0:0:0:0:
190,341,70160,2,0,P|246:349|288:303,1,114.599996502686,2|0,3:2|0:0,0:0:0:0:
217,202,70492,1,2,3:2:0:0:
116,372,70657,1,0,0:0:0:0:
12,298,70823,2,0,P|60:265|120:292,1,114.599996502686,2|0,3:2|1:2,0:0:0:0:
217,202,71155,6,0,P|132:204|117:117,1,171.899994754028,6|0,3:1|0:0,0:0:0:0:
158,76,71486,2,0,P|222:80|250:135,1,114.599996502686,2|0,3:2|0:0,0:0:0:0:
357,120,71818,2,0,P|375:58|352:12,1,114.599996502686,2|0,3:1|1:2,0:0:0:0:
376,222,72149,2,0,P|436:215|498:217,1,114.599996502686,2|0,3:2|1:2,0:0:0:0:
256,129,72481,6,0,B|225:157|225:157|230:297,1,171.899994754028,6|0,3:1|0:0,0:0:0:0:
287,337,72812,1,2,3:2:0:0:
151,235,72978,1,2,0:0:0:0:
287,337,73144,1,0,3:2:0:0:
113,318,73309,1,0,0:0:0:0:
303,237,73475,1,0,3:2:0:0:
200,375,73641,1,0,1:2:0:0:
378,297,73807,5,2,3:1:0:0:
153,130,73972,1,8,0:3:0:0:
153,130,74055,1,8,0:3:0:0:
153,130,74138,1,8,0:3:0:0:
287,337,74304,1,4,0:3:0:0:
22,252,74470,2,0,P|62:226|134:239,1,114.599996502686,2|4,3:2|0:3,0:0:0:0:
186,275,74718,1,4,0:3:0:0:
205,291,74801,6,0,B|257:314|316:282|283:251|338:224|388:247,1,200.5499938797,8|0,0:3|0:0,0:0:0:0:
448,293,75133,6,0,P|392:237|447:155,1,186.224991475296,6|0,3:1|0:0,0:0:0:0:
488,85,75464,2,0,P|441:123|380:115,1,124.149994316864,2|0,1:2|0:0,0:0:0:0:
282,57,75796,1,2,3:2:0:0:
316,183,75961,1,0,3:2:0:0:
194,112,76127,2,0,P|170:63|191:-1,1,124.149994316864,2|0,1:2|0:0,0:0:0:0:
311,201,76459,6,0,P|221:201|124:203,1,186.224991475296,2|0,3:1|0:0,0:0:0:0:
101,207,76790,2,0,B|124:147|124:147|98:89,1,124.149994316864,2|0,1:2|0:0,0:0:0:0:
0,232,77122,1,2,3:1:0:0:
139,323,77287,1,0,3:2:0:0:
2,370,77453,2,0,P|42:305|144:329,1,186.224991475296,2|0,1:2|0:0,0:0:0:0:
209,357,77785,6,0,P|301:356|336:274,1,186.224991475296,2|0,3:1|0:0,0:0:0:0:
282,218,78116,2,0,P|226:223|198:292,1,124.149994316864,0|0,1:2|0:0,0:0:0:0:
380,218,78448,1,0,3:2:0:0:
270,130,78613,1,0,3:2:0:0:
380,218,78779,2,0,P|453:217|513:195,1,124.149994316864,2|0,1:2|0:0,0:0:0:0:
361,84,79111,5,2,3:1:0:0:
282,218,79276,1,0,0:0:0:0:
263,39,79442,1,0,1:2:0:0:
380,218,79608,1,0,3:2:0:0:
380,218,79691,1,0,3:2:0:0:
380,218,79773,1,0,3:2:0:0:
183,139,79939,1,0,3:2:0:0:
234,344,80105,2,0,P|319:337|428:338,1,186.224991475296,2|0,1:2|0:0,0:0:0:0:
489,374,80436,6,0,P|487:286|489:177,1,186.224991475296,6|0,3:1|0:0,0:0:0:0:
481,107,80768,2,0,P|442:74|370:91,1,124.149994316864,0|0,1:2|0:0,0:0:0:0:
297,202,81099,1,2,3:2:0:0:
249,64,81265,1,0,3:2:0:0:
111,178,81431,2,0,P|177:189|217:148,1,124.149994316864,2|0,1:2|0:0,0:0:0:0:
151,36,81762,6,0,P|50:26|17:98,1,186.224991475296,6|0,3:1|0:0,0:0:0:0:
8,168,82094,2,0,L|12:295,1,124.149994316864,2|0,1:2|0:0,0:0:0:0:
111,178,82425,1,2,3:1:0:0:
16,90,82591,1,0,3:2:0:0:
107,278,82757,2,0,P|163:288|215:249,1,124.149994316864,2|0,1:2|0:0,0:0:0:0:
245,104,83088,5,6,3:1:0:0:
109,53,83254,2,0,L|111:184,1,124.149994316864,0|0,3:2|0:0,0:0:0:0:
229,262,83586,1,0,1:2:0:0:
338,161,83751,2,0,P|285:113|230:130,1,124.149994316864,0|0,0:0|3:2,0:0:0:0:
334,298,84083,2,0,P|399:293|432:233,1,124.149994316864,0|0,1:2|0:0,0:0:0:0:
238,123,84414,5,2,3:2:0:0:
230,359,84580,1,0,3:2:0:0:
128,165,84746,1,0,1:2:0:0:
334,298,84912,1,0,0:0:0:0:
128,282,85077,1,2,3:2:0:0:
338,180,85243,1,0,1:2:0:0:
338,180,85326,1,2,1:2:0:0:
338,180,85409,1,0,1:2:0:0:
230,359,85575,1,2,1:2:0:0:
230,359,85657,1,0,1:2:0:0:
230,359,85740,6,0,P|141:355|43:360,1,186.224991475296,6|0,3:1|0:0,0:0:0:0:
44,359,86072,2,0,P|67:303|41:246,1,124.149994316864,2|0,1:2|0:0,0:0:0:0:
1,111,86403,1,2,3:2:0:0:
125,223,86569,1,0,3:2:0:0:
185,84,86735,2,0,P|111:89|89:138,1,124.149994316864,2|0,1:2|0:0,0:0:0:0:
212,227,87066,6,0,B|267:244|310:209|273:194|324:160|380:179,1,186.224991475296,2|0,3:1|0:0,0:0:0:0:
440,223,87398,2,0,B|463:166|463:166|436:108,1,124.149994316864,0|0,1:2|0:0,0:0:0:0:
344,260,87729,1,2,3:2:0:0:
482,348,87895,1,0,3:2:0:0:
278,366,88061,2,0,P|343:347|403:350,1,124.149994316864,2|0,1:2|0:0,0:0:0:0:
230,228,88392,6,0,P|201:303|96:288,1,186.224991475296,6|0,3:1|0:0,0:0:0:0:
47,247,88724,2,0,B|19:189|19:189|47:123,1,124.149994316864,2|0,1:2|0:0,0:0:0:0:
170,65,89055,1,2,3:1:0:0:
21,7,89221,1,0,3:2:0:0:
144,141,89387,2,0,P|207:144|249:93,1,124.149994316864,2|0,1:2|0:0,0:0:0:0:
83,65,89718,5,6,3:1:0:0:
47,247,89884,1,0,3:2:0:0:
170,65,90050,1,0,1:2:0:0:
8,155,90215,1,0,0:0:0:0:
240,109,90381,1,0,3:2:0:0:
21,7,90547,1,0,3:2:0:0:
21,7,90630,1,0,3:2:0:0:
21,7,90713,1,2,1:2:0:0:
47,247,90878,1,0,1:2:0:0:
47,247,90961,1,0,1:2:0:0:
47,247,91044,6,0,B|89:217|144:248|139:251|192:277|238:240,1,186.224991475296,6|0,3:1|0:0,0:0:0:0:
281,188,91376,2,0,P|253:244|286:298,1,124.149994316864,0|0,1:2|0:0,0:0:0:0:
364,158,91707,1,2,3:2:0:0:
240,66,91873,1,0,3:2:0:0:
350,239,92039,2,0,L|490:233,1,124.149994316864,0|0,1:2|0:0,0:0:0:0:
338,42,92370,5,6,0:3:0:0:
182,150,92536,1,0,3:2:0:0:
171,166,92619,1,0,3:2:0:0:
160,182,92702,1,0,1:2:0:0:
108,0,92867,1,0,1:2:0:0:
108,0,92950,1,0,1:2:0:0:
108,0,93033,1,0,1:2:0:0:
282,185,93199,1,8,0:3:0:0:
32,146,93365,1,2,3:2:0:0:
240,66,93530,1,2,0:0:0:0:
6,5,93696,6,0,P|10:88|13:177,1,157.575004808808,6|0,3:1|0:0,0:0:0:0:
11,188,94028,1,0,1:2:0:0:
82,291,94193,2,0,P|144:302|183:260,1,105.050003205872,2|0,0:0|3:2,0:0:0:0:
182,150,94525,2,0,P|120:139|81:181,1,105.050003205872,2|0,3:2|1:2,0:0:0:0:
259,281,94856,1,2,0:0:0:0:
273,59,95022,6,0,P|237:106|278:193,1,157.575004808808,2|0,3:1|0:0,0:0:0:0:
271,189,95354,2,0,P|227:157|172:168,1,105.050003205872,0|0,1:2|0:0,0:0:0:0:
322,123,95685,1,2,3:1:0:0:
199,5,95851,1,2,3:2:0:0:
322,123,96017,2,0,P|385:122|428:108,1,105.050003205872,2|2,1:2|0:0,0:0:0:0:
507,14,96348,6,0,P|501:104|502:184,1,157.575004808808,6|0,3:1|0:0,0:0:0:0:
506,193,96680,1,2,1:2:0:0:
413,286,96845,2,0,P|362:290|323:257,1,105.050003205872,2|2,0:0|3:1,0:0:0:0:
322,123,97177,2,0,P|378:129|416:177,1,105.050003205872,2|0,3:2|1:2,0:0:0:0:
413,286,97508,1,2,0:0:0:0:
265,190,97674,6,0,P|196:187|156:258,1,157.575004808808,2|0,3:1|0:0,0:0:0:0:
102,314,98006,2,0,P|40:322|6:287,1,105.050003205872,0|0,1:2|0:0,0:0:0:0:
74,187,98337,1,2,3:2:0:0:
181,343,98503,1,0,3:2:0:0:
196,120,98669,2,0,B|153:154|153:154|156:259,1,157.575004808808,2|0,1:2|0:0,0:0:0:0:
155,256,99000,6,0,B|199:234|249:255|230:278|279:309|328:278,1,171.899994754028,6|2,3:1|0:0,0:0:0:0:
385,214,99497,1,2,3:2:0:0:
357,354,99663,1,0,1:2:0:0:
298,204,99829,1,2,1:2:0:0:
427,296,99994,1,0,3:2:0:0:
467,153,100160,6,0,P|412:173|343:86,1,171.899994754028,6|0,1:2|3:2,0:0:0:0:
392,9,100657,1,0,3:2:0:0:
341,99,100823,1,0,0:0:0:0:
230,28,100989,2,0,L|319:25,1,85.9499973770142,2|0,1:2|0:0,0:0:0:0:
153,108,101320,2,0,B|190:95|230:113|210:132|247:151|286:132,1,128.924996065521,6|0,1:2|0:0,0:0:0:0:
271,137,101652,5,6,3:1:0:0:
142,17,101818,1,0,3:2:0:0:
142,17,102149,2,0,P|147:88|146:197,1,171.899994754028,0|2,1:2|3:2,0:0:0:0:
80,268,102646,1,2,0:0:0:0:
146,347,102812,6,0,P|170:300|248:315,1,128.924996065521,2|0,1:2|0:0,0:0:0:0:
251,315,103144,1,0,3:2:0:0:
341,265,103309,2,0,P|348:218|337:174,1,85.9499973770142,2|0,1:2|0:0,0:0:0:0:
416,322,103641,2,0,P|371:339|339:370,1,85.9499973770142,2|0,3:2|3:2,0:0:0:0:
432,226,103972,2,0,P|469:255|512:268,1,85.9499973770142,0|2,1:2|0:0,0:0:0:0:
339,180,104304,6,0,B|296:162|254:183|281:209|232:229|192:213,1,152.8,6|2,3:1|0:0,0:0:0:0:
125,163,104801,1,2,3:2:0:0:
57,225,104967,2,0,P|19:202|12:168,1,76.4,0|0,1:2|0:0,0:0:0:0:
33,83,105298,1,2,0:0:0:0:
122,10,105464,6,0,P|121:101|125:177,1,152.8,2|0,0:0|0:0,0:0:0:0:
195,219,105961,1,2,3:2:0:0:
124,278,106127,1,2,0:0:0:0:
196,334,106293,2,0,P|245:335|266:308,1,76.4,0|0,1:2|3:2,0:0:0:0:
274,226,106624,2,0,P|225:225|204:252,1,76.4,2|0,0:0|0:0,0:0:0:0:
130,293,106956,5,2,3:2:0:0:
130,293,107122,2,0,P|81:304|30:223,1,152.8,0|2,3:2|3:2,0:0:0:0:
85,156,107619,2,0,P|132:148|159:173,1,76.4,0|2,1:2|3:2,0:0:0:0:
222,224,107950,1,2,0:0:0:0:
309,194,108116,6,0,B|338:169|338:169|334:45,1,152.8,2|2,1:2|0:0,0:0:0:0:
251,14,108613,2,0,P|214:39|248:106,1,114.6,2|0,3:2|0:0,0:0:0:0:
230,98,108945,2,0,P|187:78|160:92,1,76.4,0|2,1:2|1:2,0:0:0:0:
90,143,109276,2,0,L|95:195,3,38.2,0|0|0|0,3:2|3:0|1:2|1:0,0:0:0:0:
99,269,109608,5,2,3:2:0:0:
5,202,109773,2,0,P|71:197|168:200,1,152.8,2|2,0:0|3:2,0:0:0:0:
249,192,110271,2,0,P|261:144|248:115,1,76.4,0|2,1:2|3:2,0:0:0:0:
157,199,110602,1,0,0:0:0:0:
209,274,110768,6,0,B|247:258|291:279|266:296|303:324|348:306,2,152.8,2|0|2,1:2|0:0|0:0,0:0:0:0:
154,348,111597,1,0,1:2:0:0:
90,282,111762,1,0,1:2:0:0:
0,359,111928,2,0,P|60:360|98:354,1,76.4,2|2,3:2|0:0,0:0:0:0:
152,226,112260,5,10,3:2:0:0:
72,181,112425,1,8,3:2:0:0:
50,195,112508,1,8,0:0:0:0:
31,207,112591,1,8,0:0:0:0:
151,137,112757,1,10,3:2:0:0:
18,38,112923,2,0,P|7:83|23:114,1,76.4,8|8,1:2|0:0,0:0:0:0:
31,121,113171,1,8,0:0:0:0:
31,121,113254,1,10,0:0:0:0:
99,5,113420,1,8,1:2:0:0:
235,59,113586,6,0,L|144:61,1,76.4,8|10,0:0|3:2,0:0:0:0:
142,150,113917,2,0,L|218:148,1,76.4,8|8,3:2|0:0,0:0:0:0:
304,115,114249,1,2,1:2:0:0:
284,204,114414,1,8,0:3:0:0:
372,179,114580,1,4,3:0:0:0:
218,148,114746,1,2,3:2:0:0:
277,293,114912,6,0,P|337:288|452:293,2,171.899994754028,2|2|2,3:1|0:0|0:0,0:0:0:0:
142,322,116238,2,0,P|82:317|54:217,2,171.899994754028,2|0|2,0:0|0:0|0:0,0:0:0:0:
199,268,117398,1,0,3:2:0:0:
199,268,117564,6,0,B|228:242|228:242|224:156,1,114.599996502686,2|0,3:1|0:0,0:0:0:0:
172,111,118061,2,0,B|145:97|115:116|126:131|101:150|68:143,1,114.599996502686,2|0,0:0|0:0,0:0:0:0:
12,93,118558,1,2,0:0:0:0:
12,93,118724,1,2,0:0:0:0:
12,93,119387,1,8,0:0:0:0:
12,93,119470,1,8,0:0:0:0:
12,93,119552,5,8,0:0:0:0:
77,41,119718,1,10,0:0:0:0:
15,178,119884,2,0,P|14:128|11:80,1,85.9499973770142,10|0,0:0|0:0,0:0:0:0:
11,79,120215,6,0,P|35:53|75:57,1,57.2999982513428,2|0,3:1|0:0,0:0:0:0:
134,17,120547,2,0,P|168:24|185:61,1,57.2999982513428,0|2,0:0|0:0,0:0:0:0:
233,106,120878,2,0,P|288:102|369:105,1,114.599996502686,0|2,0:0|0:0,0:0:0:0:
392,171,121376,1,0,3:2:0:0:
473,140,121541,6,0,P|508:101|462:1,2,171.899994754028,2|2|2,3:1|0:0|0:0,0:0:0:0:
392,171,122702,1,0,3:2:0:0:
381,258,122867,6,0,P|453:248|502:248,1,114.599996502686,2|0,3:1|0:0,0:0:0:0:
501,324,123365,2,0,P|443:324|387:334,1,114.599996502686,2|0,0:0|0:0,0:0:0:0:
317,369,123862,1,2,0:0:0:0:
248,326,124028,6,0,P|219:283|254:228,1,114.599996502686
300,175,124525,1,2,0:0:0:0:
239,127,124691,1,0,0:0:0:0:
300,175,124856,2,0,L|358:171,1,57.2999982513428,2|0,0:0|1:2,0:0:0:0:
368,90,125188,2,0,L|310:94,1,57.2999982513428,2|4,3:2|0:3,0:0:0:0:
239,127,125519,6,0,P|226:76|138:95,1,152.8,6|2,3:2|0:0,0:0:0:0:
90,162,126017,1,2,3:2:0:0:
10,51,126182,2,0,P|13:104|16:215,1,152.8,0|0,1:2|0:0,0:0:0:0:
6,295,126680,1,2,3:2:0:0:
141,282,126845,6,0,P|103:251|63:262,1,76.4,2|0,0:0|3:2,0:0:0:0:
78,361,127177,2,0,P|131:357|168:360,1,76.4,2|2,3:2|0:0,0:0:0:0:
174,364,127425,1,2,0:0:0:0:
174,364,127508,2,0,P|214:337|215:300,1,76.4,2|0,1:2|0:0,0:0:0:0:
131,199,127840,2,0,P|116:236|134:274,1,76.4,2|0,1:2|1:2,0:0:0:0:
141,282,128088,1,0,1:2:0:0:
141,282,128171,5,2,3:2:0:0:
202,227,128337,1,0,1:2:0:0:
45,256,128503,1,0,3:2:0:0:
161,126,128669,1,2,3:2:0:0:
141,282,128834,2,0,P|79:279|52:280,1,76.4,0|0,1:2|3:2,0:0:0:0:
10,178,129166,1,0,0:0:0:0:
50,95,129332,6,0,B|83:82|113:93|102:116|137:131|168:113,1,114.6,6|0,3:2|0:0,0:0:0:0:
171,108,129663,1,0,3:2:0:0:
213,3,129829,2,0,P|163:6|146:33,1,76.4,2|0,3:2|0:0,0:0:0:0:
256,136,130160,1,2,1:2:0:0:
309,37,130326,1,2,1:2:0:0:
309,37,130409,1,0,1:2:0:0:
309,37,130492,1,4,0:3:0:0:
171,108,130657,1,4,0:3:0:0:
171,108,130740,1,4,0:3:0:0:
171,108,130823,6,0,L|174:213,1,95.5,2|0,3:2|3:2,0:0:0:0:
274,147,131155,1,2,1:2:0:0:
93,68,131320,2,0,L|99:223,1,143.25,2|0,0:0|0:0,0:0:0:0:
92,231,131652,1,0,3:2:0:0:
156,326,131818,2,0,P|185:288|239:292,1,95.5,0|2,1:2|0:0,0:0:0:0:
315,363,132149,5,2,3:2:0:0:
378,242,132315,1,0,3:2:0:0:
234,304,132481,1,0,1:2:0:0:
404,341,132646,6,0,P|461:341|494:248,1,143.25,2|0,0:0|0:0,0:0:0:0:
498,251,132978,1,0,3:2:0:0:
377,154,133144,2,0,P|361:201|386:249,1,95.5,2|2,1:2|0:0,0:0:0:0:
454,102,133475,5,2,3:2:0:0:
321,33,133641,1,0,3:2:0:0:
377,241,133807,2,0,L|490:239,1,105.050003205872,0|0,1:2|0:0,0:0:0:0:
413,24,134138,1,0,0:0:0:0:
277,206,134304,1,2,0:0:0:0:
199,0,134470,5,2,1:2:0:0:
370,149,134635,1,2,1:2:0:0:
123,163,134967,5,2,1:2:0:0:
321,33,135133,1,2,1:2:0:0:
321,33,136127,6,0,L|320:220,1,171.899994754028,6|0,3:1|0:0,0:0:0:0:
343,275,136459,2,0,P|405:286|433:233,1,114.599996502686,2|0,3:2|0:0,0:0:0:0:
234,222,136790,1,2,3:2:0:0:
310,369,136956,1,0,0:0:0:0:
121,324,137122,2,0,L|246:319,1,114.599996502686,2|0,3:2|1:2,0:0:0:0:
172,171,137453,6,0,B|124:154|81:190|106:204|70:246|11:226,1,171.899994754028,2|0,3:1|0:0,0:0:0:0:
23,229,137785,2,0,P|43:167|13:123,1,114.599996502686,2|0,3:2|0:0,0:0:0:0:
174,17,138116,2,0,P|119:37|115:98,1,114.599996502686,2|0,3:1|1:2,0:0:0:0:
293,198,138448,2,0,P|250:138|168:179,1,171.899994754028,2|0,3:2|1:2,0:0:0:0:
171,170,138779,6,0,B|219:187|262:151|237:137|273:95|332:115,1,171.899994754028,2|0,3:1|0:0,0:0:0:0:
392,147,139111,2,0,B|412:204|412:204|391:267,1,114.599996502686,0|0,3:2|0:0,0:0:0:0:
306,361,139442,1,0,3:2:0:0:
207,264,139608,1,0,0:0:0:0:
306,361,139773,2,0,P|374:357|428:359,1,114.599996502686,2|0,3:2|1:2,0:0:0:0:
294,215,140105,6,0,P|268:277|158:256,1,171.899994754028,2|0,3:1|0:0,0:0:0:0:
120,222,140436,1,0,3:2:0:0:
232,108,140602,1,0,1:2:0:0:
224,137,140685,1,0,1:2:0:0:
216,165,140768,1,0,3:2:0:0:
83,46,140934,1,0,1:2:0:0:
307,135,141099,1,2,3:2:0:0:
32,224,141265,1,4,0:3:0:0:
21,195,141348,1,4,0:3:0:0:
8,167,141431,6,0,B|75:163|75:163|119:184|119:184|195:175,1,171.899994754028,6|0,3:1|0:0,0:0:0:0:
232,108,141762,2,0,P|185:75|138:106,1,114.599996502686,0|0,3:2|0:0,0:0:0:0:
329,146,142094,2,0,P|351:86|321:35,1,114.599996502686,2|0,3:2|1:2,0:0:0:0:
267,244,142425,2,0,P|352:238|387:239,1,114.599996502686,2|0,3:2|0:0,0:0:0:0:
503,304,142757,6,0,B|455:287|412:323|437:337|401:379|342:359,1,171.899994754028,0|0,3:2|0:0,0:0:0:0:
282,329,143088,1,2,3:2:0:0:
183,221,143254,1,0,1:2:0:0:
164,205,143337,1,0,1:2:0:0:
143,190,143420,2,0,P|72:196|52:241,1,114.599996502686,2|0,3:1|1:2,0:0:0:0:
121,367,143751,2,0,P|144:312|116:264,1,114.599996502686,2|0,3:2|1:2,0:0:0:0:
7,347,144083,6,0,P|88:344|207:349,1,171.899994754028,6|0,3:1|0:0,0:0:0:0:
259,367,144414,1,0,3:2:0:0:
323,245,144580,1,0,1:2:0:0:
323,245,144663,1,0,1:2:0:0:
323,245,144746,2,0,P|261:245|235:291,1,114.599996502686,0|0,3:2|0:0,0:0:0:0:
418,292,145077,2,0,P|436:230|414:184,1,114.599996502686,0|0,3:2|1:2,0:0:0:0:
288,132,145409,5,2,3:1:0:0:
418,292,145575,1,0,0:0:0:0:
203,166,145740,1,0,3:2:0:0:
416,186,145906,1,8,0:3:0:0:
147,248,146072,1,8,0:3:0:0:
322,40,146238,1,8,0:3:0:0:
322,40,146320,1,8,0:3:0:0:
322,40,146403,1,4,0:3:0:0:
323,245,146569,1,4,0:3:0:0:
323,245,146652,1,4,0:3:0:0:
323,245,146735,6,0,P|253:242|135:248,1,171.899994754028,6|0,3:1|0:0,0:0:0:0:
79,270,147066,2,0,P|47:222|74:163,1,114.599996502686,2|0,3:2|0:0,0:0:0:0:
225,96,147398,2,0,P|199:147|134:153,1,114.599996502686,2|0,3:2|0:0,0:0:0:0:
0,59,147729,2,0,P|57:55|95:108,1,114.599996502686,2|0,3:2|1:2,0:0:0:0:
1,315,148061,6,0,L|-2:126,1,171.899994754028,0|0,3:2|0:0,0:0:0:0:
0,59,148392,1,0,3:2:0:0:
147,158,148558,1,0,1:2:0:0:
147,158,148641,1,0,1:2:0:0:
147,158,148724,2,0,P|214:166|253:132,1,114.599996502686,2|0,3:2|1:2,0:0:0:0:
295,9,149055,2,0,P|228:1|189:35,1,114.599996502686,2|0,3:2|1:2,0:0:0:0:
432,137,149387,6,0,P|415:88|304:105,1,171.899994754028,6|0,3:1|0:0,0:0:0:0:
248,139,149718,2,0,L|252:262,1,114.599996502686,2|0,3:2|0:0,0:0:0:0:
373,319,150050,2,0,L|369:196,1,114.599996502686,2|0,3:2|0:0,0:0:0:0:
188,324,150381,2,0,P|243:361|299:343,1,114.599996502686,2|0,3:2|1:2,0:0:0:0:
231,224,150713,6,0,B|189:203|142:230|172:254|118:292|73:267,1,171.899994754028,6|0,3:1|0:0,0:0:0:0:
29,211,151044,1,0,3:2:0:0:
85,85,151210,1,0,1:2:0:0:
96,64,151293,1,0,1:2:0:0:
107,43,151376,2,0,P|169:42|192:97,1,114.599996502686,0|0,3:2|1:2,0:0:0:0:
259,113,151624,1,0,1:2:0:0:
274,130,151707,2,0,P|338:131|369:82,1,114.599996502686,2|4,3:2|0:3,0:0:0:0:
423,34,151956,1,4,0:3:0:0:
437,21,152039,6,0,P|434:131|439:213,1,171.899994754028,6|0,3:1|0:0,0:0:0:0:
488,268,152370,2,0,P|450:218|394:218,1,114.599996502686,2|0,3:2|0:0,0:0:0:0:
304,322,152702,2,0,P|377:317|430:321,1,114.599996502686,2|0,3:2|0:0,0:0:0:0:
266,208,153033,1,2,3:2:0:0:
216,368,153199,1,2,1:2:0:0:
89,312,153365,6,0,P|123:260|224:294,1,171.899994754028,6|0,3:1|0:0,0:0:0:0:
217,282,153696,2,0,P|238:216|210:166,1,114.599996502686,2|0,3:2|0:0,0:0:0:0:
50,115,154028,2,0,P|97:165|154:166,1,114.599996502686,2|0,3:1|1:2,0:0:0:0:
282,47,154359,2,0,P|214:62|185:111,1,114.599996502686,2|0,3:2|1:2,0:0:0:0:
302,177,154691,6,0,B|348:195|394:157|366:138|417:111|474:132,1,171.899994754028,6|0,3:1|0:0,0:0:0:0:
501,189,155022,1,2,3:2:0:0:
397,55,155188,1,2,0:0:0:0:
448,257,155354,1,0,3:2:0:0:
486,55,155519,1,0,0:0:0:0:
302,177,155685,1,0,3:2:0:0:
501,189,155851,1,0,3:2:0:0:
282,47,156017,5,2,3:1:0:0:
394,320,156182,1,8,0:3:0:0:
394,320,156265,1,8,0:3:0:0:
394,320,156348,1,8,0:3:0:0:
397,55,156514,1,4,0:3:0:0:
189,152,156680,2,0,L|190:281,1,114.599996502686,2|4,3:2|0:3,0:0:0:0:
130,329,156928,1,4,0:3:0:0:
107,314,157011,6,0,B|158:287|218:318|191:341|247:376|305:338,1,200.5499938797,8|0,0:3|0:0,0:0:0:0:
339,279,157343,6,0,P|421:250|487:318,1,186.224991475296,6|0,3:1|0:0,0:0:0:0:
485,312,157674,2,0,P|506:251|476:188,1,124.149994316864,2|0,1:2|0:0,0:0:0:0:
347,146,158006,1,2,3:2:0:0:
400,345,158171,1,0,3:2:0:0:
221,257,158337,2,0,P|274:235|333:269,1,124.149994316864,2|0,1:2|0:0,0:0:0:0:
139,383,158669,6,0,P|93:307|136:212,1,186.224991475296,2|0,3:1|0:0,0:0:0:0:
166,157,159000,2,0,P|185:95|160:40,1,124.149994316864,2|0,1:2|0:0,0:0:0:0:
27,108,159332,1,2,3:1:0:0:
124,221,159497,1,0,3:2:0:0:
0,294,159663,2,0,P|20:229|136:233,1,186.224991475296,2|0,1:2|0:0,0:0:0:0:
193,281,159994,6,0,P|272:302|334:220,1,186.224991475296,2|0,3:1|0:0,0:0:0:0:
300,154,160326,2,0,P|238:136|183:182,1,124.149994316864,0|0,1:2|0:0,0:0:0:0:
333,230,160657,1,0,3:2:0:0:
384,95,160823,1,0,3:2:0:0:
191,166,160989,2,0,L|193:290,1,124.149994316864,2|0,1:2|0:0,0:0:0:0:
388,317,161320,5,2,3:1:0:0:
193,290,161486,1,0,0:0:0:0:
401,187,161652,1,0,1:2:0:0:
247,362,161818,1,0,3:2:0:0:
247,362,161901,1,0,3:2:0:0:
247,362,161983,1,0,3:2:0:0:
225,82,162149,1,0,3:2:0:0:
9,275,162315,2,0,P|105:268|197:271,1,186.224991475296,2|0,1:2|0:0,0:0:0:0:
268,282,162646,6,0,P|192:271|188:166,1,186.224991475296,6|0,3:1|0:0,0:0:0:0:
231,108,162978,2,0,P|180:154|121:143,1,124.149994316864,0|0,1:2|0:0,0:0:0:0:
153,11,163309,1,2,3:2:0:0:
287,188,163475,1,0,3:2:0:0:
390,54,163641,2,0,P|328:23|276:53,1,124.149994316864,2|0,1:2|0:0,0:0:0:0:
376,281,163972,6,0,P|422:219|368:137,1,186.224991475296,6|0,3:1|0:0,0:0:0:0:
370,138,164304,2,0,P|428:139|472:84,1,124.149994316864,2|0,1:2|0:0,0:0:0:0:
269,43,164635,1,2,3:1:0:0:
287,188,164801,1,0,3:2:0:0:
95,184,164967,2,0,P|147:105|238:131,1,186.224991475296,2|0,1:2|0:0,0:0:0:0:
287,188,165298,5,6,3:1:0:0:
199,296,165464,2,0,P|167:238|200:188,1,124.149994316864,0|0,3:2|0:0,0:0:0:0:
311,276,165796,1,0,1:2:0:0:
165,369,165961,2,0,P|100:368|62:322,1,124.149994316864,0|0,0:0|3:2,0:0:0:0:
315,256,166293,2,0,P|380:257|418:303,1,124.149994316864,0|0,1:2|0:0,0:0:0:0:
291,379,166624,5,2,3:2:0:0:
187,196,166790,1,0,3:2:0:0:
416,298,166956,1,0,1:2:0:0:
199,296,167122,1,0,0:0:0:0:
405,164,167287,1,2,3:2:0:0:
291,379,167453,1,0,1:2:0:0:
291,379,167536,1,2,1:2:0:0:
291,379,167619,1,0,1:2:0:0:
123,141,167785,1,2,1:2:0:0:
134,122,167867,1,0,1:2:0:0:
145,104,167950,6,0,B|193:82|246:110|220:140|267:165|322:141,1,186.224991475296,6|0,3:1|0:0,0:0:0:0:
349,74,168282,2,0,P|310:26|245:43,1,124.149994316864,2|0,1:2|0:0,0:0:0:0:
392,175,168613,1,2,3:2:0:0:
478,67,168779,1,0,3:2:0:0:
310,143,168945,2,0,P|289:203|322:258,1,124.149994316864,2|0,1:2|0:0,0:0:0:0:
398,350,169276,6,0,P|360:289|254:331,1,186.224991475296,2|0,3:1|0:0,0:0:0:0:
198,365,169608,2,0,P|133:374|84:327,1,124.149994316864,0|0,1:2|0:0,0:0:0:0:
159,219,169939,1,2,3:2:0:0:
263,314,170105,1,0,3:2:0:0:
71,260,170271,1,2,1:2:0:0:
248,175,170436,1,2,0:0:0:0:
18,371,170602,6,0,L|15:176,1,186.224991475296,6|0,3:1|0:0,0:0:0:0:
24,107,170934,2,0,P|66:72|136:89,1,124.149994316864,2|0,1:2|0:0,0:0:0:0:
248,175,171265,1,2,3:1:0:0:
322,60,171431,1,0,3:2:0:0:
163,162,171597,2,0,B|143:224|143:224|171:288,1,124.149994316864,2|0,1:2|0:0,0:0:0:0:
276,365,171928,6,0,B|325:383|369:354|342:331|389:306|444:330,1,186.224991475296,6|0,3:1|0:0,0:0:0:0:
512,369,172260,1,0,1:2:0:0:
391,187,172425,1,0,0:0:0:0:
512,369,172591,1,0,3:2:0:0:
314,249,172757,1,0,3:2:0:0:
314,249,172840,1,0,3:2:0:0:
314,249,172923,1,2,1:2:0:0:
485,76,173088,1,0,1:2:0:0:
485,76,173171,1,0,1:2:0:0:
485,76,173254,5,6,3:1:0:0:
428,291,173420,1,0,3:2:0:0:
219,193,173586,2,0,P|263:152|326:162,1,124.149994316864,0|0,1:2|0:0,0:0:0:0:
428,291,173917,5,2,3:2:0:0:
317,76,174083,1,0,3:2:0:0:
150,254,174249,2,0,P|73:256|46:218,1,124.149994316864,0|0,1:2|0:0,0:0:0:0:
196,95,174580,5,6,0:3:0:0:
299,297,174746,1,0,3:2:0:0:
299,297,174829,1,0,3:2:0:0:
299,297,174912,1,0,1:2:0:0:
87,153,175077,1,0,1:2:0:0:
87,153,175160,1,0,1:2:0:0:
87,153,175243,6,0,B|131:131|181:158|160:187|216:214|271:185,1,186.224991475296,0|0,1:2|0:0,0:0:0:0:
315,128,175575,6,0,L|301:52,1,71.625002732277,2|2,1:2|1:2,0:0:0:0:
390,192,175740,2,0,L|378:275,1,71.625002732277,2|2,1:2|1:2,0:0:0:0:
448,105,175906,5,6,3:1:0:0:
258,192,176072,1,2,0:0:0:0:
483,192,176238,1,2,1:2:0:0:
289,46,176403,1,2,0:0:0:0:
383,282,176569,1,2,3:2:0:0:
397,24,176735,1,2,3:2:0:0:
171,215,176901,1,2,1:2:0:0:
390,192,177066,6,0,P|356:138|248:174,1,171.899994754028,2|0,3:2|0:0,0:0:0:0:
250,171,177398,1,2,3:2:0:0:
129,105,177564,2,0,P|110:52|128:-1,1,114.599996502686,2|2,1:2|0:0,0:0:0:0:
171,215,177895,1,2,3:2:0:0:
52,153,178061,1,2,3:2:0:0:
250,171,178227,1,2,1:2:0:0:
106,296,178392,1,2,0:0:0:0:
0,63,178558,6,0,P|64:39|131:112,1,171.899994754028,6|0,3:1|0:0,0:0:0:0:
134,122,178890,2,0,P|172:82|246:89,1,114.599996502686,0|0,1:2|0:0,0:0:0:0:
338,163,179221,1,0,3:2:0:0:
412,47,179387,1,2,3:2:0:0:
250,171,179552,1,2,1:2:0:0:
402,351,179718,6,0,P|442:293|386:200,1,171.899994754028,6|0,3:1|0:0,0:0:0:0:
338,163,180050,1,0,3:2:0:0:
227,289,180215,2,0,P|292:297|330:255,1,114.599996502686,0|2,1:2|0:0,0:0:0:0:
164,179,180547,1,2,3:2:0:0:
139,373,180713,1,2,3:2:0:0:
259,199,180878,1,2,1:2:0:0:
58,31,181044,1,2,1:2:0:0:
58,31,181127,1,0,1:2:0:0:
58,31,181210,6,0,P|60:127|61:215,1,171.899994754028,6|0,3:1|0:0,0:0:0:0:
111,258,181541,2,0,P|55:258|23:303,1,114.599996502686,0|0,1:2|0:0,0:0:0:0:
214,304,181873,1,0,3:2:0:0:
145,160,182039,1,2,3:2:0:0:
341,285,182204,1,2,1:2:0:0:
111,258,182370,1,2,0:0:0:0:
342,160,182536,5,6,3:1:0:0:
163,369,182702,1,2,0:0:0:0:
163,369,182785,1,2,0:0:0:0:
163,369,182867,1,2,1:2:0:0:
118,65,183033,2,0,P|160:28|215:34,1,114.599996502686,2|0,0:0|3:2,0:0:0:0:
426,157,183365,1,2,3:2:0:0:
426,157,183448,1,2,0:0:0:0:
426,157,183530,6,0,B|375:142|331:171|368:191|322:228|259:205,1,171.899994754028,2|0,1:2|0:0,0:0:0:0:
219,144,183862,1,6,3:1:0:0:
132,287,184028,2,0,L|262:282,1,114.599996502686,0|0,3:2|0:0,0:0:0:0:
138,125,184359,2,0,P|74:125|51:175,1,114.599996502686,2|0,1:2|0:0,0:0:0:0:
132,287,184690,1,2,3:2:0:0:
294,87,184856,2,0,P|245:25|157:78,1,171.899994754028,0|0,1:2|0:0,0:0:0:0:
138,125,185188,5,2,3:1:0:0:
57,11,185354,1,2,3:2:0:0:
263,161,185519,1,2,1:2:0:0:
14,189,185685,2,0,P|60:117|151:136,1,171.899994754028,2|0,3:2|0:0,0:0:0:0:
188,193,186017,1,2,1:2:0:0:
139,363,186182,1,8,0:3:0:0:
123,346,186265,1,0,0:0:0:0:
117,324,186348,1,4,0:3:0:0:
120,301,186431,1,0,0:0:0:0:
132,282,186514,6,0,B|174:266|210:286|192:315|239:332|288:312,1,152.8,6|0,3:1|0:0,0:0:0:0:
357,285,187011,1,0,3:2:0:0:
375,194,187177,2,0,P|314:195|288:225,2,101.866666666667,2|8|4,1:2|3:0|3:0,0:0:0:0:
466,203,187840,6,0,P|494:157|460:65,1,152.8,2|0,3:1|0:0,0:0:0:0:
385,21,188337,1,0,3:2:0:0:
311,73,188503,2,0,P|261:82|226:55,1,76.4,0|2,1:2|3:2,0:0:0:0:
164,18,188834,2,0,P|110:17|85:48,1,76.4,2|2,1:2|0:0,0:0:0:0:
42,105,189166,6,0,P|49:173|52:226,2,114.6,2|2|2,1:2|0:0|3:2,0:0:0:0:
130,129,189829,2,0,P|154:115|180:116,2,50.9333333333333,0|0|8,1:2|1:2|0:3,0:0:0:0:
239,71,190160,2,0,P|262:85|275:109,2,50.9333333333333,8|4|4,3:3|0:3|0:3,0:0:0:0:
310,183,190492,6,0,P|366:179|463:181,1,143.25,6|0,3:1|0:0,0:0:0:0:
469,185,190823,1,0,3:2:0:0:
344,89,190989,2,0,P|304:108|287:111,1,47.75,2|2,3:2|0:0,0:0:0:0:
208,186,191155,6,0,P|277:187|299:263,1,143.25,2|0,1:2|0:0,0:0:0:0:
297,267,191486,1,0,3:2:0:0:
121,312,191652,1,0,1:2:0:0:
108,294,191735,1,0,1:2:0:0:
94,277,191818,5,6,3:1:0:0:
195,367,191983,1,0,0:0:0:0:
19,199,192149,1,0,1:2:0:0:
214,264,192315,1,0,0:0:0:0:
2,378,192481,2,0,L|-1:270,1,95.5,2|0,3:2|1:2,0:0:0:0:
118,216,192812,2,0,L|121:317,1,95.5,8|4,0:3|0:3,0:0:0:0:
59,118,193144,6,0,B|121:151|176:105|155:82|212:52|274:84,1,229.199993005371,2|0,0:1|0:0,0:0:0:0:
269,81,194138,1,2,0:0:0:0:
389,134,194304,6,0,B|353:145|309:117|309:117|308:128|308:128|257:101|200:113|171:169|171:169|214:213|255:184,1,343.8,2|2,0:0|0:0,0:0:0:0:
249,188,206403,6,0,P|165:202|136:137,1,152.8,6|2,3:2|0:0,0:0:0:0:
186,75,206901,1,0,3:2:0:0:
269,110,207066,2,0,L|265:269,1,152.8,2|2,1:2|0:0,0:0:0:0:
198,326,207564,1,0,0:0:0:0:
278,368,207729,6,0,P|325:363|338:333,1,76.4
268,279,208061,2,0,B|227:258|190:280|215:300|169:326|122:304,2,152.8,0|2|2,3:2|1:2|0:0,0:0:0:0:
268,279,209055,6,0,P|291:224|377:258,1,152.8,2|2,3:2|0:0,0:0:0:0:
422,315,209552,1,0,3:2:0:0:
478,243,209718,2,0,B|501:208|501:208|497:97,1,152.8,2|2,1:2|0:0,0:0:0:0:
428,36,210215,1,0,0:0:0:0:
343,72,210381,6,0,P|306:89|269:80,1,76.4
200,23,210713,1,0,3:2:0:0:
206,162,210878,1,2,0:0:0:0:
206,162,210961,1,2,0:0:0:0:
206,162,211044,2,0,P|265:157|295:157,1,76.4,2|0,1:2|1:2,0:0:0:0:
147,82,211376,2,0,P|94:68|54:116,1,114.6,4|0,0:3|0:0,0:0:0:0:
34,177,211707,6,0,P|121:171|117:206,1,152.8,6|2,3:1|0:0,0:0:0:0:
49,358,213033,6,0,P|97:357|30:290,1,229.199993005371,6|2,3:1|0:0,0:0:0:0:
29,290,214359,6,0,B|73:309|112:278|87:260|130:236|178:257,1,157.575004808808,6|0,3:1|0:0,0:0:0:0:
227,309,214691,5,2,1:2:0:0:
247,170,214856,1,2,1:2:0:0:
309,271,215022,1,0,1:2:0:0:
159,174,215188,1,0,1:2:0:0:
337,190,215354,1,0,1:2:0:0:
150,333,215519,1,0,1:2:0:0:
402,256,215685,5,2,1:2:0:0:
159,174,215851,1,0,1:2:0:0:
285,368,216017,1,2,1:2:0:0:
273,83,216182,1,0,1:2:0:0:
73,226,216348,1,2,1:2:0:0:
337,190,216514,1,0,1:2:0:0:
135,3,216680,5,8,0:3:0:0:
136,33,216762,1,4,0:3:0:0:
138,65,216845,1,2,3:2:0:0:
140,96,216928,1,0,3:2:0:0:
143,130,217011,6,0,P|171:67|277:90,1,186.224991475296,6|0,3:1|0:0,0:0:0:0:
339,123,217343,2,0,P|398:133|445:84,1,124.149994316864,2|0,1:2|0:0,0:0:0:0:
326,10,217674,1,2,3:2:0:0:
232,160,217840,1,0,3:2:0:0:
417,255,218006,2,0,P|379:217|312:221,1,124.149994316864,2|0,1:2|0:0,0:0:0:0:
155,131,218337,6,0,P|214:185|169:283,1,186.224991475296,2|0,3:1|0:0,0:0:0:0:
137,336,218669,2,0,P|189:281|243:301,1,124.149994316864,2|0,1:2|0:0,0:0:0:0:
336,381,219000,1,2,3:1:0:0:
315,177,219166,1,0,3:2:0:0:
137,336,219332,2,0,P|50:343|20:237,1,186.224991475296,2|0,1:2|0:0,0:0:0:0:
36,190,219663,6,0,P|106:171|173:257,1,186.224991475296,2|0,3:1|0:0,0:0:0:0:
174,250,219994,2,0,P|149:192|178:139,1,124.149994316864,0|0,1:2|0:0,0:0:0:0:
237,200,220326,1,0,3:2:0:0:
109,100,220492,1,0,3:2:0:0:
249,280,220657,2,0,L|376:277,1,124.149994316864,2|0,1:2|0:0,0:0:0:0:
392,132,220989,6,0,B|351:113|298:137|328:172|280:201|215:172,1,186.224991475296,2|0,3:1|0:0,0:0:0:0:
226,177,221320,1,0,1:2:0:0:
265,34,221486,1,0,3:2:0:0:
275,18,221569,1,0,3:2:0:0:
286,3,221652,2,0,P|356:5|380:56,1,124.149994316864,0|0,3:2|3:2,0:0:0:0:
332,246,221983,1,2,1:2:0:0:
186,77,222149,1,0,0:0:0:0:
58,223,222315,6,0,P|149:255|204:186,1,186.224991475296,6|0,3:1|0:0,0:0:0:0:
202,196,222646,2,0,P|180:260|207:311,1,124.149994316864,0|0,1:2|0:0,0:0:0:0:
276,144,222978,1,2,3:2:0:0:
170,55,223144,1,0,3:2:0:0:
269,249,223309,6,0,B|308:267|361:243|332:209|380:179|444:209,1,186.224991475296,2|0,1:2|0:0,0:0:0:0:
485,281,223641,2,0,L|485:92,1,186.224991475296,6|0,3:1|0:0,0:0:0:0:
426,37,223972,2,0,P|366:61|363:128,1,124.149994316864,2|0,1:2|0:0,0:0:0:0:
269,249,224304,2,0,B|290:191|290:191|265:134,1,124.149994316864,2|0,3:1|3:2,0:0:0:0:
168,36,224635,2,0,B|147:94|147:94|174:153,1,124.149994316864,2|0,1:2|0:0,0:0:0:0:
277,52,224967,5,6,3:1:0:0:
70,11,225133,2,0,P|72:90|76:263,1,248.299988633729,0|0,3:2|3:2,0:0:0:0:
5,358,225630,1,0,1:2:0:0:
148,293,225796,1,0,1:2:0:0:
0,223,225961,1,0,3:2:0:0:
103,380,226127,1,0,1:2:0:0:
103,380,226210,1,0,1:2:0:0:
103,380,226293,5,2,3:2:0:0:
192,197,226459,1,0,1:2:0:0:
56,288,226624,1,0,3:2:0:0:
246,275,226790,1,0,3:2:0:0:
210,108,226956,2,0,P|151:104|111:157,1,124.149994316864,2|0,1:2|3:2,0:0:0:0:
246,275,227287,2,0,P|304:272|370:272,1,124.149994316864,2|2,1:2|1:2,0:0:0:0:
432,319,227536,1,0,1:2:0:0:
453,334,227619,6,0,P|513:267|479:184,1,186.224991475296,6|0,3:1|0:0,0:0:0:0:
411,133,227950,2,0,P|366:127|313:184,1,124.149994316864,2|0,1:2|0:0,0:0:0:0:
246,275,228282,1,2,3:2:0:0:
388,202,228448,1,0,3:2:0:0:
221,78,228613,2,0,P|201:142|229:197,1,124.149994316864,2|0,1:2|0:0,0:0:0:0:
316,36,228945,6,0,B|272:56|217:36|236:9|186:-11|140:16,1,186.224991475296,2|0,3:1|0:0,0:0:0:0:
83,57,229276,2,0,L|85:193,1,124.149994316864,0|0,1:2|0:0,0:0:0:0:
185,272,229608,1,2,3:2:0:0:
5,190,229773,1,0,3:2:0:0:
24,368,229939,2,0,P|60:326|131:325,1,124.149994316864,2|0,1:2|0:0,0:0:0:0:
249,378,230271,6,0,P|197:316|261:233,1,186.224991475296,6|0,3:1|0:0,0:0:0:0:
245,236,230602,2,0,L|108:240,1,124.149994316864,2|0,1:2|0:0,0:0:0:0:
305,308,230934,1,2,3:1:0:0:
243,151,231099,1,0,3:2:0:0:
305,308,231265,2,0,P|368:312|405:258,1,124.149994316864,2|0,1:2|0:0,0:0:0:0:
341,113,231597,5,6,3:1:0:0:
245,236,231762,1,0,3:2:0:0:
414,184,231928,1,0,1:2:0:0:
213,58,232094,1,0,3:2:0:0:
213,58,232177,1,0,3:2:0:0:
213,58,232260,1,0,3:2:0:0:
336,224,232425,1,0,3:2:0:0:
297,13,232591,1,2,1:2:0:0:
154,284,232757,1,0,1:2:0:0:
3,162,232923,6,0,P|53:95|158:127,1,186.224991475296,6|0,3:1|0:0,0:0:0:0:
197,173,233254,1,0,1:2:0:0:
118,4,233420,1,0,1:2:0:0:
91,181,233586,1,2,1:2:0:0:
223,53,233751,1,0,1:2:0:0:
3,162,233917,1,0,1:2:0:0:
194,281,234083,1,0,1:2:0:0:
84,87,234249,5,2,1:2:0:0:
144,364,234414,1,0,1:2:0:0:
144,364,234497,1,0,1:2:0:0:
144,364,234580,1,0,1:2:0:0:
342,190,234746,1,0,1:2:0:0:
342,190,234829,1,0,1:2:0:0:
342,190,234912,6,0,P|285:157|228:172,1,124.149994316864,2|8,1:2|0:3,0:0:0:0:
116,260,235243,1,2,3:2:0:0:
299,372,235409,1,2,0:0:0:0:
313,362,235492,1,2,0:0:0:0:
325,354,235575,6,0,P|323:267|250:266,1,157.575004808808,6|0,3:1|0:0,0:0:0:0:
246,258,235906,1,0,1:2:0:0:
415,242,236072,2,0,L|422:131,1,105.050003205872,2|0,0:0|3:2,0:0:0:0:
224,65,236403,2,0,L|231:176,1,105.050003205872,2|0,3:2|1:2,0:0:0:0:
340,14,236735,1,0,0:0:0:0:
132,22,236901,6,0,P|137:111|141:185,1,157.575004808808,2|0,3:1|0:0,0:0:0:0:
138,193,237232,2,0,P|185:161|239:175,1,105.050003205872,0|0,1:2|0:0,0:0:0:0:
321,257,237564,1,2,3:1:0:0:
302,105,237729,1,2,3:2:0:0:
206,261,237895,1,2,1:2:0:0:
372,173,238061,1,2,0:0:0:0:
368,352,238227,6,0,P|283:350|210:353,1,157.575004808808,6|0,3:1|0:0,0:0:0:0:
199,361,238558,1,2,1:2:0:0:
123,215,238724,2,0,P|160:258|212:258,1,105.050003205872,2|2,0:0|3:1,0:0:0:0:
9,361,239055,2,0,P|36:298|88:298,1,105.050003205872,2|0,3:2|1:2,0:0:0:0:
194,169,239387,1,2,0:0:0:0:
341,326,239552,6,0,P|290:294|212:348,1,157.575004808808,2|0,3:1|0:0,0:0:0:0:
199,361,239884,2,0,P|216:304|198:264,1,105.050003205872,0|0,1:2|0:0,0:0:0:0:
119,139,240215,1,2,3:2:0:0:
294,200,240381,1,0,3:2:0:0:
346,39,240547,2,0,B|297:19|258:45|288:71|239:99|189:82,1,157.575004808808,2|0,1:2|0:0,0:0:0:0:
207,86,240878,6,0,P|270:84|299:114,1,105.050003205872,6|0,3:1|3:2,0:0:0:0:
376,211,241210,1,2,0:0:0:0:
470,126,241376,2,0,P|486:69|465:29,1,105.050003205872,2|0,1:2|0:0,0:0:0:0:
376,211,241707,2,0,P|360:268|381:308,1,105.050003205872,2|0,3:2|1:2,0:0:0:0:
501,343,242039,6,0,P|415:339|277:344,1,210.100006411743,6|0,3:2|3:2,0:0:0:0:
187,270,242536,2,0,P|252:236|296:264,1,105.050003205872,2|0,1:2|0:0,0:0:0:0:
194,369,242867,1,2,3:2:0:0:
80,314,243033,1,0,3:2:0:0:
80,314,243116,1,0,3:2:0:0:
80,314,243199,2,0,P|60:261|83:212,1,105.050003205872,2|8,1:2|0:3,0:0:0:0:
155,118,243530,5,6,3:1:0:0:
155,118,243696,2,0,B|208:92|269:122|243:149|313:183|368:148,2,210.100006411743,0|0|2,3:2|1:2|3:2,0:0:0:0:
76,218,244525,1,2,1:2:0:0:
155,118,244691,1,2,0:0:0:0:
64,30,244856,6,0,P|16:53|12:107,1,105.050003205872,0|0,3:2|3:2,0:0:0:0:
255,208,245188,2,0,P|174:208|92:213,1,157.575004808808,2|0,1:2|0:0,0:0:0:0:
76,218,245519,1,2,3:2:0:0:
178,292,245685,1,0,1:2:0:0:
77,134,245851,1,0,3:2:0:0:
116,350,246017,1,4,0:3:0:0:
255,208,246182,5,6,3:2:0:0:
256,192,246265,12,2,251403,0:0:0:0:
