osu file format v14

[General]
AudioFilename: Arrow.mp3
AudioLeadIn: 0
PreviewTime: 194718
Countdown: 0
SampleSet: Soft
StackLeniency: 0.7
Mode: 0
LetterboxInBreaks: 0
WidescreenStoryboard: 0

[Editor]
DistanceSpacing: 1.2
BeatDivisor: 4
GridSize: 32
TimelineZoom: 1.2

[Metadata]
Title:Arrow
TitleUnicode:アロー
Artist:HAG
ArtistUnicode:H△G
Creator:Sarawatlism
Version:Hazu's Hard
Source:
Tags:青色フィルム Chiho Ao Iro Film ハグ hagu j-pop pop jpop japanese [_lost_] conner c_o_n_n_e_r Hazu- Firika door weapon xiced
BeatmapID:2286007
BeatmapSetID:1090194

[Difficulty]
HPDrainRate:5
CircleSize:4
OverallDifficulty:6
ApproachRate:8
SliderMultiplier:1.4
SliderTickRate:1

[Events]
//Background and Video events
0,0,"BG.jpg",0,0
//Break Periods
2,195995,205653
//Storyboard Layer 0 (Background)
//Storyboard Layer 1 (Fail)
//Storyboard Layer 2 (Pass)
//Storyboard Layer 3 (Foreground)
//Storyboard Layer 4 (Overlay)
//Storyboard Sound Samples

[TimingPoints]
-447,331.491712707182,4,2,1,40,1,0
381,-125,4,2,1,40,0,0
11486,-90.9090909090909,4,2,1,70,0,0
22094,-100,4,2,1,50,0,0
42978,-100,4,2,1,60,0,0
51265,-100,4,2,1,70,0,0
53917,-90.9090909090909,4,2,1,80,0,1
74470,-90.9090909090909,4,2,1,80,0,0
74801,-90.9090909090909,4,2,1,85,0,0
75133,-90.9090909090909,4,2,1,85,0,1
93696,-90.9090909090909,4,2,1,65,0,0
104304,-100,4,2,1,60,0,0
114912,-111.111111111111,4,2,1,45,0,0
120133,-111.111111111111,4,2,1,5,0,0
120215,-111.111111111111,4,2,1,45,0,0
125519,-100,4,2,1,60,0,0
133475,-100,4,2,1,70,0,0
136127,-90.9090909090909,4,2,1,80,0,1
156680,-90.9090909090909,4,2,1,80,0,0
157011,-90.9090909090909,4,2,1,85,0,0
157343,-90.9090909090909,4,2,1,85,0,1
175575,-90.9090909090909,4,2,1,75,0,1
175906,-90.9090909090909,4,2,1,75,0,0
186182,-90.9090909090909,4,2,1,70,0,0
186514,-100,4,2,1,70,0,0
193144,-125,4,2,1,60,0,0
194304,-200,4,2,1,60,0,0
195796,-100,4,2,1,40,0,0
206403,-111.111111111111,4,2,1,60,0,0
213033,-111.111111111111,4,2,1,50,0,0
214359,-100,4,2,1,70,0,0
217011,-90.9090909090909,4,2,1,85,0,1
235575,-90.9090909090909,4,2,1,70,0,0
251403,-90.9090909090909,4,2,1,40,0,0

[Colours]
Combo1 : 149,233,251
Combo2 : 251,162,40
Combo3 : 0,128,255
Combo4 : 238,187,172

[HitObjects]
133,74,381,6,0,P|102:66|60:55,2,56,2|2|2,0:0|0:0|0:0,0:0:0:0:
198,126,878,2,0,P|208:170|227:253,1,112,2|2,0:1|0:0,0:0:0:0:
305,252,1376,2,0,P|292:306|280:361,2,112,2|2|2,0:0|0:0|0:0,0:0:0:0:
385,228,2204,6,0,P|414:151|309:44,1,224,2|2,0:0|0:1,0:0:0:0:
169,33,3199,1,2,0:0:0:0:
169,33,3365,1,2,0:0:0:0:
101,82,3530,6,0,P|88:125|130:203,1,112,2|2,0:1|0:0,0:0:0:0:
189,215,4028,2,0,P|202:258|160:336,2,112,2|2|2,0:0|0:0|0:0,0:0:0:0:
110,186,4856,6,0,B|244:217|195:102|337:141,1,224,2|2,0:0|0:1,0:0:0:0:
379,193,5685,2,0,P|417:192|442:180,2,56,2|2|2,0:0|0:0|0:0,0:0:0:0:
339,267,6182,6,0,P|308:245|227:253,1,112,2|2,0:1|0:0,0:0:0:0:
182,312,6680,2,0,P|127:304|79:331,2,112,2|2|2,0:0|0:0|0:0,0:0:0:0:
246,366,7508,5,0,0:0:0:0:
422,79,8171,2,0,P|365:88|296:100,1,112,2|2,0:1|0:0,0:0:0:0:
186,209,8834,6,0,P|134:165|34:195,2,168,2|2|2,0:1|0:0|0:0,0:0:0:0:
293,310,10989,2,0,P|249:296|219:289,2,56,2|2|2,0:0|0:0|0:0,0:0:0:0:
380,257,11486,6,0,P|395:193|337:120,1,154.000004699707,6|2,3:1|3:2,0:0:0:0:
267,95,11983,1,2,1:2:0:0:
200,147,12149,1,0,3:2:0:0:
200,147,12315,2,0,P|157:138|115:131,1,77.0000023498536,2|0,0:0|3:2,0:0:0:0:
56,82,12646,1,2,1:2:0:0:
0,165,12812,6,0,P|-5:193|11:244,1,77.0000023498536,2|0,3:1|1:2,0:0:0:0:
76,290,13144,2,0,B|166:271|141:351|240:322,1,154.000004699707,0|2,3:2|3:1,0:0:0:0:
287,277,13641,2,0,P|330:288|368:299,2,77.0000023498536,2|2|2,1:2|3:2|1:2,0:0:0:0:
243,186,14138,6,0,P|193:152|87:190,1,154.000004699707,6|2,3:1|3:2,0:0:0:0:
42,226,14635,1,2,1:2:0:0:
113,280,14801,1,6,3:1:0:0:
113,280,14967,2,0,P|128:334|142:390,1,77.0000023498536,2|0,1:2|3:2,0:0:0:0:
215,376,15298,1,2,1:2:0:0:
259,286,15464,6,0,P|347:299|415:312,1,154.000004699707,6|0,3:1|3:2,0:0:0:0:
481,358,15961,1,0,1:2:0:0:
508,277,16127,2,0,P|499:234|488:188,1,77.0000023498536,2|0,3:2|1:2,0:0:0:0:
412,170,16459,2,0,P|421:127|432:81,1,77.0000023498536,2|0,3:2|3:2,0:0:0:0:
495,19,16790,6,0,P|437:59|356:40,1,154.000004699707,6|2,3:1|3:2,0:0:0:0:
286,85,17287,2,0,P|230:73|178:60,1,77.0000023498536,2|0,1:2|3:2,0:0:0:0:
129,43,17619,2,0,P|140:86|151:128,1,77.0000023498536,2|0,0:0|3:2,0:0:0:0:
71,181,17950,5,2,1:2:0:0:
71,181,18116,2,0,P|60:224|49:266,1,77.0000023498536,0|0,3:2|0:0,0:0:0:0:
122,303,18448,2,0,P|131:265|141:228,1,77.0000023498536,0|0,3:2|1:2,0:0:0:0:
209,177,18779,2,0,P|255:169|317:157,1,77.0000023498536,2|0,3:2|0:0,0:0:0:0:
341,227,19111,2,0,P|387:235|449:247,1,77.0000023498536,2|0,3:2|1:2,0:0:0:0:
499,184,19442,6,0,P|517:127|459:45,2,154.000004699707,6|0|0,3:1|3:2|3:2,0:0:0:0:
429,232,20271,1,2,1:2:0:0:
374,167,20436,2,0,P|339:157|287:163,1,77.0000023498536,2|2,3:2|1:2,0:0:0:0:
228,231,20768,6,0,P|157:219|66:203,1,154.000004699707,0|2,3:2|3:2,0:0:0:0:
6,253,21265,2,0,P|1:296|31:351,1,77.0000023498536,2|2,1:2|3:2,0:0:0:0:
88,364,21597,2,0,P|124:357|165:350,1,77.0000023498536,0|0,1:2|3:2,0:0:0:0:
244,375,21928,1,2,3:2:0:0:
334,338,22094,6,0,P|357:284|326:211,1,140,6|2,3:1|3:2,0:0:0:0:
252,179,22591,1,2,0:0:0:0:
221,257,22757,2,0,B|146:247|169:303|83:287,1,140,0|2,3:2|3:2,0:0:0:0:
6,141,23420,6,0,P|-5:73|39:18,1,140,2|2,3:2|3:2,0:0:0:0:
117,54,23917,1,2,0:0:0:0:
117,54,24083,2,0,B|171:47|171:47|217:60|217:60|280:52,1,140,0|2,3:2|3:2,0:0:0:0:
419,20,24746,6,0,P|402:88|385:162,1,140,2|2,3:1|3:2,0:0:0:0:
335,223,25243,1,2,0:0:0:0:
297,147,25409,2,0,P|234:118|157:151,1,140,0|2,3:2|3:2,0:0:0:0:
116,204,25906,1,2,0:0:0:0:
198,256,26072,6,0,P|209:305|221:356,1,70,2|0,3:2|0:0,0:0:0:0:
285,366,26403,2,0,P|292:331|300:297,1,70,2|0,3:2|0:0,0:0:0:0:
369,249,26735,2,0,P|380:298|392:349,1,70,2|0,3:2|0:0,0:0:0:0:
456,359,27066,2,0,P|463:324|471:290,1,70,2|0,3:2|0:0,0:0:0:0:
499,198,27398,5,2,3:1:0:0:
499,198,27564,2,0,P|491:163|483:129,1,70,2|2,0:0|3:2,0:0:0:0:
403,102,27895,1,2,0:0:0:0:
336,154,28061,2,0,P|292:144|245:136,1,70,2|2,3:2|0:0,0:0:0:0:
205,82,28392,2,0,P|161:92|114:100,1,70,2|2,3:2|0:0,0:0:0:0:
44,59,28724,6,0,P|98:108|85:181,1,140,2|2,3:2|3:2,0:0:0:0:
32,228,29221,1,2,0:0:0:0:
32,228,29387,2,0,B|94:211|94:211|186:244,1,140,0|2,3:2|3:2,0:0:0:0:
214,304,29884,1,2,0:0:0:0:
288,239,30050,6,0,P|278:191|268:149,1,70,2|8,3:1|0:0,0:0:0:0:
235,152,30298,1,8,0:0:0:0:
235,152,30381,2,0,P|225:104|215:62,1,70,8|8,3:2|0:0,0:0:0:0:
283,27,30713,1,2,3:2:0:0:
357,65,30878,2,0,L|367:113,2,35,8|8|8,0:0|0:0|3:2,0:0:0:0:
449,206,31376,6,0,P|405:196|366:188,1,70,2|8,3:2|0:0,0:0:0:0:
324,253,31707,2,0,P|280:263|241:271,1,70,8|8,3:2|0:0,0:0:0:0:
184,222,32039,2,0,P|192:187|203:136,2,70,2|10|10,3:2|0:0|3:2,0:0:0:0:
132,288,32536,1,10,0:0:0:0:
45,241,32702,6,0,P|17:191|46:104,1,140,6|2,3:1|3:2,0:0:0:0:
100,60,33199,1,2,0:0:0:0:
169,108,33365,2,0,B|216:101|216:101|266:115|266:115|319:107,1,140,0|2,3:2|3:2,0:0:0:0:
347,35,33862,1,2,0:0:0:0:
422,97,34028,6,0,P|404:168|383:254,1,140,0|2,3:2|3:2,0:0:0:0:
332,296,34525,1,2,0:0:0:0:
332,296,34691,2,0,B|285:313|285:313|192:294,1,140,0|2,3:2|3:2,0:0:0:0:
126,341,35188,1,2,0:0:0:0:
43,288,35354,6,0,B|30:242|30:242|62:144,1,140,2|2,3:1|3:2,0:0:0:0:
132,114,35851,1,2,0:0:0:0:
189,174,36017,2,0,B|270:157|251:223|342:200,1,140,0|2,3:2|3:2,0:0:0:0:
377,141,36514,1,2,0:0:0:0:
451,205,36680,6,0,P|466:242|457:286,1,70,2|0,3:2|0:0,0:0:0:0:
406,333,37011,1,2,3:2:0:0:
328,300,37177,1,0,0:0:0:0:
328,300,37343,2,0,P|290:311|246:322,1,70,2|0,3:2|0:0,0:0:0:0:
195,372,37674,2,0,P|157:361|113:350,1,70,2|0,3:2|0:0,0:0:0:0:
47,295,38006,5,2,3:1:0:0:
47,295,38171,2,0,P|37:244|29:204,1,70,2|2,0:0|3:2,0:0:0:0:
101,176,38503,1,2,0:0:0:0:
181,201,38669,2,0,P|187:235|194:269,1,70,2|2,3:2|0:0,0:0:0:0:
262,319,39000,2,0,P|307:325|348:303,1,70,2|2,3:2|0:0,0:0:0:0:
385,235,39332,6,0,P|378:200|354:78,1,140,2|2,3:2|3:2,0:0:0:0:
293,51,39829,1,2,0:0:0:0:
293,51,39994,2,0,P|215:31|152:66,1,140,0|2,3:2|3:2,0:0:0:0:
99,108,40492,1,2,0:0:0:0:
185,154,40657,6,0,P|197:190|192:226,1,70,2|8,3:1|0:0,0:0:0:0:
159,245,40906,1,8,0:0:0:0:
159,245,40989,2,0,P|155:279|167:312,1,70,8|8,3:2|0:0,0:0:0:0:
248,336,41320,1,2,3:2:0:0:
314,284,41486,2,0,L|365:293,2,35,8|8|8,0:0|0:0|3:2,0:0:0:0:
473,338,41983,6,0,P|480:280|463:248,1,70,2|8,3:2|0:0,0:0:0:0:
433,197,42315,1,8,3:2:0:0:
351,215,42481,2,0,P|291:207|190:193,1,140,2|2,1:2|0:0,0:0:0:0:
138,156,42978,2,0,P|129:122|120:88,1,70,2|2,1:2|0:0,0:0:0:0:
191,20,43309,5,6,3:2:0:0:
27,57,43641,1,2,1:2:0:0:
5,140,43807,1,2,0:0:0:0:
5,140,43972,2,0,P|0:188|66:251,1,140,0|0,0:0|1:2,0:0:0:0:
143,261,44470,1,2,3:2:0:0:
209,189,44635,6,0,P|244:184|294:215,1,70,2|0,0:0|3:2,0:0:0:0:
333,258,44967,2,0,P|368:263|418:232,1,70,2|2,1:2|0:0,0:0:0:0:
454,186,45298,2,0,P|445:146|434:103,1,70,2|0,0:0|3:2,0:0:0:0:
370,66,45630,2,0,P|361:106|350:149,1,70,2|0,1:2|0:0,0:0:0:0:
270,186,45961,6,0,P|216:136|147:148,1,140,2|0,3:2|1:2,0:0:0:0:
87,193,46459,1,2,0:0:0:0:
87,193,46624,2,0,P|101:256|119:338,1,140,0|0,0:0|1:2,0:0:0:0:
215,339,47122,6,0,B|262:331|262:331|308:347|308:347|374:335,1,140,2|0,3:2|3:2,0:0:0:0:
430,365,47619,2,0,P|440:319|449:283,1,70,2|0,1:2|0:0,0:0:0:0:
507,239,47950,1,2,0:0:0:0:
435,195,48116,1,2,3:2:0:0:
435,195,48282,2,0,P|397:206|352:216,1,70,0|0,1:2|0:0,0:0:0:0:
292,276,48613,6,0,P|246:247|148:273,1,140,2|2,3:2|1:2,0:0:0:0:
116,328,49111,1,2,0:0:0:0:
116,328,49276,2,0,P|134:270|94:193,1,140,0|0,0:0|1:2,0:0:0:0:
28,161,49773,1,0,0:0:0:0:
106,103,49939,6,0,P|161:111|255:126,1,140,2|0,3:2|1:2,0:0:0:0:
298,59,50436,2,0,P|353:51|447:36,1,140,2|0,0:0|3:2,0:0:0:0:
501,91,50934,2,0,P|493:121|481:165,1,70,2|2,1:2|0:0,0:0:0:0:
400,212,51265,6,0,P|408:242|420:286,2,70,2|0|0,3:2|3:2|1:2,0:0:0:0:
318,190,51762,1,0,0:0:0:0:
256,247,51928,1,0,0:0:0:0:
256,247,52094,2,0,P|215:237|160:225,1,70,2|2,0:0|1:2,0:0:0:0:
106,285,52425,5,2,1:2:0:0:
301,330,52757,1,2,1:2:0:0:
301,330,52923,1,2,1:2:0:0:
301,330,53917,6,0,P|327:262|276:178,1,154.000004699707,6|2,3:1|3:2,0:0:0:0:
222,148,54414,1,0,0:0:0:0:
148,191,54580,2,0,P|110:180|43:161,1,77.0000023498536,2|0,3:2|0:0,0:0:0:0:
27,241,54912,2,0,P|64:251|101:262,1,77.0000023498536,2|0,3:2|1:2,0:0:0:0:
197,288,55243,6,0,P|206:323|220:385,1,77.0000023498536,2|0,3:1|0:0,0:0:0:0:
298,342,55575,2,0,P|289:304|279:267,1,77.0000023498536,2|0,3:2|0:0,0:0:0:0:
362,249,55906,2,0,P|371:284|385:346,1,77.0000023498536,2|0,3:1|1:2,0:0:0:0:
463,303,56238,2,0,P|454:265|444:228,1,77.0000023498536,2|0,3:2|1:2,0:0:0:0:
372,158,56569,6,0,P|294:143|206:125,1,154.000004699707,2|0,3:1|3:2,0:0:0:0:
154,75,57066,1,0,0:0:0:0:
80,117,57232,2,0,P|70:151|88:207,1,77.0000023498536,0|0,3:2|0:0,0:0:0:0:
159,214,57564,2,0,P|166:251|156:288,1,77.0000023498536,2|0,3:2|1:2,0:0:0:0:
67,336,57895,6,0,B|122:320|122:320|230:349,1,154.000004699707,2|0,3:1|3:2,0:0:0:0:
303,379,58392,1,0,1:2:0:0:
303,379,58475,1,0,1:2:0:0:
303,379,58558,2,0,P|342:373|397:365,1,77.0000023498536,0|0,3:2|1:2,0:0:0:0:
400,284,58890,2,0,P|361:290|306:298,1,77.0000023498536,2|4,3:2|0:3,0:0:0:0:
252,224,59221,6,0,P|198:201|107:251,2,154.000004699707,6|0|2,3:1|3:2|3:2,0:0:0:0:
311,285,60050,1,0,1:2:0:0:
376,232,60215,2,0,P|366:184|357:142,1,77.0000023498536,2|0,3:2|0:0,0:0:0:0:
448,109,60547,6,0,P|456:146|481:271,1,154.000004699707,0|2,3:2|3:2,0:0:0:0:
443,337,61044,1,0,1:2:0:0:
364,303,61210,2,0,P|326:296|270:286,1,77.0000023498536,2|0,3:2|0:0,0:0:0:0:
219,339,61541,2,0,P|181:332|125:322,1,77.0000023498536,2|0,3:2|1:2,0:0:0:0:
44,306,61873,6,0,B|26:267|26:267|58:153,1,154.000004699707,6|0,3:1|3:2,0:0:0:0:
136,133,62370,1,0,1:2:0:0:
206,179,62536,2,0,P|196:218|185:259,1,77.0000023498536,0|0,3:2|0:0,0:0:0:0:
263,289,62867,2,0,P|272:251|282:214,1,77.0000023498536,0|0,3:2|1:2,0:0:0:0:
322,121,63199,6,0,P|397:105|482:84,1,154.000004699707,2|0,3:1|3:2,0:0:0:0:
507,174,63696,1,8,0:3:0:0:
507,174,63779,1,8,0:3:0:0:
507,174,63862,2,0,P|471:182|385:202,1,115.50000352478,8|8,0:3|0:3,0:0:0:0:
371,235,64193,2,0,P|332:246|287:233,1,77.0000023498536,4|4,0:3|0:3,0:0:0:0:
226,165,64525,6,0,P|248:242|272:328,1,154.000004699707,6|2,3:1|3:2,0:0:0:0:
206,372,65022,1,0,0:0:0:0:
154,304,65188,2,0,P|116:296|56:283,1,77.0000023498536,2|0,3:2|0:0,0:0:0:0:
23,223,65519,2,0,P|60:214|98:206,1,77.0000023498536,2|0,3:2|1:2,0:0:0:0:
173,140,65851,6,0,P|232:126|314:187,1,154.000004699707,0|0,3:2|3:2,0:0:0:0:
349,252,66348,1,0,1:2:0:0:
349,252,66514,2,0,P|339:301|326:359,1,77.0000023498536,2|0,3:2|1:2,0:0:0:0:
409,365,66845,2,0,P|417:327|424:289,1,77.0000023498536,2|0,3:2|1:2,0:0:0:0:
495,218,67177,6,0,P|503:180|510:142,1,77.0000023498536,6|0,3:1|0:0,0:0:0:0:
432,107,67508,2,0,P|425:144|417:182,1,77.0000023498536,2|0,3:2|0:0,0:0:0:0:
331,185,67840,2,0,P|339:147|346:109,1,77.0000023498536,2|0,3:2|0:0,0:0:0:0:
268,74,68171,2,0,P|261:111|253:149,1,77.0000023498536,2|0,3:2|1:2,0:0:0:0:
230,247,68503,6,0,P|159:263|67:282,1,154.000004699707,6|0,3:1|3:2,0:0:0:0:
8,229,69000,1,0,1:2:0:0:
8,229,69083,1,0,1:2:0:0:
8,229,69166,2,0,P|-1:187|21:135,1,77.0000023498536,0|0,3:2|1:2,0:0:0:0:
82,115,69497,2,0,P|91:157|69:209,1,77.0000023498536,2|4,3:2|0:3,0:0:0:0:
137,273,69829,6,0,B|192:265|192:265|240:281|240:281|294:274,1,154.000004699707,6|2,3:1|3:2,0:0:0:0:
361,316,70326,1,0,0:0:0:0:
428,264,70492,2,0,P|417:219|406:171,1,77.0000023498536,2|0,3:2|0:0,0:0:0:0:
479,140,70823,2,0,P|490:95|501:47,1,77.0000023498536,2|0,3:2|1:2,0:0:0:0:
401,32,71155,6,0,P|343:75|251:53,1,154.000004699707,6|2,3:1|3:2,0:0:0:0:
193,19,71652,1,0,0:0:0:0:
127,73,71818,2,0,P|137:112|148:157,1,77.0000023498536,2|0,3:1|1:2,0:0:0:0:
78,199,72149,2,0,P|68:238|57:283,1,77.0000023498536,2|0,3:2|1:2,0:0:0:0:
12,362,72481,6,0,B|67:346|67:346|161:369,1,154.000004699707,6|2,3:1|3:2,0:0:0:0:
231,322,72978,1,2,0:0:0:0:
303,373,73144,1,0,3:2:0:0:
303,373,73309,2,0,P|340:379|377:369,1,77.0000023498536,0|0,0:0|3:2,0:0:0:0:
448,321,73641,1,0,1:2:0:0:
363,267,73807,5,2,3:1:0:0:
444,230,73972,1,8,0:3:0:0:
444,230,74055,1,8,0:3:0:0:
444,230,74138,2,0,P|450:188|456:143,1,77.0000023498536,8|4,0:3|0:3,0:0:0:0:
383,106,74470,2,0,P|335:115|269:130,1,115.50000352478,2|4,3:2|0:3,0:0:0:0:
237,102,74801,2,0,P|182:89|127:78,1,77.0000023498536,8|4,0:3|0:3,0:0:0:0:
85,18,75133,6,0,P|125:79|94:165,1,154.000004699707,6|2,3:1|1:2,0:0:0:0:
39,206,75630,1,0,0:0:0:0:
113,245,75796,2,0,P|170:232|220:222,1,77.0000023498536,2|0,3:2|3:2,0:0:0:0:
263,267,76127,2,0,P|320:254|370:244,1,77.0000023498536,2|0,1:2|0:0,0:0:0:0:
419,309,76459,6,0,P|441:233|469:142,1,154.000004699707,2|2,3:1|1:2,0:0:0:0:
412,93,76956,1,0,0:0:0:0:
346,146,77122,2,0,P|303:154|259:136,1,77.0000023498536,2|0,3:1|3:2,0:0:0:0:
208,88,77453,2,0,P|165:80|121:98,1,77.0000023498536,2|0,1:2|0:0,0:0:0:0:
66,164,77785,6,0,P|75:213|94:323,2,154.000004699707,2|0|0,3:1|1:2|3:2,0:0:0:0:
121,99,78613,1,0,3:2:0:0:
183,156,78779,2,0,P|232:162|278:168,1,77.0000023498536,2|0,1:2|0:0,0:0:0:0:
325,89,79111,6,0,P|386:76|457:140,1,154.000004699707,2|0,3:1|1:2,0:0:0:0:
487,207,79608,1,0,3:2:0:0:
418,257,79773,2,0,P|379:252|341:247,1,77.0000023498536,0|0,3:2|3:2,0:0:0:0:
279,189,80105,2,0,P|240:193|202:198,1,77.0000023498536,2|0,1:2|0:0,0:0:0:0:
102,205,80436,6,0,P|92:262|73:368,2,154.000004699707,6|0|2,3:1|1:2|3:2,0:0:0:0:
53,134,81265,1,0,3:2:0:0:
122,85,81431,2,0,P|161:79|198:94,1,77.0000023498536,2|0,1:2|0:0,0:0:0:0:
251,175,81762,6,0,B|336:156|310:235|415:207,2,154.000004699707,6|2|2,3:1|1:2|3:1,0:0:0:0:
188,233,82591,1,0,3:2:0:0:
114,190,82757,2,0,P|104:140|119:99,1,77.0000023498536,2|0,1:2|0:0,0:0:0:0:
185,48,83088,5,6,3:1:0:0:
185,48,83254,2,0,P|231:54|279:64,1,77.0000023498536,0|0,3:2|0:0,0:0:0:0:
305,132,83586,2,0,P|352:90|447:109,1,154.000004699707,0|0,1:2|3:2,0:0:0:0:
498,159,84083,2,0,P|490:199|479:251,1,77.0000023498536,0|0,1:2|0:0,0:0:0:0:
395,280,84414,5,2,3:2:0:0:
395,280,84580,2,0,P|402:317|410:355,2,77.0000023498536,0|0|0,3:2|1:2|0:0,0:0:0:0:
316,248,85077,1,2,3:2:0:0:
248,299,85243,2,0,L|257:360,2,38.5000011749268,0|2|0,1:2|1:2|1:2,0:0:0:0:
188,217,85575,5,2,1:2:0:0:
188,217,85657,1,0,1:2:0:0:
188,217,85740,2,0,P|137:219|96:249,1,77.0000023498536,6|0,3:1|0:0,0:0:0:0:
72,305,86072,2,0,P|95:247|38:166,1,154.000004699707,2|2,1:2|3:2,0:0:0:0:
2,103,86569,1,0,3:2:0:0:
79,67,86735,2,0,P|131:77|170:85,1,77.0000023498536,2|0,1:2|0:0,0:0:0:0:
227,150,87066,6,0,B|284:144|284:144|335:163|335:163|398:156,2,154.000004699707,2|0|2,3:1|1:2|3:2,0:0:0:0:
164,208,87895,1,0,3:2:0:0:
87,170,88061,2,0,P|77:129|93:81,1,77.0000023498536,2|0,1:2|0:0,0:0:0:0:
161,31,88392,6,0,B|218:25|218:25|269:44|269:44|332:37,1,154.000004699707,6|2,3:1|1:2,0:0:0:0:
394,22,88890,1,0,0:0:0:0:
469,60,89055,2,0,P|483:101|470:146,1,77.0000023498536,2|0,3:1|3:2,0:0:0:0:
402,174,89387,2,0,P|396:211|409:247,1,77.0000023498536,2|0,1:2|0:0,0:0:0:0:
494,301,89718,5,6,3:1:0:0:
420,343,89884,1,0,3:2:0:0:
420,343,90050,2,0,P|361:330|258:311,1,154.000004699707,0|0,1:2|3:2,0:0:0:0:
195,270,90547,2,0,P|147:279|96:290,1,77.0000023498536,0|2,3:2|1:2,0:0:0:0:
49,356,90878,5,0,1:2:0:0:
49,356,90961,1,0,1:2:0:0:
49,356,91044,2,0,P|67:280|87:199,1,154.000004699707,6|0,3:1|1:2,0:0:0:0:
52,127,91541,1,0,0:0:0:0:
127,89,91707,2,0,P|176:83|218:107,1,77.0000023498536,2|0,3:2|3:2,0:0:0:0:
262,151,92039,2,0,P|298:162|335:154,1,77.0000023498536,0|0,1:2|0:0,0:0:0:0:
397,75,92370,6,0,B|375:125|375:125|402:232,1,154.000004699707,6|0,0:3|1:2,0:0:0:0:
441,305,92867,1,0,1:2:0:0:
441,305,92950,1,0,1:2:0:0:
441,305,93033,2,0,P|403:297|338:284,1,77.0000023498536,0|8,1:2|0:3,0:0:0:0:
294,242,93365,2,0,P|256:250|191:263,1,77.0000023498536,2|2,3:2|0:0,0:0:0:0:
162,341,93696,6,0,P|184:279|126:196,1,154.000004699707,6|2,3:1|1:2,0:0:0:0:
70,162,94193,1,2,0:0:0:0:
129,102,94359,1,0,3:2:0:0:
129,102,94525,2,0,P|172:89|219:102,1,77.0000023498536,2|0,3:2|1:2,0:0:0:0:
273,141,94856,1,2,0:0:0:0:
366,105,95022,6,0,P|360:55|354:12,1,77.0000023498536,2|0,3:1|0:0,0:0:0:0:
441,19,95354,2,0,P|449:88|461:185,1,154.000004699707,0|2,1:2|3:1,0:0:0:0:
391,222,95851,2,0,P|396:260|400:298,2,77.0000023498536,2|2|2,3:2|1:2|0:0,0:0:0:0:
309,163,96348,6,0,B|224:144|250:223|145:195,1,154.000004699707,6|2,3:1|1:2,0:0:0:0:
98,148,96845,1,2,0:0:0:0:
41,211,97011,1,2,3:1:0:0:
41,211,97177,2,0,P|56:265|70:321,1,77.0000023498536,2|0,3:2|1:2,0:0:0:0:
126,339,97508,1,2,0:0:0:0:
201,272,97674,6,0,P|289:285|357:298,1,154.000004699707,2|0,3:1|1:2,0:0:0:0:
417,352,98171,1,0,0:0:0:0:
476,291,98337,2,0,P|481:249|456:202,1,77.0000023498536,2|0,3:2|3:2,0:0:0:0:
391,182,98669,2,0,P|400:139|411:93,1,77.0000023498536,2|0,1:2|0:0,0:0:0:0:
485,43,99000,6,0,B|435:67|435:67|326:35,1,154.000004699707,6|2,3:1|0:0,0:0:0:0:
259,14,99497,1,2,3:2:0:0:
199,74,99663,1,0,1:2:0:0:
121,39,99829,2,0,P|86:48|31:62,1,77.0000023498536,2|0,1:2|3:2,0:0:0:0:
0,147,100160,6,0,P|71:157|180:176,1,154.000004699707,6|0,1:2|3:2,0:0:0:0:
233,193,100657,1,0,3:2:0:0:
298,350,100989,2,0,P|306:312|315:274,1,77.0000023498536,2|0,1:2|0:0,0:0:0:0:
395,247,101320,2,0,P|403:284|412:322,1,77.0000023498536,6|0,1:2|0:0,0:0:0:0:
512,302,101652,5,6,3:1:0:0:
512,302,101818,2,0,P|504:264|494:227,1,77.0000023498536,0|0,3:2|0:0,0:0:0:0:
453,152,102149,2,0,P|399:118|316:158,1,154.000004699707,0|2,1:2|3:2,0:0:0:0:
293,232,102646,2,0,P|255:240|200:251,1,77.0000023498536,2|2,0:0|1:2,0:0:0:0:
154,326,102978,6,0,B|177:274|177:274|146:177,1,154.000004699707,0|2,0:0|1:2,0:0:0:0:
79,130,103475,2,0,P|67:87|52:40,1,77.0000023498536,0|2,0:0|3:2,0:0:0:0:
133,18,103807,2,0,P|144:54|154:91,1,77.0000023498536,0|0,3:2|1:2,0:0:0:0:
221,144,104138,1,2,0:0:0:0:
258,53,104304,6,0,P|338:71|409:88,1,140,6|2,3:1|0:0,0:0:0:0:
457,141,104801,2,0,B|490:184|490:184|461:346,1,210,2|2,3:2|0:0,0:0:0:0:
371,370,105464,6,0,B|262:390|288:297|175:317,1,210,2|2,0:0|3:2,0:0:0:0:
115,373,106127,1,2,0:0:0:0:
45,325,106293,2,0,P|53:287|60:245,1,70,0|0,1:2|3:2,0:0:0:0:
20,181,106624,1,2,0:0:0:0:
122,47,106956,6,0,P|130:85|137:127,1,70,2|0,3:2|3:2,0:0:0:0:
190,179,107287,1,2,0:0:0:0:
251,121,107453,2,0,B|355:93|346:203|444:176,1,210,2|2,3:2|0:0,0:0:0:0:
508,114,108116,6,0,P|490:188|469:274,1,140,2|2,1:2|0:0,0:0:0:0:
506,328,108613,1,2,3:2:0:0:
343,368,108945,1,0,1:2:0:0:
277,317,109111,1,2,1:2:0:0:
277,317,109276,2,0,P|267:278|286:227,1,70,0|0,3:2|1:2,0:0:0:0:
351,189,109608,5,2,3:2:0:0:
285,137,109773,2,0,P|230:151|143:168,1,140,2|2,0:0|3:2,0:0:0:0:
76,122,110271,1,0,1:2:0:0:
19,183,110436,2,0,P|10:229|68:309,1,140,2|2,3:2|1:2,0:0:0:0:
154,320,110934,5,2,3:2:0:0:
259,206,111265,1,2,3:2:0:0:
259,206,111431,2,0,P|336:224|425:246,1,140,2|0,0:0|1:2,0:0:0:0:
477,256,111928,2,0,P|468:222|458:188,1,70,2|2,3:2|0:0,0:0:0:0:
411,101,112260,6,0,P|375:91|336:102,1,70,10|8,3:2|3:2,0:0:0:0:
321,134,112508,1,8,0:0:0:0:
321,134,112591,2,0,P|286:140|253:130,1,70,8|10,0:0|3:2,0:0:0:0:
196,68,112923,1,8,1:2:0:0:
144,133,113088,2,0,L|154:181,2,35,8|8|10,0:0|0:0|0:0,0:0:0:0:
40,266,113586,6,0,P|93:277|123:284,1,70,8|10,0:0|3:2,0:0:0:0:
171,336,113917,2,0,P|224:325|254:318,1,70,8|8,3:2|0:0,0:0:0:0:
322,306,114249,2,0,P|317:334|305:393,2,70,2|8|4,1:2|0:3|3:0,0:0:0:0:
382,247,114746,1,2,3:2:0:0:
309,196,114912,6,0,P|229:214|174:225,1,125.999996154785,2|0,3:1|0:0,0:0:0:0:
123,285,115409,1,2,0:0:0:0:
18,42,115906,1,2,0:0:0:0:
18,42,116072,2,0,P|97:60|224:89,1,188.999994232178,0|2,0:0|0:0,0:0:0:0:
279,41,116735,1,0,0:0:0:0:
353,88,116901,5,2,0:0:0:0:
446,237,117232,2,0,P|408:231|369:223,1,62.9999980773926,2|0,0:0|3:2,0:0:0:0:
328,295,117564,2,0,P|289:252|219:253,1,125.999996154785,2|0,3:1|0:0,0:0:0:0:
160,311,118061,1,2,0:0:0:0:
40,74,118558,1,2,0:0:0:0:
40,74,118724,1,0,0:0:0:0:
392,35,119387,6,0,L|361:26,2,31.4999990386963,8|8|8,0:0|0:0|0:0,0:0:0:0:
452,99,119718,1,10,0:0:0:0:
452,99,119884,2,0,P|460:128|480:208,1,94.499997116089,10|0,0:0|0:0,0:0:0:0:
453,228,120215,6,0,P|462:265|475:311,1,62.9999980773926,2|0,3:1|0:0,0:0:0:0:
395,339,120547,2,0,P|386:302|373:256,1,62.9999980773926,0|2,0:0|0:0,0:0:0:0:
310,222,120878,2,0,P|249:208|169:192,1,125.999996154785,0|2,0:0|0:0,0:0:0:0:
118,138,121376,1,0,3:2:0:0:
37,197,121541,6,0,P|26:275|57:324,1,125.999996154785,2|0,3:1|0:0,0:0:0:0:
134,297,122039,2,0,B|241:265|204:362|333:326,1,188.999994232178,2|2,0:0|0:0,0:0:0:0:
381,277,122702,1,0,3:2:0:0:
308,207,122867,6,0,B|281:85|281:85|334:127,1,188.999994232178,2|2,3:1|0:0,0:0:0:0:
505,324,123862,2,0,P|443:282|332:326,1,188.999994232178,2|0,0:0|0:0,0:0:0:0:
84,377,124856,2,0,P|91:343|100:299,1,62.9999980773926,2|0,0:0|1:2,0:0:0:0:
37,248,125188,2,0,P|44:214|53:170,1,62.9999980773926,2|4,3:2|0:3,0:0:0:0:
132,133,125519,5,6,3:2:0:0:
234,266,125851,1,2,0:0:0:0:
302,216,126017,1,2,3:2:0:0:
302,216,126182,2,0,P|355:227|442:244,1,140,0|0,1:2|0:0,0:0:0:0:
508,194,126680,1,2,3:2:0:0:
433,130,126845,6,0,P|423:91|410:41,1,70,2|0,0:0|3:2,0:0:0:0:
339,25,127177,2,0,P|330:58|321:92,1,70,2|2,3:2|0:0,0:0:0:0:
249,135,127508,2,0,P|239:96|226:46,1,70,2|0,1:2|0:0,0:0:0:0:
157,26,127840,1,2,1:2:0:0:
94,102,128006,5,0,1:2:0:0:
94,102,128088,1,0,1:2:0:0:
94,102,128171,1,2,3:2:0:0:
147,175,128337,2,0,P|138:208|129:242,1,70,0|0,1:2|3:2,0:0:0:0:
59,302,128669,1,2,3:2:0:0:
59,302,128834,2,0,P|125:282|193:335,1,140,0|0,1:2|0:0,0:0:0:0:
270,361,129332,6,0,B|317:353|317:353|363:369|363:369|429:357,1,140,6|0,3:2|3:2,0:0:0:0:
479,320,129829,2,0,P|483:271|464:236,1,70,2|0,3:2|0:0,0:0:0:0:
411,197,130160,1,2,1:2:0:0:
343,145,130326,1,2,1:2:0:0:
343,145,130409,1,0,1:2:0:0:
343,145,130492,2,0,P|304:150|258:158,1,70,4|4,0:3|0:3,0:0:0:0:
213,232,130823,6,0,P|237:179|187:101,1,140,2|2,3:2|1:2,0:0:0:0:
126,73,131320,1,2,0:0:0:0:
197,27,131486,2,0,B|246:12|246:12|348:42,1,140,0|0,0:0|1:2,0:0:0:0:
414,23,131983,1,2,0:0:0:0:
482,92,132149,6,0,P|466:147|440:245,1,140,2|0,3:2|1:2,0:0:0:0:
375,274,132646,2,0,P|356:206|337:139,1,140,2|0,0:0|3:2,0:0:0:0:
269,88,133144,2,0,P|236:80|188:69,1,70,2|2,1:2|0:0,0:0:0:0:
113,116,133475,6,0,P|105:86|93:42,2,70,2|0|0,3:2|3:2|1:2,0:0:0:0:
81,194,133972,1,0,0:0:0:0:
158,237,134138,1,0,0:0:0:0:
158,237,134304,2,0,P|197:236|242:207,1,70,2|2,0:0|1:2,0:0:0:0:
295,155,134635,5,2,1:2:0:0:
114,91,134967,1,2,1:2:0:0:
114,91,135133,1,2,1:2:0:0:
114,91,136127,6,0,P|128:159|149:255,1,154.000004699707,6|2,3:1|3:2,0:0:0:0:
207,300,136624,1,0,0:0:0:0:
249,226,136790,2,0,P|292:217|336:237,1,77.0000023498536,2|0,3:2|0:0,0:0:0:0:
371,296,137122,2,0,P|407:306|444:296,1,77.0000023498536,2|0,3:2|1:2,0:0:0:0:
495,210,137453,6,0,P|486:172|476:135,1,77.0000023498536,2|0,3:1|0:0,0:0:0:0:
409,83,137785,2,0,P|399:120|390:157,1,77.0000023498536,2|0,3:2|0:0,0:0:0:0:
314,195,138116,2,0,P|305:157|295:120,1,77.0000023498536,2|0,3:1|1:2,0:0:0:0:
228,68,138448,2,0,P|218:105|209:142,1,77.0000023498536,2|0,3:2|1:2,0:0:0:0:
210,243,138779,6,0,P|148:199|61:237,1,154.000004699707,2|0,3:1|3:2,0:0:0:0:
40,294,139276,1,0,0:0:0:0:
95,358,139442,2,0,P|135:349|192:337,1,77.0000023498536,0|0,3:2|0:0,0:0:0:0:
249,372,139773,2,0,P|289:363|346:351,1,77.0000023498536,2|0,3:2|1:2,0:0:0:0:
423,368,140105,6,0,B|445:327|445:327|415:216,1,154.000004699707,2|0,3:1|3:2,0:0:0:0:
341,185,140602,1,0,1:2:0:0:
341,185,140685,1,0,1:2:0:0:
341,185,140768,2,0,P|301:194|244:206,1,77.0000023498536,0|0,3:2|1:2,0:0:0:0:
216,269,141099,2,0,P|176:260|119:248,1,77.0000023498536,2|4,3:2|0:3,0:0:0:0:
73,177,141431,6,0,P|85:232|112:356,2,154.000004699707,6|0|2,3:1|3:2|3:2,0:0:0:0:
141,125,142260,1,0,1:2:0:0:
208,175,142425,2,0,P|245:183|283:191,1,77.0000023498536,2|0,3:2|0:0,0:0:0:0:
350,266,142757,6,0,P|333:190|317:115,1,154.000004699707,0|2,3:2|3:2,0:0:0:0:
375,53,143254,1,0,1:2:0:0:
449,92,143420,2,0,P|457:127|470:179,1,77.0000023498536,2|0,3:1|1:2,0:0:0:0:
436,245,143751,2,0,P|444:280|457:332,1,77.0000023498536,2|0,3:2|1:2,0:0:0:0:
359,355,144083,6,0,B|313:329|313:329|213:360,1,154.000004699707,6|0,3:1|3:2,0:0:0:0:
134,380,144580,1,0,1:2:0:0:
79,315,144746,2,0,P|88:277|98:240,1,77.0000023498536,0|0,3:2|0:0,0:0:0:0:
43,176,145077,2,0,P|51:138|61:101,1,77.0000023498536,0|0,3:2|1:2,0:0:0:0:
147,47,145409,6,0,P|222:31|297:90,1,154.000004699707,2|0,3:1|3:2,0:0:0:0:
273,159,145906,1,8,0:3:0:0:
273,159,145989,1,8,0:3:0:0:
273,159,146072,2,0,P|309:151|395:131,1,115.50000352478,8|8,0:3|0:3,0:0:0:0:
418,159,146403,2,0,P|404:202|388:257,1,77.0000023498536,4|4,0:3|0:3,0:0:0:0:
432,325,146735,6,0,B|377:317|377:317|329:333|329:333|275:326,1,154.000004699707,6|2,3:1|3:2,0:0:0:0:
224,264,147232,1,0,0:0:0:0:
147,301,147398,2,0,P|155:331|171:397,1,77.0000023498536,2|0,3:2|0:0,0:0:0:0:
81,373,147729,2,0,P|71:335|61:298,1,77.0000023498536,2|0,3:2|1:2,0:0:0:0:
4,215,148061,6,0,P|-20:154|35:62,1,154.000004699707,0|0,3:2|3:2,0:0:0:0:
95,56,148558,1,0,1:2:0:0:
95,56,148724,2,0,P|140:64|200:79,1,77.0000023498536,2|0,3:2|1:2,0:0:0:0:
249,41,149055,2,0,P|294:49|354:64,1,77.0000023498536,2|0,3:2|1:2,0:0:0:0:
404,117,149387,6,0,P|412:155|422:203,1,77.0000023498536,6|0,3:1|0:0,0:0:0:0:
343,229,149718,2,0,P|335:191|327:153,1,77.0000023498536,2|0,3:2|0:0,0:0:0:0:
242,147,150050,2,0,P|250:185|260:233,1,77.0000023498536,2|0,3:2|0:0,0:0:0:0:
181,259,150381,2,0,P|173:221|165:183,1,77.0000023498536,2|0,3:2|1:2,0:0:0:0:
66,164,150713,6,0,P|74:202|101:331,1,154.000004699707,6|0,3:1|3:2,0:0:0:0:
185,357,151210,1,0,1:2:0:0:
185,357,151293,1,0,1:2:0:0:
185,357,151376,2,0,P|229:364|275:373,1,77.0000023498536,0|0,3:2|1:2,0:0:0:0:
320,308,151707,2,0,P|364:315|410:324,1,77.0000023498536,2|4,3:2|0:3,0:0:0:0:
486,364,152039,6,0,B|478:311|478:311|494:264|494:264|484:197,1,154.000004699707,6|2,3:1|3:2,0:0:0:0:
426,153,152536,1,0,0:0:0:0:
358,204,152702,2,0,P|320:196|282:190,1,77.0000023498536,2|0,3:2|0:0,0:0:0:0:
228,125,153033,2,0,P|190:117|152:111,1,77.0000023498536,2|2,3:2|1:2,0:0:0:0:
67,167,153365,6,0,P|87:229|118:328,1,154.000004699707,6|2,3:1|3:2,0:0:0:0:
197,329,153862,1,0,0:0:0:0:
257,269,154028,2,0,P|246:233|231:189,1,77.0000023498536,2|0,3:1|1:2,0:0:0:0:
301,144,154359,2,0,P|313:180|324:217,1,77.0000023498536,2|0,3:2|1:2,0:0:0:0:
423,236,154691,6,0,P|452:176|418:91,1,154.000004699707,6|2,3:1|3:2,0:0:0:0:
358,44,155188,1,2,0:0:0:0:
279,70,155354,1,0,3:2:0:0:
279,70,155519,2,0,P|230:63|185:57,1,77.0000023498536,0|0,0:0|3:2,0:0:0:0:
148,125,155851,1,0,3:2:0:0:
88,47,156017,5,2,3:1:0:0:
29,115,156182,1,8,0:3:0:0:
29,115,156265,1,8,0:3:0:0:
29,115,156348,2,0,P|40:157|50:202,1,77.0000023498536,8|4,0:3|0:3,0:0:0:0:
126,221,156680,2,0,P|114:271|91:364,1,115.50000352478,2|4,3:2|0:3,0:0:0:0:
132,359,157011,2,0,P|187:346|242:335,1,77.0000023498536,8|4,0:3|0:3,0:0:0:0:
263,257,157343,6,0,P|326:237|401:290,1,154.000004699707,6|2,3:1|1:2,0:0:0:0:
431,358,157840,1,0,0:0:0:0:
499,308,158006,2,0,P|493:273|484:220,1,77.0000023498536,2|0,3:2|3:2,0:0:0:0:
419,179,158337,2,0,P|425:144|434:91,1,77.0000023498536,2|0,1:2|0:0,0:0:0:0:
482,15,158669,6,0,P|413:30|318:50,1,154.000004699707,2|2,3:1|1:2,0:0:0:0:
252,16,159166,1,0,0:0:0:0:
187,71,159332,2,0,P|178:114|196:165,1,77.0000023498536,2|0,3:1|3:2,0:0:0:0:
263,178,159663,2,0,P|270:215|260:252,1,77.0000023498536,2|0,1:2|0:0,0:0:0:0:
181,313,159994,6,0,B|77:341|77:341|15:313,2,154.000004699707,2|0|0,3:1|1:2|3:2,0:0:0:0:
262,337,160823,1,0,3:2:0:0:
343,360,160989,2,0,P|385:351|426:342,1,77.0000023498536,2|0,1:2|0:0,0:0:0:0:
507,297,161320,6,0,P|538:244|502:152,1,154.000004699707,2|0,3:1|1:2,0:0:0:0:
441,112,161818,1,0,3:2:0:0:
372,161,161983,2,0,P|344:157|289:148,1,77.0000023498536,0|0,3:2|3:2,0:0:0:0:
232,92,162315,2,0,P|204:96|149:105,1,77.0000023498536,2|0,1:2|0:0,0:0:0:0:
75,163,162646,6,0,P|65:220|46:326,2,154.000004699707,6|0|2,3:1|1:2|3:2,0:0:0:0:
148,119,163475,1,0,3:2:0:0:
214,171,163641,2,0,P|208:209|199:268,1,77.0000023498536,2|0,1:2|0:0,0:0:0:0:
190,346,163972,6,0,P|283:327|374:309,2,154.000004699707,6|2|2,3:1|1:2|3:1,0:0:0:0:
109,374,164801,1,0,3:2:0:0:
32,337,164967,2,0,P|26:293|40:251,1,77.0000023498536,2|0,1:2|0:0,0:0:0:0:
111,197,165298,5,6,3:1:0:0:
111,197,165464,2,0,P|157:203|205:213,1,77.0000023498536,0|0,3:2|0:0,0:0:0:0:
241,274,165796,2,0,P|226:170|214:99,1,154.000004699707,0|0,1:2|3:2,0:0:0:0:
293,82,166293,2,0,P|301:122|312:179,1,77.0000023498536,0|0,1:2|0:0,0:0:0:0:
396,214,166624,5,2,3:2:0:0:
396,214,166790,2,0,P|388:254|377:311,2,77.0000023498536,0|0|0,3:2|1:2|0:0,0:0:0:0:
469,172,167287,1,2,3:2:0:0:
423,100,167453,2,0,L|431:62,2,38.5000011749268,0|2|0,1:2|1:2|1:2,0:0:0:0:
334,137,167785,5,2,1:2:0:0:
334,137,167867,1,0,1:2:0:0:
334,137,167950,2,0,P|299:127|235:110,1,77.0000023498536,6|0,3:1|0:0,0:0:0:0:
181,150,168282,2,0,P|155:228|192:291,1,154.000004699707,2|2,1:2|3:2,0:0:0:0:
263,323,168779,1,0,3:2:0:0:
326,266,168945,2,0,P|363:273|401:280,1,77.0000023498536,2|0,1:2|0:0,0:0:0:0:
493,320,169276,6,0,P|479:258|452:149,2,154.000004699707,2|0|2,3:1|1:2|3:2,0:0:0:0:
425,372,170105,1,0,3:2:0:0:
365,311,170271,2,0,P|327:303|289:296,1,77.0000023498536,2|2,1:2|0:0,0:0:0:0:
236,381,170602,6,0,P|251:334|180:251,1,154.000004699707,6|2,3:1|1:2,0:0:0:0:
111,235,171099,1,0,0:0:0:0:
27,220,171265,2,0,P|19:180|7:128,1,77.0000023498536,2|0,3:1|3:2,0:0:0:0:
83,99,171597,2,0,P|75:59|63:7,1,77.0000023498536,2|0,1:2|0:0,0:0:0:0:
167,21,171928,5,6,3:1:0:0:
234,80,172094,1,0,3:2:0:0:
234,80,172260,2,0,P|293:67|396:48,1,154.000004699707,0|0,1:2|3:2,0:0:0:0:
455,97,172757,2,0,P|443:138|430:189,1,77.0000023498536,0|2,3:2|1:2,0:0:0:0:
365,244,173088,5,0,1:2:0:0:
365,244,173171,1,0,1:2:0:0:
365,244,173254,2,0,P|309:196|227:215,1,154.000004699707,6|0,3:1|1:2,0:0:0:0:
199,285,173751,1,0,0:0:0:0:
128,238,173917,2,0,P|137:198|151:144,1,77.0000023498536,2|0,3:2|3:2,0:0:0:0:
60,160,174249,2,0,P|51:200|37:254,1,77.0000023498536,0|0,1:2|0:0,0:0:0:0:
22,333,174580,6,0,B|76:356|76:356|186:332,1,154.000004699707,6|0,0:3|1:2,0:0:0:0:
257,318,175077,1,0,1:2:0:0:
257,318,175160,1,0,1:2:0:0:
257,318,175243,2,0,P|295:326|360:339,1,77.0000023498536,0|8,1:2|0:3,0:0:0:0:
416,346,175575,2,0,L|403:294,3,38.5000011749268,2|2|2|2,1:2|1:2|1:2|1:2,0:0:0:0:
435,277,175906,6,0,P|454:219|406:138,1,154.000004699707,6|2,3:1|1:2,0:0:0:0:
332,110,176403,1,2,0:0:0:0:
262,158,176569,2,0,P|221:151|177:144,1,77.0000023498536,2|2,3:2|3:2,0:0:0:0:
121,89,176901,1,2,1:2:0:0:
41,148,177066,6,0,P|54:204|77:307,1,154.000004699707,2|2,3:2|3:2,0:0:0:0:
102,378,177564,1,2,1:2:0:0:
172,330,177729,1,2,0:0:0:0:
172,330,177895,2,0,P|163:292|154:255,1,77.0000023498536,2|2,3:2|3:2,0:0:0:0:
237,234,178227,2,0,P|246:272|257:319,1,77.0000023498536,2|2,1:2|0:0,0:0:0:0:
353,339,178558,6,0,P|336:263|318:188,2,154.000004699707,6|0|0,3:1|1:2|3:2,0:0:0:0:
437,346,179387,2,0,P|428:308|419:271,1,77.0000023498536,2|2,3:2|1:2,0:0:0:0:
490,200,179718,6,0,P|509:142|461:61,1,154.000004699707,6|0,3:1|3:2,0:0:0:0:
389,29,180215,2,0,P|349:23|307:38,1,77.0000023498536,0|2,1:2|0:0,0:0:0:0:
256,96,180547,2,0,P|216:102|174:87,1,77.0000023498536,2|2,3:2|3:2,0:0:0:0:
123,29,180878,1,2,1:2:0:0:
49,96,181044,5,2,1:2:0:0:
49,96,181127,1,0,1:2:0:0:
49,96,181210,2,0,B|27:144|27:144|68:268,2,154.000004699707,6|0|0,3:1|1:2|3:2,0:0:0:0:
100,27,182039,1,2,3:2:0:0:
176,61,182204,2,0,P|231:52|285:43,1,77.0000023498536,2|2,1:2|0:0,0:0:0:0:
350,25,182536,6,0,P|341:65|327:127,2,77.0000023498536,6|2|2,3:1|0:0|1:2,0:0:0:0:
434,28,183033,2,0,P|425:68|399:190,1,154.000004699707,2|2,0:0|3:2,0:0:0:0:
429,217,183448,1,2,0:0:0:0:
429,217,183530,2,0,P|420:257|406:319,1,77.0000023498536,2|0,1:2|0:0,0:0:0:0:
318,323,183862,5,6,3:1:0:0:
318,323,184028,2,0,P|326:285|334:247,1,77.0000023498536,0|0,3:2|0:0,0:0:0:0:
262,203,184359,2,0,P|253:243|227:365,1,154.000004699707,2|2,1:2|3:2,0:0:0:0:
144,362,184856,2,0,P|152:324|160:286,1,77.0000023498536,0|0,1:2|0:0,0:0:0:0:
77,230,185188,6,0,P|47:238|-2:250,2,77.0000023498536,2|2|2,3:1|3:2|1:2,0:0:0:0:
129,163,185685,2,0,P|186:143|276:206,1,154.000004699707,2|2,3:2|1:2,0:0:0:0:
319,248,186182,1,8,0:3:0:0:
383,192,186348,1,4,0:3:0:0:
457,255,186514,6,0,P|480:298|457:392,1,140,6|0,3:1|0:0,0:0:0:0:
301,339,187177,2,0,P|256:349|190:360,2,93.3333333333333,2|8|4,1:2|3:0|3:0,0:0:0:0:
397,318,187840,6,0,P|410:262|430:168,1,140,2|0,3:1|0:0,0:0:0:0:
314,63,188503,1,0,1:2:0:0:
314,63,188669,2,0,P|305:103|292:157,2,70,2|2|2,3:2|1:2|0:0,0:0:0:0:
218,85,189166,6,0,P|154:71|98:58,2,105,2|2|2,1:2|0:0|3:2,0:0:0:0:
227,168,189829,6,0,L|235:217,2,46.6666666666667,0|0|8,1:2|1:2|0:3,0:0:0:0:
204,202,190160,2,0,L|217:269,2,46.6666666666667,8|4|4,3:3|0:3|0:3,0:0:0:0:
185,230,190492,6,0,P|195:285|210:380,1,140,6|0,3:1|3:2,0:0:0:0:
375,353,191155,2,0,P|364:283|351:214,1,140,2|0,1:2|3:2,0:0:0:0:
281,153,191652,5,0,1:2:0:0:
281,153,191735,1,0,1:2:0:0:
281,153,191818,2,0,P|245:146|193:135,1,70,6|0,3:1|0:0,0:0:0:0:
139,180,192149,2,0,P|103:173|51:162,1,70,0|0,1:2|0:0,0:0:0:0:
10,226,192481,2,0,P|25:279|35:314,1,70,2|0,3:2|1:2,0:0:0:0:
94,345,192812,2,0,P|103:311|113:277,1,70,8|4,0:3|0:3,0:0:0:0:
203,238,193144,6,0,B|320:213|303:324|412:294,1,224,2|0,0:1|0:0,0:0:0:0:
482,156,194138,5,2,0:0:0:0:
482,156,194304,2,0,P|495:111|394:172,1,315,2|2,0:0|0:0,0:0:0:0:
421,127,206403,6,0,B|322:102|351:196|236:165,1,188.999994232178,6|0,3:2|3:2,0:0:0:0:
183,104,207066,2,0,P|137:85|63:121,1,125.999996154785,2|2,1:2|0:0,0:0:0:0:
7,278,207729,1,0,0:0:0:0:
175,329,208061,2,0,P|156:271|128:196,2,125.999996154785,0|2|2,3:2|1:2|0:0,0:0:0:0:
349,356,209055,6,0,P|377:277|308:173,1,188.999994232178,2|0,3:2|3:2,0:0:0:0:
251,151,209718,2,0,P|196:138|117:122,1,125.999996154785,2|2,1:2|0:0,0:0:0:0:
19,263,210381,2,0,P|80:275|142:289,1,125.999996154785,0|0,0:0|3:2,0:0:0:0:
308,350,211044,5,2,1:2:0:0:
278,266,211210,1,0,1:2:0:0:
248,182,211376,1,4,0:3:0:0:
168,339,211707,5,6,3:1:0:0:
168,339,213033,5,6,3:1:0:0:
168,339,214359,6,0,P|255:320|321:306,1,140,6|2,3:1|1:2,0:0:0:0:
382,340,214856,1,2,1:2:0:0:
455,298,215022,2,0,P|445:257|432:211,1,70,0|0,1:2|1:2,0:0:0:0:
366,184,215354,2,0,P|375:143|389:97,1,70,0|0,1:2|1:2,0:0:0:0:
459,54,215685,5,2,1:2:0:0:
375,27,215851,1,0,1:2:0:0:
375,27,216017,2,0,P|333:38|289:49,1,70,2|0,1:2|1:2,0:0:0:0:
244,100,216348,2,0,P|202:89|158:78,1,70,2|0,1:2|1:2,0:0:0:0:
93,62,216680,2,0,L|106:119,3,35,8|4|2|0,0:3|0:3|3:2|3:2,0:0:0:0:
78,132,217011,6,0,P|61:216|46:293,1,154.000004699707,6|2,3:1|1:2,0:0:0:0:
101,348,217508,1,0,0:0:0:0:
171,301,217674,2,0,P|212:310|264:322,1,77.0000023498536,2|0,3:2|3:2,0:0:0:0:
309,375,218006,2,0,P|350:366|402:354,1,77.0000023498536,2|0,1:2|0:0,0:0:0:0:
477,322,218337,6,0,P|498:255|444:171,1,154.000004699707,2|2,3:1|1:2,0:0:0:0:
384,150,218834,1,0,0:0:0:0:
318,204,219000,2,0,P|283:195|228:182,1,77.0000023498536,2|0,3:1|3:2,0:0:0:0:
180,128,219332,2,0,P|145:137|90:150,1,77.0000023498536,2|0,1:2|0:0,0:0:0:0:
30,212,219663,6,0,B|12:262|12:262|39:374,2,154.000004699707,2|0|0,3:1|1:2|3:2,0:0:0:0:
71,137,220492,1,0,3:2:0:0:
147,173,220657,2,0,P|189:164|230:155,1,77.0000023498536,2|0,1:2|0:0,0:0:0:0:
296,87,220989,6,0,P|265:140|301:232,1,154.000004699707,2|0,3:1|1:2,0:0:0:0:
362,270,221486,1,0,3:2:0:0:
436,229,221652,2,0,P|426:183|415:137,1,77.0000023498536,0|0,3:2|3:2,0:0:0:0:
494,114,221983,2,0,P|484:68|473:22,1,77.0000023498536,2|0,1:2|0:0,0:0:0:0:
376,37,222315,6,0,B|279:16|279:16|220:40,2,154.000004699707,6|0|2,3:1|1:2|3:2,0:0:0:0:
446,85,223144,1,0,3:2:0:0:
374,130,223309,2,0,P|365:167|357:205,1,77.0000023498536,2|0,1:2|0:0,0:0:0:0:
289,279,223641,6,0,P|374:249|437:294,2,154.000004699707,6|2|2,3:1|1:2|3:1,0:0:0:0:
255,357,224470,1,0,3:2:0:0:
182,312,224635,2,0,P|140:317|90:327,1,77.0000023498536,2|0,1:2|0:0,0:0:0:0:
20,373,224967,5,6,3:1:0:0:
20,373,225133,2,0,B|53:333|53:333|25:211,1,154.000004699707,0|0,3:2|3:2,0:0:0:0:
76,162,225630,1,0,1:2:0:0:
150,203,225796,2,0,P|199:213|242:222,1,77.0000023498536,0|0,1:2|3:2,0:0:0:0:
319,175,226127,5,0,1:2:0:0:
319,175,226210,1,0,1:2:0:0:
319,175,226293,1,2,3:2:0:0:
379,234,226459,2,0,P|387:274|398:331,2,77.0000023498536,0|0|0,1:2|3:2|3:2,0:0:0:0:
442,176,226956,2,0,P|449:107|407:55,1,115.50000352478,2|2,1:2|3:2,0:0:0:0:
386,53,227287,1,2,1:2:0:0:
304,106,227453,5,2,1:2:0:0:
304,106,227536,1,0,1:2:0:0:
304,106,227619,2,0,P|263:99|201:88,1,77.0000023498536,6|0,3:1|0:0,0:0:0:0:
143,81,227950,2,0,P|156:143|177:246,1,154.000004699707,2|2,1:2|3:2,0:0:0:0:
129,304,228448,1,0,3:2:0:0:
202,347,228613,2,0,P|239:340|277:333,1,77.0000023498536,2|0,1:2|0:0,0:0:0:0:
357,272,228945,6,0,P|413:284|517:308,2,154.000004699707,2|0|2,3:1|1:2|3:2,0:0:0:0:
300,208,229773,1,0,3:2:0:0:
229,254,229939,2,0,P|236:283|252:354,1,77.0000023498536,2|0,1:2|0:0,0:0:0:0:
151,362,230271,6,0,P|142:324|117:203,1,154.000004699707,6|2,3:1|1:2,0:0:0:0:
168,142,230768,1,0,0:0:0:0:
249,161,230934,2,0,P|284:169|330:179,1,77.0000023498536,2|0,3:1|3:2,0:0:0:0:
386,118,231265,2,0,P|421:126|467:136,1,77.0000023498536,2|0,1:2|0:0,0:0:0:0:
508,222,231597,5,6,3:1:0:0:
446,280,231762,1,0,3:2:0:0:
446,280,231928,2,0,P|387:267|284:248,1,154.000004699707,0|0,1:2|3:2,0:0:0:0:
211,236,232425,2,0,P|201:198|190:161,1,77.0000023498536,0|2,3:2|1:2,0:0:0:0:
176,71,232757,5,0,1:2:0:0:
176,71,232840,1,0,1:2:0:0:
176,71,232923,2,0,P|232:23|316:41,1,154.000004699707,6|0,3:1|1:2,0:0:0:0:
377,81,233420,1,0,1:2:0:0:
324,148,233586,2,0,P|334:184|344:222,1,77.0000023498536,2|0,1:2|1:2,0:0:0:0:
429,223,233917,2,0,P|439:259|449:297,1,77.0000023498536,0|0,1:2|1:2,0:0:0:0:
372,332,234249,6,0,B|328:347|328:347|232:330,1,115.50000352478,2|0,1:2|1:2,0:0:0:0:
225,308,234580,1,0,1:2:0:0:
160,360,234746,1,0,1:2:0:0:
160,360,234829,1,0,1:2:0:0:
160,360,234912,2,0,P|121:353|55:343,1,77.0000023498536,2|8,1:2|0:3,0:0:0:0:
22,288,235243,2,0,L|35:236,3,38.5000011749268,2|2|2|2,3:2|0:0|0:0|0:0,0:0:0:0:
50,211,235575,6,0,P|121:171|191:207,1,154.000004699707,6|2,3:1|1:2,0:0:0:0:
241,258,236072,1,2,0:0:0:0:
302,322,236238,1,0,3:2:0:0:
302,322,236403,2,0,P|345:313|387:306,1,77.0000023498536,2|0,3:2|1:2,0:0:0:0:
457,337,236735,1,2,0:0:0:0:
505,250,236901,6,0,P|508:213|488:169,1,77.0000023498536,2|0,3:1|0:0,0:0:0:0:
419,134,237232,2,0,B|334:114|354:195|255:166,1,154.000004699707,0|2,1:2|3:1,0:0:0:0:
207,121,237729,2,0,P|197:81|179:15,2,77.0000023498536,2|2|2,3:2|1:2|0:0,0:0:0:0:
142,197,238227,6,0,P|129:246|184:331,1,154.000004699707,6|2,3:1|1:2,0:0:0:0:
263,349,238724,1,2,0:0:0:0:
325,292,238890,1,2,3:1:0:0:
325,292,239055,2,0,P|367:300|431:320,1,77.0000023498536,2|0,3:2|1:2,0:0:0:0:
459,369,239387,1,2,0:0:0:0:
502,279,239552,6,0,P|486:197|468:103,1,154.000004699707,2|0,3:1|1:2,0:0:0:0:
402,78,240050,1,0,0:0:0:0:
348,142,240215,2,0,P|356:179|364:217,1,77.0000023498536,2|0,3:2|3:2,0:0:0:0:
287,253,240547,2,0,P|279:215|270:177,1,77.0000023498536,2|0,1:2|0:0,0:0:0:0:
248,79,240878,6,0,B|167:60|183:140|84:111,1,154.000004699707,6|2,3:1|0:0,0:0:0:0:
28,77,241376,2,0,P|70:113|51:232,1,154.000004699707,2|2,1:2|3:2,0:0:0:0:
7,260,241873,1,0,1:2:0:0:
98,313,242039,5,6,3:2:0:0:
98,313,242204,2,0,P|148:302|205:290,1,77.0000023498536,0|0,0:0|3:2,0:0:0:0:
225,229,242536,2,0,P|275:240|332:252,1,77.0000023498536,2|0,1:2|0:0,0:0:0:0:
382,267,242867,2,0,P|375:229|360:169,1,77.0000023498536,2|0,3:2|3:2,0:0:0:0:
412,120,243199,1,2,1:2:0:0:
412,120,243282,1,2,0:0:0:0:
412,120,243365,1,8,0:3:0:0:
489,190,243530,5,6,3:1:0:0:
489,190,243696,2,0,P|497:227|504:265,1,77.0000023498536,0|0,3:2|0:0,0:0:0:0:
463,340,244028,2,0,P|416:331|355:320,1,77.0000023498536,0|0,1:2|0:0,0:0:0:0:
317,276,244359,1,2,3:2:0:0:
246,229,244525,2,0,P|199:220|138:209,1,77.0000023498536,2|2,1:2|0:0,0:0:0:0:
99,144,244856,5,0,3:2:0:0:
32,200,245022,1,0,3:2:0:0:
32,200,245188,2,0,P|25:246|39:286,1,77.0000023498536,2|2,1:2|0:0,0:0:0:0:
98,328,245519,1,2,3:2:0:0:
174,290,245685,1,0,1:2:0:0:
232,352,245851,2,0,P|296:364|339:373,1,77.0000023498536,0|4,3:2|0:3,0:0:0:0:
397,322,246182,5,6,3:2:0:0:
256,192,246265,12,2,251403,0:0:0:0:
