osu file format v14

[General]
AudioFilename: audio.mp3
AudioLeadIn: 0
PreviewTime: 60064
Countdown: 0
SampleSet: Soft
StackLeniency: 0.5
Mode: 0
LetterboxInBreaks: 0
WidescreenStoryboard: 1

[Editor]
DistanceSpacing: 1
BeatDivisor: 4
GridSize: 32
TimelineZoom: 1

[Metadata]
Title:Altern-ate- (TV Size)
TitleUnicode:Altern-ate- (TV Size)
Artist:H-el-ical//
ArtistUnicode:H-el-ical//
Creator:Pepekcz
Version:Nor-mal-
Source:グレイプニル
Tags:gleipnir alternate helical op opening hikaru// hikaru ヘリカル Herikaru anime japanese j-rock jrock rock pop j-pop jpop vocal vocalist female
BeatmapID:3719560
BeatmapSetID:1812331

[Difficulty]
HPDrainRate:4
CircleSize:3.2
OverallDifficulty:4
ApproachRate:5
SliderMultiplier:1
SliderTickRate:1

[Events]
//Background and Video events
0,0,"bg.jpg",0,0
//Break Periods
//Storyboard Layer 0 (Background)
//Storyboard Layer 1 (Fail)
//Storyboard Layer 2 (Pass)
//Storyboard Layer 3 (Foreground)
//Storyboard Layer 4 (Overlay)
//Storyboard Sound Samples

[TimingPoints]
908,375,4,2,1,30,1,0
6908,-100,4,2,1,40,0,0
9908,-100,4,2,1,50,0,0
12345,-125,4,2,1,50,0,0
12908,-100,4,2,1,70,0,0
24908,-111.111111111111,4,2,1,40,0,0
36908,-100,4,2,1,50,0,0
48908,-111.111111111111,4,2,1,60,0,0
54908,-99.9999999999999,4,2,1,60,0,0
60158,-100,4,2,1,40,0,0
60879,387.847446670976,4,2,1,80,1,1
60879,-90.9090909090909,4,2,1,80,0,1
61460,375,4,2,1,80,1,1
61460,-90.9090909090909,4,2,1,80,0,1
62397,375,4,2,1,80,1,1
62397,-90.9090909090909,4,2,1,80,0,1
83397,400,4,2,1,80,1,0
83397,-90.9090909090909,4,2,1,80,0,1
84077,375,4,2,1,80,1,0
84077,-90.9090909090909,4,2,1,80,0,1
84155,379.746835443038,4,2,1,80,1,0
84155,-90.9090909090909,4,2,1,80,0,1
84901,375,4,2,1,70,1,0
84901,-100,4,2,1,70,0,0
90901,-125,4,2,1,50,0,0
93527,357.142857142857,4,2,1,50,1,0
93527,-125,4,2,1,50,0,0

[Colours]
Combo1 : 122,111,107
Combo2 : 211,174,165
Combo3 : 92,67,70
Combo4 : 103,44,74

[HitObjects]
23,20,12908,6,0,P|71:29|86:86,1,100,6|10,1:2|1:2,0:0:0:0:
38,158,13658,1,2,1:2:0:0:
38,158,13845,2,0,L|48:215,1,50,2|8,0:0|1:2,0:0:0:0:
44,257,14220,2,0,P|82:285|145:283,1,100,2|2,0:0|0:0,0:0:0:0:
177,262,14783,1,10,1:2:0:0:
177,262,14970,1,2,0:0:0:0:
253,326,15345,2,0,L|247:375,2,50,2|10|2,0:0|1:2|0:0,0:0:0:0:
288,290,15908,6,0,P|336:306|391:272,1,100,6|10,1:2|1:2,0:0:0:0:
437,206,16658,1,2,1:2:0:0:
437,205,16845,2,0,L|431:148,1,50,2|8,0:0|1:2,0:0:0:0:
422,105,17220,1,2,1:2:0:0:
326,75,17595,2,0,L|320:18,2,50,2|10|2,0:0|1:2|0:0,0:0:0:0:
236,119,18345,1,2,0:0:0:0:
236,119,18533,2,0,P|206:116|176:102,1,50,10|2,1:2|0:0,0:0:0:0:
160,66,18908,6,0,P|118:41|58:43,1,100,6|10,1:2|1:2,0:0:0:0:
8,120,19658,1,2,1:2:0:0:
8,120,19845,2,0,L|26:183,1,50,2|8,0:0|1:2,0:0:0:0:
47,211,20220,2,0,P|94:197|157:178,1,100,2|2,0:0|0:0,0:0:0:0:
194,171,20783,1,10,1:2:0:0:
194,171,20970,1,2,0:0:0:0:
284,127,21345,2,0,L|269:72,2,50,2|10|2,0:0|1:2|0:0,0:0:0:0:
304,172,21908,6,0,B|348:147|348:147|407:161,1,100,6|10,1:2|1:2,0:0:0:0:
467,237,22658,1,2,0:0:0:0:
467,237,22845,2,0,L|452:301,1,50,0|8,0:0|1:2,0:0:0:0:
418,319,23220,2,0,L|369:307,1,50,2|4,0:0|1:2,0:0:0:0:
333,270,23595,2,0,L|344:221,2,50,0|6|2,0:0|1:2|0:0,0:0:0:0:
236,297,24345,2,0,L|225:346,2,50,10|10|10,1:2|1:2|0:3,0:0:0:0:
216,256,24908,6,0,P|139:260|96:212,1,134.999995880127,6|2,1:2|0:0,0:0:0:0:
87,179,25658,1,2,0:0:0:0:
25,65,26220,1,2,0:0:0:0:
25,65,26408,2,0,L|115:47,1,89.9999972534181,2|0,0:0|0:0,0:0:0:0:
159,62,26970,1,0,0:0:0:0:
159,62,27158,2,0,P|227:83|290:105,1,134.999995880127,2|0,0:0|0:0,0:0:0:0:
327,124,27908,6,0,P|267:164|284:235,1,134.999995880127,2|2,0:0|0:0,0:0:0:0:
296,257,28658,1,2,0:0:0:0:
410,337,29220,1,2,0:0:0:0:
410,337,29408,2,0,P|423:286|437:239,1,89.9999972534181,2|0,0:0|0:0,0:0:0:0:
442,208,29970,1,2,0:0:0:0:
442,208,30158,2,0,P|378:209|331:152,1,134.999995880127,2|2,0:0|0:0,0:0:0:0:
326,114,30908,6,0,P|284:70|201:74,1,134.999995880127,2|2,0:0|0:0,0:0:0:0:
144,124,31845,1,2,0:0:0:0:
144,124,32033,1,2,0:0:0:0:
59,92,32408,1,2,0:0:0:0:
26,175,32783,2,0,L|3:267,2,89.9999972534181,2|2|2,0:0|0:0|0:0,0:0:0:0:
59,92,33908,6,0,P|125:35|223:57,1,179.999994506836,2|0,0:0|0:0,0:0:0:0:
286,97,35033,1,2,0:0:0:0:
370,65,35408,2,0,P|389:156|408:250,1,179.999994506836,2|0,0:0|0:0,0:0:0:0:
479,294,36533,2,0,L|467:347,1,44.999998626709,2|2,0:0|0:0,0:0:0:0:
427,365,36908,6,0,P|381:351|315:333,1,100,6|0,1:2|1:2,0:0:0:0:
299,306,37470,1,2,0:0:0:0:
299,306,37658,2,0,P|250:319|202:333,1,100,2|0,1:2|1:2,0:0:0:0:
108,367,38408,1,2,1:2:0:0:
58,280,38783,2,0,L|73:230,1,50,0|2,1:2|0:0,0:0:0:0:
51,186,39158,2,0,P|34:136|15:81,1,100,2|0,1:2|1:2,0:0:0:0:
95,26,39908,6,0,P|139:11|198:40,1,100,2|0,1:2|1:2,0:0:0:0:
218,74,40470,1,2,0:0:0:0:
218,74,40658,2,0,P|262:89|321:60,1,100,2|0,1:2|1:2,0:0:0:0:
398,23,41408,1,2,1:2:0:0:
475,86,41783,2,0,P|486:119|486:138,1,50,0|2,1:2|0:0,0:0:0:0:
458,176,42158,2,0,P|442:206|453:278,1,100,2|0,1:2|1:2,0:0:0:0:
490,360,42908,6,0,L|428:345,1,50,6|0,1:2|0:0,0:0:0:0:
391,356,43283,1,2,1:2:0:0:
391,356,43470,2,0,L|281:325,1,100,2|2,0:0|0:0,0:0:0:0:
246,316,44033,2,0,P|226:267|253:221,1,100,2|0,1:2|1:2,0:0:0:0:
333,180,44783,1,2,1:2:0:0:
375,89,45158,1,2,1:2:0:0:
298,24,45533,1,2,1:2:0:0:
218,84,45908,6,0,P|175:112|123:102,1,100,2|2,1:2|1:2,0:0:0:0:
82,85,46470,2,0,P|71:133|60:182,1,100,2|2,0:0|0:0,0:0:0:0:
38,283,47220,1,2,0:0:0:0:
38,283,47408,2,0,P|69:304|141:299,1,100,2|2,1:2|1:2,0:0:0:0:
176,286,47970,1,2,0:0:0:0:
176,286,48158,1,4,1:2:0:0:
268,246,48533,2,0,L|328:269,1,50,8|8,1:2|1:2,0:0:0:0:
356,280,48908,6,0,P|329:241|401:152,1,179.999994506836,6|10,1:2|1:2,0:0:0:0:
507,7,50408,2,0,P|434:18|365:34,1,134.999995880127,6|0,1:2|1:2,0:0:0:0:
331,45,51158,1,10,1:2:0:0:
281,120,51533,2,0,L|296:178,1,44.999998626709,8|8,0:3|1:2,0:0:0:0:
304,206,51908,6,0,B|253:186|218:221|231:235|193:267|136:250,1,179.999994506836,6|10,1:2|1:2,0:0:0:0:
34,106,53408,2,0,P|69:63|149:71,1,134.999995880127,6|0,1:2|1:2,0:0:0:0:
178,94,54158,1,10,1:2:0:0:
261,127,54533,2,0,L|311:112,1,44.999998626709,8|8,1:2|1:2,0:0:0:0:
339,78,54908,6,0,P|388:61|451:43,1,100,6|2,1:2|1:2,0:0:0:0:
483,57,55470,2,0,P|458:96|468:151,1,100,2|0,0:0|0:0,0:0:0:0:
497,185,56033,1,2,1:2:0:0:
490,284,56408,2,0,B|452:313|452:313|401:306,1,100,2|2,1:2|1:2,0:0:0:0:
357,279,56970,2,0,B|319:250|319:250|268:257,1,100,2|0,0:0|0:0,0:0:0:0:
221,278,57533,2,0,L|166:298,1,50,2|2,1:2|0:0,0:0:0:0:
129,318,57908,5,2,1:2:0:0:
56,249,58283,2,0,L|69:189,1,50,0|2,1:2|0:0,0:0:0:0:
56,150,58658,2,0,P|66:100|78:47,1,100,2|2,1:2|1:2,0:0:0:0:
118,24,59220,1,2,0:0:0:0:
118,24,59408,2,0,P|169:19|210:59,1,100,8|10,1:2|1:2,0:0:0:0:
232,90,59970,1,4,1:2:0:0:
478,20,60879,6,0,B|501:70|501:70|480:130,1,110.000003356934,6|10,1:2|1:2,0:0:0:0:
441,161,61460,2,0,L|376:148,1,55.0000016784668,2|0,0:0|1:2,0:0:0:0:
337,140,61835,1,2,0:0:0:0:
337,140,62022,1,8,1:2:0:0:
271,52,62397,2,0,L|210:65,1,55.0000016784668,2|0,0:0|0:0,0:0:0:0:
165,82,62772,2,0,L|104:69,1,55.0000016784668,10|0,1:2|0:0,0:0:0:0:
57,56,63147,2,0,L|44:117,1,55.0000016784668,2|0,1:2|0:0,0:0:0:0:
33,163,63522,1,10,1:2:0:0:
116,234,63897,5,0,1:2:0:0:
51,323,64272,2,0,L|111:341,1,55.0000016784668,10|0,1:2|1:2,0:0:0:0:
149,371,64647,2,0,L|209:353,1,55.0000016784668,2|0,1:2|0:0,0:0:0:0:
252,334,65022,1,10,1:2:0:0:
334,261,65397,2,0,P|376:295|442:283,1,110.000003356934,2|10,1:2|1:2,0:0:0:0:
455,242,65959,2,0,L|462:187,1,55.0000016784668,2|0,0:0|1:2,0:0:0:0:
472,133,66334,2,0,L|417:126,1,55.0000016784668,2|8,0:0|1:2,0:0:0:0:
375,99,66709,5,10,1:2:0:0:
375,99,66897,2,0,P|323:109|258:123,1,110.000003356934,6|8,1:2|1:2,0:0:0:0:
216,133,67459,1,2,0:0:0:0:
216,133,67647,1,2,1:2:0:0:
119,185,68022,1,10,1:2:0:0:
133,294,68397,2,0,P|184:308|248:329,1,110.000003356934,2|10,1:2|1:2,0:0:0:0:
284,295,68959,1,2,0:0:0:0:
284,295,69147,2,0,L|348:280,1,55.0000016784668,2|0,1:2|0:0,0:0:0:0:
392,275,69522,1,10,1:2:0:0:
492,319,69897,6,0,P|514:276|502:209,1,110.000003356934,4|8,1:2|1:2,0:0:0:0:
455,119,70647,2,0,B|408:92|408:92|348:112,1,110.000003356934,6|8,1:2|1:2,0:0:0:0:
314,145,71209,1,2,0:0:0:0:
314,145,71397,2,0,B|267:172|267:172|207:152,1,110.000003356934,6|8,1:2|1:2,0:0:0:0:
129,83,72147,2,0,L|70:69,1,55.0000016784668,6|8,1:2|1:2,0:0:0:0:
23,88,72522,2,0,L|3:159,1,55.0000016784668,10|8,1:2|1:2,0:0:0:0:
19,195,72897,6,0,P|33:248|49:313,1,110.000003356934,6|10,1:2|1:2,0:0:0:0:
63,353,73459,2,0,L|128:334,1,55.0000016784668,2|0,0:0|1:2,0:0:0:0:
173,327,73834,1,2,0:0:0:0:
173,327,74022,1,8,1:2:0:0:
281,310,74397,2,0,P|312:315|336:324,1,55.0000016784668,2|0,0:0|0:0,0:0:0:0:
375,359,74772,2,0,P|406:354|430:345,1,55.0000016784668,10|0,1:2|0:0,0:0:0:0:
469,309,75147,2,0,L|475:248,1,55.0000016784668,2|2,1:2|0:0,0:0:0:0:
478,199,75522,1,10,1:2:0:0:
502,91,75897,6,0,P|477:59|405:54,1,110.000003356934,0|10,1:2|1:2,0:0:0:0:
339,134,76647,2,0,L|279:121,1,55.0000016784668,2|0,1:2|0:0,0:0:0:0:
232,105,77022,1,10,1:2:0:0:
160,21,77397,2,0,P|106:35|53:49,1,110.000003356934,2|10,1:2|1:2,0:0:0:0:
14,87,77959,2,0,L|26:142,1,55.0000016784668,2|0,0:0|1:2,0:0:0:0:
60,183,78334,2,0,L|48:238,1,55.0000016784668,2|8,0:0|1:2,0:0:0:0:
43,295,78709,5,10,1:2:0:0:
43,295,78897,2,0,B|90:324|90:324|145:303,1,110.000003356934,6|8,1:2|1:2,0:0:0:0:
194,283,79459,1,2,0:0:0:0:
194,283,79647,2,0,B|221:282|221:282|253:300,1,55.0000016784668,2|0,1:2|0:0,0:0:0:0:
283,335,80022,1,10,1:2:0:0:
340,240,80397,2,0,P|332:189|321:116,1,110.000003356934,2|8,1:2|1:2,0:0:0:0:
316,81,80959,1,2,0:0:0:0:
316,81,81147,1,0,0:0:0:0:
425,74,81522,2,0,L|436:142,1,55.0000016784668,10|0,1:2|0:0,0:0:0:0:
466,172,81897,6,0,P|457:224|444:299,1,110.000003356934,6|8,1:2|1:2,0:0:0:0:
376,364,82647,2,0,P|340:328|271:335,1,110.000003356934,0|10,1:2|1:2,0:0:0:0:
239,360,83209,1,2,0:0:0:0:
239,360,83397,2,0,L|173:348,1,55.0000016784668,2|0,1:2|0:0,0:0:0:0:
129,352,83797,2,0,L|63:340,1,55.0000016784668,4|8,1:2|1:2,0:0:0:0:
30,330,84155,2,0,L|42:264,1,55.0000016784668,10|4,1:2|1:2,0:0:0:0:
52,222,84534,1,2,0:0:0:0:
42,124,84901,6,0,P|90:111|139:101,1,100,6|10,1:2|1:2,0:0:0:0:
243,109,85651,1,2,1:2:0:0:
243,109,85838,2,0,L|312:90,1,50,2|8,0:0|1:2,0:0:0:0:
341,91,86213,2,0,P|373:128|368:187,1,100,2|2,0:0|0:0,0:0:0:0:
359,228,86776,1,10,1:2:0:0:
359,228,86963,1,2,0:0:0:0:
310,315,87338,2,0,L|373:333,2,50,2|10|2,0:0|1:2|0:0,0:0:0:0:
260,324,87901,6,0,L|159:347,1,100,6|10,1:2|1:2,0:0:0:0:
79,300,88651,1,6,1:2:0:0:
79,299,88838,2,0,L|70:244,1,50,2|8,0:0|1:2,0:0:0:0:
62,205,89213,1,2,1:2:0:0:
62,205,89401,2,0,L|-2:219,2,50,4|2|10,1:2|0:0|1:2,0:0:0:0:
110,193,89963,1,2,0:0:0:0:
169,112,90338,2,0,L|233:126,2,50,8|8|8,1:2|1:2|0:3,0:0:0:0:
129,103,90901,5,6,1:2:0:0:
256,192,91088,12,6,93705,1:2:0:0:
