osu file format v14

[General]
AudioFilename: audio.mp3
AudioLeadIn: 0
PreviewTime: 60064
Countdown: 0
SampleSet: Soft
StackLeniency: 0.5
Mode: 0
LetterboxInBreaks: 0
WidescreenStoryboard: 0

[Editor]
DistanceSpacing: 0.8
BeatDivisor: 4
GridSize: 32
TimelineZoom: 1

[Metadata]
Title:Altern-ate- (TV Size)
TitleUnicode:Altern-ate- (TV Size)
Artist:H-el-ical//
ArtistUnicode:H-el-ical//
Creator:Pepekcz
Version:Mon-ster-
Source:グレイプニル
Tags:gleipnir alternate helical op opening hikaru// hikaru ヘリカル Herikaru anime japanese j-rock jrock rock pop j-pop jpop vocal vocalist female
BeatmapID:3717666
BeatmapSetID:1812331

[Difficulty]
HPDrainRate:5
CircleSize:4
OverallDifficulty:8.5
ApproachRate:9
SliderMultiplier:1.88
SliderTickRate:1

[Events]
//Background and Video events
0,0,"bg.jpg",0,0
//Break Periods
//Storyboard Layer 0 (Background)
//Storyboard Layer 1 (Fail)
//Storyboard Layer 2 (Pass)
//Storyboard Layer 3 (Foreground)
//Storyboard Layer 4 (Overlay)
//Storyboard Sound Samples

[TimingPoints]
908,375,4,2,1,30,1,0
6908,-100,4,2,1,40,0,0
9908,-100,4,2,1,50,0,0
12345,-166.666666666667,4,2,1,50,0,0
12908,-100,4,2,1,70,0,0
24908,-166.666666666667,4,2,1,40,0,0
36908,-125,4,2,1,50,0,0
48908,-111.111111111111,4,2,1,60,0,0
54908,-111.111111111111,4,2,1,60,0,0
60158,-100,4,2,1,40,0,0
60879,387.847446670976,4,2,1,80,1,1
60879,-90.9090909090909,4,2,1,80,0,1
61460,375,4,2,1,80,1,1
61460,-90.9090909090909,4,2,1,80,0,1
62397,375,4,2,1,80,1,1
62397,-90.9090909090909,4,2,1,80,0,1
83397,400,4,2,1,80,1,0
83397,-90.9090909090909,4,2,1,80,0,1
84077,375,4,2,1,80,1,0
84077,-90.9090909090909,4,2,1,80,0,1
84155,379.746835443038,4,2,1,80,1,0
84155,-90.9090909090909,4,2,1,80,0,1
84901,375,4,2,1,70,1,0
84901,-100,4,2,1,70,0,0
90901,-142.857142857143,4,2,1,50,0,0
93527,357.142857142857,4,2,1,50,1,0

[Colours]
Combo1 : 122,111,107
Combo2 : 211,174,165
Combo3 : 92,67,70
Combo4 : 103,44,74

[HitObjects]
76,120,12345,6,0,B|109:96|131:63|131:63|132:69|132:69|115:92|118:132,1,140.999995697022,2|0,0:0|0:0,0:0:0:0:
192,114,12908,5,6,1:2:0:0:
53,34,13095,1,2,0:0:0:0:
59,218,13283,2,0,P|104:233|155:252,1,94,10|0,1:2|0:0,0:0:0:0:
269,187,13658,5,2,1:2:0:0:
154,257,13845,1,2,0:0:0:0:
253,370,14033,1,8,1:2:0:0:
408,221,14220,6,0,B|353:206|313:235|334:256|292:295|237:270,1,188,2|2,0:0|0:0,0:0:0:0:
64,196,14783,1,10,1:2:0:0:
128,347,14970,1,2,0:0:0:0:
128,347,15064,1,2,0:0:0:0:
128,347,15158,2,0,P|141:298|159:239,1,94,0|2,1:2|0:0,0:0:0:0:
195,110,15533,5,10,1:2:0:0:
257,168,15720,1,2,0:0:0:0:
296,65,15908,5,6,1:2:0:0:
182,185,16095,1,2,0:0:0:0:
301,61,16283,2,0,P|337:35|384:41,1,94,10|0,1:2|0:0,0:0:0:0:
452,198,16658,1,2,1:2:0:0:
355,120,16845,1,2,0:0:0:0:
500,42,17033,1,8,1:2:0:0:
443,110,17220,5,2,1:2:0:0:
443,110,17314,1,0,1:2:0:0:
443,110,17408,1,0,1:2:0:0:
384,41,17595,1,2,0:0:0:0:
281,95,17783,1,10,1:2:0:0:
151,37,17970,2,0,P|168:85|186:138,1,94,2|0,0:0|1:2,0:0:0:0:
186,138,18251,1,8,1:2:0:0:
191,151,18345,1,2,0:0:0:0:
288,242,18533,1,10,1:2:0:0:
113,317,18720,5,2,0:0:0:0:
113,317,18814,1,0,0:0:0:0:
113,317,18908,1,6,1:2:0:0:
201,226,19095,1,2,0:0:0:0:
307,343,19283,2,0,P|250:362|210:377,1,94,10|0,1:2|0:0,0:0:0:0:
288,242,19658,5,2,1:2:0:0:
401,317,19845,1,2,0:0:0:0:
512,216,20033,1,8,1:2:0:0:
396,322,20220,6,0,P|368:238|333:133,1,188,2|2,0:0|0:0,0:0:0:0:
256,29,20783,1,10,1:2:0:0:
445,21,20970,1,2,0:0:0:0:
445,21,21064,1,2,0:0:0:0:
445,21,21158,2,0,P|431:63|416:112,1,94,0|2,1:2|0:0,0:0:0:0:
288,242,21533,1,10,1:2:0:0:
360,312,21720,1,2,0:0:0:0:
179,366,21908,5,6,1:2:0:0:
280,251,22095,1,2,0:0:0:0:
123,176,22283,2,0,P|90:129|104:82,1,94,10|2,1:2|0:0,0:0:0:0:
104,85,22564,1,2,0:0:0:0:
116,78,22658,1,2,0:0:0:0:
224,22,22845,1,0,0:0:0:0:
29,58,23033,5,8,1:2:0:0:
185,123,23220,1,2,0:0:0:0:
45,237,23408,6,0,P|113:256|194:282,1,141,4|0,1:2|0:0,0:0:0:0:
248,242,23783,1,6,1:2:0:0:
345,339,23970,1,2,0:0:0:0:
467,267,24158,5,0,1:2:0:0:
495,243,24251,1,0,1:2:0:0:
507,208,24345,1,10,1:2:0:0:
498,172,24439,1,8,1:2:0:0:
473,143,24533,5,10,1:2:0:0:
440,117,24626,1,8,0:3:0:0:
428,79,24720,1,10,0:3:0:0:
437,40,24814,1,8,0:3:0:0:
453,6,24908,6,0,P|375:26|273:55,1,169.199994836426,6|2,1:2|0:0,0:0:0:0:
225,121,25658,2,0,P|162:103|167:8,1,169.199994836426,2|2,0:0|0:0,0:0:0:0:
283,54,26408,2,0,P|261:124|218:284,1,225.599993115235,2|2,0:0|0:0,0:0:0:0:
108,351,27908,6,0,P|127:293|242:291,1,169.199994836426,2|2,0:0|0:0,0:0:0:0:
307,314,28658,2,0,P|249:295|247:180,1,169.199994836426,2|2,0:0|0:0,0:0:0:0:
256,112,29408,2,0,P|237:170|122:172,1,169.199994836426,2|2,0:0|0:0,0:0:0:0:
131,178,30158,5,2,0:0:0:0:
243,290,30439,5,2,0:0:0:0:
441,206,30720,5,2,0:0:0:0:
380,308,30908,6,0,P|339:275|343:207,1,112.799996557617,2|2,0:0|0:0,0:0:0:0:
448,199,31470,2,0,P|476:163|458:99,1,112.799996557617,2|2,0:0|0:0,0:0:0:0:
363,36,32033,1,2,0:0:0:0:
453,101,32408,5,2,0:0:0:0:
453,101,32783,6,0,P|434:139|444:186,1,84.599997418213,2|0,0:0|0:0,0:0:0:0:
366,210,33158,2,0,P|389:245|435:260,1,84.599997418213,2|0,0:0|0:0,0:0:0:0:
422,342,33533,2,0,P|464:339|500:307,1,84.599997418213,2|0,0:0|0:0,0:0:0:0:
509,234,33908,6,0,P|452:254|288:326,1,225.599993115235,2|0,0:0|0:0,0:0:0:0:
151,361,35033,2,0,P|127:342|116:309,1,56.3999982788086,2|2,0:0|0:0,0:0:0:0:
121,308,35314,1,2,0:0:0:0:
127,298,35408,2,0,P|161:256|39:212,1,225.599993115235,2|0,0:0|0:0,0:0:0:0:
37,350,36533,5,2,0:0:0:0:
118,289,36720,1,2,0:0:0:0:
250,358,36908,6,0,P|282:320|243:226,1,150.4,6|0,1:2|1:2,0:0:0:0:
152,156,37470,1,2,0:0:0:0:
247,227,37658,2,0,B|292:245|324:219|311:211|336:183|390:187,1,150.4,2|0,1:2|1:2,0:0:0:0:
474,258,38220,5,2,0:0:0:0:
392,194,38408,2,0,P|366:264|343:336,1,150.4,2|0,1:2|1:2,0:0:0:0:
460,346,38970,1,2,0:0:0:0:
339,343,39158,2,0,P|296:338|270:308,1,75.2,2|0,1:2|0:0,0:0:0:0:
202,234,39533,2,0,P|229:209|266:207,1,75.2,0|2,1:2|0:0,0:0:0:0:
278,216,39814,5,2,0:0:0:0:
288,226,39908,2,0,P|263:142|242:69,1,150.4,2|0,1:2|1:0,0:0:0:0:
111,130,40470,1,2,0:0:0:0:
196,24,40658,2,0,B|225:28|235:64|235:64|204:34|150:32,1,150.4,2|0,1:2|1:2,0:0:0:0:
111,130,41220,5,2,0:0:0:0:
7,84,41408,2,0,P|28:155|50:227,1,150.4,2|0,1:2|1:2,0:0:0:0:
152,329,41970,1,2,0:0:0:0:
72,375,42158,2,0,P|34:364|-7:355,1,75.2,2|0,1:2|0:0,0:0:0:0:
58,232,42533,2,0,P|94:240|130:250,1,75.2,0|2,1:2|0:0,0:0:0:0:
145,255,42814,5,2,0:0:0:0:
159,258,42908,2,0,P|136:204|202:154,1,150.4,6|2,1:2|1:2,0:0:0:0:
287,226,43470,2,0,P|264:294|239:380,1,150.4,2|2,0:0|0:0,0:0:0:0:
408,325,44033,2,0,P|377:299|337:294,1,75.2,2|0,1:2|0:0,0:0:0:0:
496,378,44408,5,0,1:2:0:0:
496,378,44783,2,0,P|495:318|456:265,1,112.8,2|0,1:2|0:0,0:0:0:0:
512,212,45158,2,0,P|459:182|394:190,1,112.8,2|0,1:2|0:0,0:0:0:0:
367,113,45533,2,0,P|324:139|310:176,1,75.2,2|0,1:2|0:0,0:0:0:0:
319,173,45814,5,0,0:0:0:0:
327,185,45908,2,0,P|281:203|166:254,1,150.4,2|2,1:2|1:2,0:0:0:0:
85,336,46470,2,0,P|61:313|56:270,1,75.2,2|0,0:0|1:2,0:0:0:0:
116,201,46845,2,0,P|140:178|145:135,1,75.2,2|0,0:0|1:2,0:0:0:0:
63,35,47220,5,2,0:0:0:0:
63,35,47314,1,0,0:0:0:0:
63,35,47408,2,0,B|16:26|16:26|89:71,1,112.8,2|0,1:2|0:0,0:0:0:0:
142,35,47783,1,2,1:2:0:0:
234,98,47970,1,2,0:0:0:0:
356,19,48158,1,4,1:2:0:0:
226,113,48345,5,8,1:2:0:0:
226,144,48439,1,8,1:2:0:0:
241,171,48533,1,8,1:2:0:0:
266,189,48626,1,8,1:2:0:0:
297,194,48720,1,8,1:2:0:0:
326,184,48814,1,8,1:2:0:0:
347,161,48908,6,0,B|293:136|254:151|230:188|236:189|240:193|218:241|175:261|109:228,1,253.799992254639,6|0,1:2|0:0,0:0:0:0:
11,169,49658,2,0,L|27:226,1,42.2999987091065,10|0,1:2|0:0,0:0:0:0:
180,323,50408,6,0,P|115:321|92:377,2,126.899996127319,6|0|0,1:2|1:2|1:2,0:0:0:0:
262,373,51158,5,10,1:2:0:0:
316,285,51345,1,0,0:0:0:0:
233,243,51533,1,8,0:3:0:0:
320,143,51720,5,8,1:2:0:0:
320,143,51814,1,8,0:3:0:0:
320,143,51908,2,0,P|229:158|285:61,1,253.799992254639,6|0,1:2|0:0,0:0:0:0:
407,76,52658,2,0,L|392:125,1,42.2999987091065,10|0,1:2|0:0,0:0:0:0:
361,222,53408,6,0,P|416:238|419:309,2,126.899996127319,6|0|0,1:2|1:2|1:2,0:0:0:0:
284,266,54158,1,10,1:2:0:0:
159,104,54533,5,8,1:2:0:0:
154,83,54626,1,8,1:2:0:0:
160,62,54720,1,8,1:2:0:0:
172,44,54814,1,8,1:2:0:0:
191,36,54908,6,0,P|169:109|137:226,1,169.199994836426,6|2,1:2|1:2,0:0:0:0:
75,245,55470,1,2,0:0:0:0:
162,284,55658,2,0,P|171:241|137:198,1,84.599997418213,0|0,1:2|0:0,0:0:0:0:
61,329,56033,1,2,1:2:0:0:
151,368,56220,1,2,0:0:0:0:
264,298,56408,6,0,B|313:284|349:310|330:329|367:364|417:341,1,169.199994836426,2|2,1:2|1:2,0:0:0:0:
414,235,56970,2,0,P|370:256|431:332,1,169.199994836426,2|0,0:0|0:0,0:0:0:0:
502,251,57533,1,2,1:2:0:0:
457,170,57720,1,2,0:0:0:0:
512,59,57908,6,0,P|435:33|346:7,1,169.199994836426,2|0,1:2|1:2,0:0:0:0:
241,47,58470,1,2,0:0:0:0:
306,151,58658,1,2,1:2:0:0:
353,86,58845,1,2,0:0:0:0:
226,163,59033,1,2,1:2:0:0:
276,231,59220,1,2,0:0:0:0:
241,47,59408,6,0,P|208:21|166:19,1,84.599997418213,8|0,1:2|1:2,0:0:0:0:
155,26,59689,1,8,1:2:0:0:
148,36,59783,1,10,1:2:0:0:
24,28,59970,1,4,1:2:0:0:
24,28,60879,6,0,B|60:54|84:90|84:90|85:84|85:84|66:58|70:14,1,155.100004733277,6|0,1:2|0:0,0:0:0:0:
148,36,61266,1,10,1:2:0:0:
66,166,61460,1,2,0:0:0:0:
144,264,61647,1,0,1:2:0:0:
74,355,61835,1,2,0:0:0:0:
142,183,62022,1,8,1:2:0:0:
263,314,62210,5,0,1:2:0:0:
263,314,62303,1,0,1:2:0:0:
263,314,62397,2,0,P|313:308|348:272,1,103.400003155518,2|0,0:0|0:0,0:0:0:0:
366,114,62772,2,0,B|411:114|419:168|419:168|380:119|304:125,1,206.800006311035,10|2,1:2|1:2,0:0:0:0:
428,185,63334,1,0,0:0:0:0:
302,128,63522,2,0,P|288:199|277:254,1,103.400003155518,10|0,1:2|0:0,0:0:0:0:
368,353,63897,6,0,B|321:385|265:346|288:320|235:281|179:316,1,206.800006311035,0|10,1:2|1:2,0:0:0:0:
23,376,64459,1,0,1:2:0:0:
23,376,64553,1,0,1:2:0:0:
23,376,64647,2,0,P|-8:338|2:279,1,103.400003155518,2|0,1:2|0:0,0:0:0:0:
162,216,65022,2,0,P|193:254|183:313,1,103.400003155518,10|0,1:2|0:0,0:0:0:0:
56,185,65397,5,2,1:2:0:0:
172,121,65584,1,2,0:0:0:0:
172,121,65678,1,2,0:0:0:0:
172,121,65772,1,10,1:2:0:0:
313,214,65959,2,0,B|340:182|340:182|283:205,1,103.400003155518,2|0,0:0|1:2,0:0:0:0:
273,210,66240,1,8,1:2:0:0:
264,216,66334,1,2,0:0:0:0:
88,370,66522,5,8,1:2:0:0:
113,349,66615,1,8,1:2:0:0:
120,317,66709,1,10,1:2:0:0:
108,286,66803,1,10,1:2:0:0:
82,265,66897,6,0,P|155:289|298:336,1,206.800006311035,6|8,1:2|1:2,0:0:0:0:
448,363,67459,1,2,0:0:0:0:
379,257,67647,1,2,1:2:0:0:
454,146,67834,1,0,1:2:0:0:
454,146,67928,1,0,1:2:0:0:
454,146,68022,2,0,P|440:89|425:31,1,103.400003155518,10|0,1:2|0:0,0:0:0:0:
271,8,68397,6,0,P|346:24|316:88,1,155.100004733277,2|0,1:2|0:0,0:0:0:0:
257,107,68772,1,10,1:2:0:0:
323,211,68959,1,2,0:0:0:0:
260,325,69147,2,0,B|227:325|217:367|217:367|250:336|309:333,1,155.100004733277,2|0,1:2|0:0,0:0:0:0:
374,369,69522,2,0,P|321:351|367:279,1,155.100004733277,10|0,1:2|0:0,0:0:0:0:
431,260,69897,6,0,B|384:292|328:253|351:227|298:188|242:223,1,206.800006311035,4|8,1:2|1:2,0:0:0:0:
87,258,70459,5,2,0:0:0:0:
87,258,70553,1,2,0:0:0:0:
87,258,70647,2,0,B|134:223|165:176|165:176|167:184|167:184|142:218|147:276,1,206.800006311035,6|8,1:2|1:2,0:0:0:0:
175,160,71209,1,2,0:0:0:0:
79,267,71397,6,0,P|58:202|29:104,1,155.100004733277,6|0,1:2|0:0,0:0:0:0:
16,8,71772,2,0,P|73:8|105:42,1,103.400003155518,8|8,1:2|0:3,0:0:0:0:
108,48,72053,1,8,0:3:0:0:
113,56,72147,1,6,1:2:0:0:
193,190,72334,5,8,1:2:0:0:
221,220,72428,1,8,1:2:0:0:
262,230,72522,1,10,1:2:0:0:
303,218,72615,1,8,1:2:0:0:
330,186,72709,1,8,1:2:0:0:
337,144,72803,1,8,1:2:0:0:
320,104,72897,6,0,P|343:178|365:253,1,155.100004733277,6|0,1:2|0:0,0:0:0:0:
421,301,73272,1,10,1:2:0:0:
270,378,73459,1,2,0:0:0:0:
270,378,73553,1,0,0:0:0:0:
270,378,73647,1,0,1:2:0:0:
142,241,73834,1,2,0:0:0:0:
276,294,74022,1,8,1:2:0:0:
172,340,74209,1,2,1:2:0:0:
248,185,74397,6,0,P|268:144|246:92,1,103.400003155518,2|0,0:0|0:0,0:0:0:0:
88,60,74772,2,0,B|135:92|191:53|168:27|221:-12|277:23,1,206.800006311035,10|2,1:2|1:2,0:0:0:0:
389,136,75334,1,2,0:0:0:0:
389,136,75428,1,2,0:0:0:0:
389,136,75522,2,0,P|341:103|342:58,1,103.400003155518,10|0,1:2|0:0,0:0:0:0:
504,89,75897,6,0,P|473:187|440:296,1,206.800006311035,0|10,1:2|1:2,0:0:0:0:
280,366,76459,1,0,1:2:0:0:
280,366,76553,1,0,1:2:0:0:
280,366,76647,2,0,P|241:325|252:267,1,103.400003155518,2|0,1:2|0:0,0:0:0:0:
105,223,77022,2,0,P|121:168|176:149,1,103.400003155518,10|0,1:2|0:0,0:0:0:0:
317,138,77397,5,2,1:2:0:0:
187,226,77584,1,2,0:0:0:0:
187,226,77678,1,2,0:0:0:0:
187,226,77772,1,10,1:2:0:0:
2,160,77959,2,0,P|14:210|26:260,1,103.400003155518,2|0,0:0|1:2,0:0:0:0:
29,270,78240,1,0,1:2:0:0:
32,279,78334,1,2,0:0:0:0:
199,353,78522,5,8,1:2:0:0:
228,366,78615,1,10,1:2:0:0:
260,360,78709,1,10,1:2:0:0:
283,336,78803,1,10,1:2:0:0:
292,303,78897,6,0,P|266:248|381:244,1,206.800006311035,6|8,1:2|1:2,0:0:0:0:
402,292,79459,1,2,0:0:0:0:
506,240,79647,2,0,B|470:214|446:178|446:178|445:184|445:184|464:210|460:254,1,155.100004733277,2|0,1:2|0:0,0:0:0:0:
402,292,80022,2,0,P|447:251|421:167,1,155.100004733277,10|0,1:2|0:0,0:0:0:0:
264,130,80397,6,0,B|311:162|367:123|344:97|397:58|453:93,1,206.800006311035,2|8,1:2|1:2,0:0:0:0:
453,241,80959,2,0,P|424:152|514:133,1,206.800006311035,2|0,0:0|0:0,0:0:0:0:
510,310,81522,2,0,P|463:326|401:352,1,103.400003155518,10|0,1:2|0:0,0:0:0:0:
241,281,81897,6,0,B|214:249|214:249|271:272,1,103.400003155518,6|0,1:2|0:0,0:0:0:0:
330,359,82272,2,0,P|308:271|278:152,1,206.800006311035,8|0,1:2|1:2,0:0:0:0:
387,77,82834,5,0,0:0:0:0:
197,141,83022,1,10,1:2:0:0:
255,81,83209,1,2,0:0:0:0:
119,114,83397,6,0,P|93:188|71:262,1,155.100004733277,2|0,1:2|0:0,0:0:0:0:
108,329,83797,1,4,1:2:0:0:
0,202,83997,5,8,1:2:0:0:
2,193,84077,1,8,1:2:0:0:
4,185,84155,1,10,1:2:0:0:
119,114,84344,1,4,1:2:0:0:
45,28,84534,1,2,0:0:0:0:
205,148,84901,5,6,1:2:0:0:
333,68,85088,1,2,0:0:0:0:
199,156,85276,2,0,P|215:207|232:255,1,94,10|0,1:2|0:0,0:0:0:0:
343,295,85651,5,2,1:2:0:0:
230,368,85838,1,2,0:0:0:0:
126,234,86026,1,8,1:2:0:0:
238,376,86213,6,0,P|329:345|428:312,1,188,2|2,0:0|0:0,0:0:0:0:
366,207,86776,1,10,1:2:0:0:
481,371,86963,1,2,0:0:0:0:
481,371,87057,1,2,0:0:0:0:
481,371,87151,2,0,P|494:322|512:263,1,94,0|2,1:2|0:0,0:0:0:0:
385,129,87526,5,10,1:2:0:0:
447,187,87713,1,2,0:0:0:0:
279,293,87901,5,6,1:2:0:0:
366,207,88088,1,2,0:0:0:0:
267,68,88276,2,0,B|240:36|240:36|297:59,1,94,10|0,1:2|0:0,0:0:0:0:
447,187,88651,1,6,1:2:0:0:
305,132,88838,1,2,0:0:0:0:
184,239,89026,1,8,1:2:0:0:
355,344,89213,5,2,1:2:0:0:
355,344,89307,1,0,1:2:0:0:
355,344,89401,1,4,1:2:0:0:
271,240,89588,1,2,0:0:0:0:
102,285,89776,1,10,1:2:0:0:
217,341,89963,5,2,0:0:0:0:
152,162,90151,1,4,1:2:0:0:
378,54,90338,5,8,1:2:0:0:
351,92,90431,1,8,1:2:0:0:
349,139,90525,1,8,1:2:0:0:
369,164,90619,5,8,0:3:0:0:
387,190,90712,1,8,0:3:0:0:
389,223,90806,1,8,0:3:0:0:
384,242,90901,6,0,L|453:267,1,65.7999979919434,6|2,1:2|0:0,0:0:0:0:
419,339,91276,2,0,L|357:316,1,65.7999979919434,2|2,0:0|0:0,0:0:0:0:
275,251,91651,5,2,0:0:0:0:
203,292,91838,1,2,0:0:0:0:
126,187,92026,1,2,0:0:0:0:
204,209,92213,1,2,0:0:0:0:
68,282,92401,6,0,P|55:250|37:206,1,65.7999979919434,2|2,0:0|0:0,0:0:0:0:
130,179,92776,2,0,P|143:147|161:103,1,65.7999979919434,2|2,0:0|0:0,0:0:0:0:
71,33,93151,5,2,0:0:0:0:
159,108,93338,1,2,0:0:0:0:
208,50,93527,1,2,0:0:0:0:
50,137,93705,5,6,1:2:0:0:
