osu file format v14

[General]
AudioFilename: audio.mp3
AudioLeadIn: 0
PreviewTime: 60064
Countdown: 0
SampleSet: Soft
StackLeniency: 0.5
Mode: 0
LetterboxInBreaks: 0
WidescreenStoryboard: 1

[Editor]
DistanceSpacing: 1.1
BeatDivisor: 4
GridSize: 32
TimelineZoom: 1

[Metadata]
Title:Altern-ate- (TV Size)
TitleUnicode:Altern-ate- (TV Size)
Artist:H-el-ical//
ArtistUnicode:H-el-ical//
Creator:Pepekcz
Version:Ha-rd-
Source:グレイプニル
Tags:gleipnir alternate helical op opening hikaru// hikaru ヘリカル Herikaru anime japanese j-rock jrock rock pop j-pop jpop vocal vocalist female
BeatmapID:3719472
BeatmapSetID:1812331

[Difficulty]
HPDrainRate:4.4
CircleSize:3.6
OverallDifficulty:6.5
ApproachRate:7.5
SliderMultiplier:1.4
SliderTickRate:1

[Events]
//Background and Video events
0,0,"bg.jpg",0,0
//Break Periods
//Storyboard Layer 0 (Background)
//Storyboard Layer 1 (Fail)
//Storyboard Layer 2 (Pass)
//Storyboard Layer 3 (Foreground)
//Storyboard Layer 4 (Overlay)
//Storyboard Sound Samples

[TimingPoints]
908,375,4,2,1,30,1,0
6908,-100,4,2,1,40,0,0
9908,-100,4,2,1,50,0,0
12345,-125,4,2,1,50,0,0
12908,-100,4,2,1,70,0,0
24908,-166.666666666667,4,2,1,40,0,0
36908,-125,4,2,1,50,0,0
48908,-111.111111111111,4,2,1,60,0,0
54908,-111.111111111111,4,2,1,60,0,0
60158,-100,4,2,1,40,0,0
60879,387.847446670976,4,2,1,80,1,1
60879,-83.3333333333333,4,2,1,80,0,1
61460,375,4,2,1,80,1,1
61460,-83.3333333333333,4,2,1,80,0,1
62397,375,4,2,1,80,1,1
62397,-83.3333333333333,4,2,1,80,0,1
83397,400,4,2,1,80,1,0
83397,-83.3333333333333,4,2,1,80,0,1
84077,375,4,2,1,80,1,0
84077,-83.3333333333333,4,2,1,80,0,1
84155,379.746835443038,4,2,1,80,1,0
84155,-83.3333333333333,4,2,1,80,0,1
84901,375,4,2,1,70,1,0
84901,-100,4,2,1,70,0,0
90901,-125,4,2,1,50,0,0
93527,357.142857142857,4,2,1,50,1,0
93527,-125,4,2,1,50,0,0

[Colours]
Combo1 : 122,111,107
Combo2 : 211,174,165
Combo3 : 92,67,70
Combo4 : 103,44,74

[HitObjects]
22,380,12908,6,0,P|31:344|44:296,1,70,6|2,1:2|0:0,0:0:0:0:
98,242,13283,2,0,P|84:192|67:124,1,105,10|0,1:2|0:0,0:0:0:0:
66,123,13658,1,2,1:2:0:0:
52,32,13845,2,0,P|85:41|118:52,1,70,2|8,0:0|1:2,0:0:0:0:
196,104,14220,6,0,B|268:116|256:60|332:72,1,140,2|2,0:0|0:0,0:0:0:0:
417,107,14783,1,10,1:2:0:0:
417,107,14970,2,0,P|435:183|453:258,1,140,2|2,0:0|0:0,0:0:0:0:
430,332,15533,1,10,1:2:0:0:
328,272,15720,5,2,0:0:0:0:
310,268,15814,1,0,0:0:0:0:
292,265,15908,2,0,P|238:287|209:300,1,70,6|2,1:2|0:0,0:0:0:0:
160,354,16283,2,0,P|121:328|124:261,1,105,10|0,1:2|0:0,0:0:0:0:
128,260,16658,1,2,1:2:0:0:
179,185,16845,2,0,L|250:200,1,70,2|8,0:0|1:2,0:0:0:0:
310,268,17220,6,0,P|376:247|444:228,1,140,2|2,1:2|0:0,0:0:0:0:
497,155,17783,1,10,1:2:0:0:
497,155,17970,1,2,0:0:0:0:
449,77,18158,2,0,L|463:34,2,35,0|8|2,1:2|1:2|0:0,0:0:0:0:
375,130,18533,2,0,P|340:126|310:108,1,70,10|2,1:2|0:0,0:0:0:0:
298,95,18814,5,0,0:0:0:0:
286,82,18908,2,0,P|251:86|221:104,1,70,6|2,1:2|0:0,0:0:0:0:
161,172,19283,2,0,P|111:159|46:145,1,105,10|0,1:2|0:0,0:0:0:0:
41,144,19658,1,2,1:2:0:0:
5,227,19845,2,0,L|28:307,1,70,2|8,0:0|1:2,0:0:0:0:
86,360,20220,6,0,P|113:323|217:333,1,140,2|2,0:0|0:0,0:0:0:0:
292,348,20783,1,10,1:2:0:0:
292,348,20970,2,0,P|300:310|312:269,1,70,2|0,0:0|1:2,0:0:0:0:
256,211,21345,1,2,0:0:0:0:
256,211,21532,2,0,P|247:173|236:132,1,70,10|2,1:2|0:0,0:0:0:0:
283,63,21908,6,0,P|312:45|353:45,1,70,6|2,1:2|0:0,0:0:0:0:
427,86,22283,2,0,P|443:138|459:198,1,105,10|2,1:2|0:0,0:0:0:0:
461,203,22658,1,2,1:2:0:0:
452,293,22845,2,0,P|416:303|374:317,1,70,2|8,0:0|1:2,0:0:0:0:
267,353,23220,5,2,0:0:0:0:
267,353,23408,2,0,P|233:342|199:332,1,70,4|2,1:2|0:0,0:0:0:0:
118,367,23783,1,6,1:2:0:0:
118,367,23970,1,2,0:0:0:0:
35,328,24158,1,0,1:2:0:0:
26,308,24251,1,0,1:2:0:0:
27,287,24345,1,10,1:2:0:0:
39,269,24439,1,8,1:2:0:0:
51,252,24533,2,0,L|39:202,3,35,10|8|10|8,1:2|0:3|0:3|0:3,0:0:0:0:
35,207,24908,6,0,P|18:127|-2:40,1,167.999994873047,6|2,1:2|0:0,0:0:0:0:
176,18,26220,1,2,0:0:0:0:
176,18,26408,2,0,P|136:32|131:109,1,125.999996154785,2|2,0:0|0:0,0:0:0:0:
187,162,27158,2,0,P|247:143|308:128,1,125.999996154785,2|0,0:0|0:0,0:0:0:0:
374,83,27908,6,0,P|424:97|426:201,1,167.999994873047,2|2,0:0|0:0,0:0:0:0:
311,329,29220,1,2,0:0:0:0:
311,329,29408,2,0,P|218:303|177:291,1,125.999996154785,2|2,0:0|0:0,0:0:0:0:
116,328,30158,2,0,P|96:303|95:258,2,62.9999980773926,2|2|2,0:0|0:0|0:0,0:0:0:0:
177,379,30908,6,0,P|255:352|342:325,1,167.999994873047,2|0,0:0|0:0,0:0:0:0:
446,368,32033,1,2,0:0:0:0:
504,265,32408,1,2,0:0:0:0:
396,217,32783,2,0,P|355:206|314:196,2,83.9999974365235,2|2|2,0:0|0:0|0:0,0:0:0:0:
459,118,33908,6,0,B|390:159|334:108|361:84|300:23|232:60,1,251.999992309571,2|2,0:0|0:0,0:0:0:0:
141,123,35408,2,0,P|97:126|76:19,1,167.999994873047,2|0,0:0|0:0,0:0:0:0:
315,220,36908,6,0,P|397:242|483:268,1,168,6|2,1:2|0:0,0:0:0:0:
454,341,37658,2,0,P|403:325|332:305,1,112,2|0,1:2|1:2,0:0:0:0:
274,338,38220,1,2,0:0:0:0:
274,338,38408,2,0,P|211:356|164:372,1,112,2|0,1:2|1:2,0:0:0:0:
91,349,38970,1,2,0:0:0:0:
91,349,39158,1,2,1:2:0:0:
141,200,39533,1,0,1:2:0:0:
34,84,39908,6,0,P|84:32|177:42,1,168,2|2,1:2|0:0,0:0:0:0:
224,99,40658,2,0,P|261:129|338:125,1,112,2|0,1:2|1:2,0:0:0:0:
379,77,41220,1,2,0:0:0:0:
379,77,41408,2,0,P|416:47|493:51,1,112,2|0,1:2|1:2,0:0:0:0:
512,119,41970,1,2,0:0:0:0:
512,119,42158,1,2,1:2:0:0:
415,242,42533,1,0,1:2:0:0:
495,376,42908,6,0,P|440:364|381:352,1,112,6|2,1:2|1:2,0:0:0:0:
309,371,43470,2,0,P|271:343|279:275,1,112,2|2,0:0|0:0,0:0:0:0:
318,218,44033,2,0,P|332:190|329:156,1,56,2|0,1:2|0:0,0:0:0:0:
296,95,44408,1,0,1:2:0:0:
141,119,44783,2,0,P|127:68|111:9,2,112,2|2|2,1:2|1:2|1:2,0:0:0:0:
24,223,45908,6,0,P|77:222|124:261,1,112,2|2,1:2|1:2,0:0:0:0:
152,329,46470,2,0,P|182:345|224:346,1,56,2|0,0:0|1:2,0:0:0:0:
272,309,46845,2,0,P|296:295|323:290,1,56,2|0,0:0|1:2,0:0:0:0:
400,323,47220,1,2,0:0:0:0:
400,323,47408,2,0,P|443:297|442:220,1,112,2|2,1:2|1:2,0:0:0:0:
405,154,47970,1,2,0:0:0:0:
405,154,48158,1,4,1:2:0:0:
453,93,48345,1,8,1:2:0:0:
456,79,48439,1,8,1:2:0:0:
460,65,48533,2,0,L|426:57,3,28,8|8|8|8,1:2|1:2|1:2|1:2,0:0:0:0:
409,29,48908,6,0,P|330:48|221:78,1,188.999994232178,6|0,1:2|0:0,0:0:0:0:
156,33,49658,1,10,1:2:0:0:
156,33,50408,6,0,P|107:21|43:7,2,94.499997116089,6|0|0,1:2|1:2|1:2,0:0:0:0:
247,77,51158,2,0,L|315:53,2,62.9999980773926,10|0|8,1:2|0:0|0:3,0:0:0:0:
152,140,51720,5,8,1:2:0:0:
146,154,51814,1,8,0:3:0:0:
141,168,51908,2,0,B|115:220|151:261|167:247|205:290|184:337,1,188.999994232178,6|0,1:2|0:0,0:0:0:0:
80,375,52658,1,10,1:2:0:0:
80,375,53408,6,0,P|49:352|44:290,2,94.499997116089,6|0|0,1:2|1:2|1:2,0:0:0:0:
156,344,54158,1,10,1:2:0:0:
318,366,54533,2,0,L|357:354,3,31.4999990386963,8|8|8|8,1:2|1:2|1:2|1:2,0:0:0:0:
363,353,54908,6,0,P|334:297|366:235,1,125.999996154785,6|2,1:2|1:2,0:0:0:0:
438,242,55470,2,0,P|467:186|435:124,1,125.999996154785,2|0,0:0|0:0,0:0:0:0:
405,65,56033,1,2,1:2:0:0:
405,65,56220,1,2,0:0:0:0:
331,102,56408,6,0,P|284:90|228:77,1,94.499997116089,2|0,1:2|0:0,0:0:0:0:
223,76,56783,1,2,1:2:0:0:
161,22,56970,2,0,P|98:36|27:56,1,125.999996154785,2|0,0:0|0:0,0:0:0:0:
8,130,57533,1,2,1:2:0:0:
8,130,57720,1,2,0:0:0:0:
69,184,57908,6,0,P|112:231|84:302,1,125.999996154785,2|0,1:2|1:2,0:0:0:0:
66,364,58470,1,2,0:0:0:0:
66,364,58658,2,0,L|133:381,1,62.9999980773926,2|2,1:2|0:0,0:0:0:0:
196,335,59033,2,0,L|257:319,1,62.9999980773926,2|2,1:2|0:0,0:0:0:0:
335,344,59408,6,0,L|396:360,1,62.9999980773926,8|0,1:2|1:2,0:0:0:0:
410,366,59689,1,8,1:2:0:0:
425,370,59783,1,10,1:2:0:0:
486,316,59970,1,4,1:2:0:0:
486,316,60879,6,0,P|453:273|382:274,1,125.999996154785,6|0,1:2|0:0,0:0:0:0:
371,281,61266,1,10,1:2:0:0:
291,334,61460,2,0,L|199:358,1,83.9999974365235,2|0,0:0|1:2,0:0:0:0:
124,334,61835,1,2,0:0:0:0:
124,334,62022,1,8,1:2:0:0:
40,373,62210,5,0,1:2:0:0:
35,356,62303,1,0,1:2:0:0:
32,339,62397,2,0,L|54:237,1,83.9999974365235,2|0,0:0|0:0,0:0:0:0:
2,177,62772,2,0,P|17:92|34:8,1,167.999994873047,10|2,1:2|1:2,0:0:0:0:
125,5,63334,1,0,0:0:0:0:
194,65,63522,2,0,L|180:161,1,83.9999974365235,10|0,1:2|0:0,0:0:0:0:
273,158,63897,6,0,L|284:71,1,83.9999974365235,0|0,1:2|0:0,0:0:0:0:
364,29,64272,1,10,1:2:0:0:
450,60,64459,1,0,1:2:0:0:
445,76,64553,1,0,1:2:0:0:
439,92,64647,2,0,L|424:178,1,83.9999974365235,2|0,1:2|0:0,0:0:0:0:
501,226,65022,2,0,L|485:316,1,83.9999974365235,10|0,1:2|0:0,0:0:0:0:
408,358,65397,6,0,B|319:372|337:315|244:329,1,167.999994873047,2|10,1:2|1:2,0:0:0:0:
164,371,65959,2,0,P|137:340|146:294,1,83.9999974365235,2|0,0:0|1:2,0:0:0:0:
150,285,66240,1,8,1:2:0:0:
162,273,66334,1,2,0:0:0:0:
237,219,66522,1,8,1:2:0:0:
253,212,66615,1,8,1:2:0:0:
270,212,66709,1,10,1:2:0:0:
284,221,66803,1,10,1:2:0:0:
295,234,66897,6,0,P|357:216|460:188,1,167.999994873047,6|8,1:2|1:2,0:0:0:0:
495,104,67459,1,2,0:0:0:0:
410,65,67647,2,0,L|323:86,1,83.9999974365235,2|0,1:2|1:2,0:0:0:0:
245,45,68022,2,0,L|163:24,1,83.9999974365235,10|0,1:2|0:0,0:0:0:0:
70,23,68397,6,0,P|130:73|88:154,1,167.999994873047,2|10,1:2|1:2,0:0:0:0:
24,195,68959,1,2,0:0:0:0:
24,195,69147,2,0,L|41:281,1,83.9999974365235,2|0,1:2|0:0,0:0:0:0:
87,357,69522,2,0,L|171:335,1,83.9999974365235,10|0,1:2|0:0,0:0:0:0:
277,272,69897,6,0,B|368:257|349:315|445:300,1,167.999994873047,4|8,1:2|1:2,0:0:0:0:
495,190,70459,1,2,0:0:0:0:
504,175,70553,1,2,0:0:0:0:
505,157,70647,2,0,P|431:134|341:109,1,167.999994873047,6|8,1:2|1:2,0:0:0:0:
267,161,71209,1,2,0:0:0:0:
178,74,71397,6,0,P|139:53|97:53,1,83.9999974365235,6|0,1:2|0:0,0:0:0:0:
16,91,71772,2,0,P|-2:135|5:177,1,83.9999974365235,8|8,1:2|0:3,0:0:0:0:
12,183,72053,1,8,0:3:0:0:
26,191,72147,1,6,1:2:0:0:
105,237,72334,1,8,1:2:0:0:
100,253,72428,1,8,1:2:0:0:
96,269,72522,2,0,L|86:313,3,41.9999987182618,10|8|8|8,1:2|1:2|1:2|1:2,0:0:0:0:
83,326,72897,6,0,P|132:336|218:360,1,125.999996154785,6|0,1:2|0:0,0:0:0:0:
221,361,73272,1,10,1:2:0:0:
281,291,73459,2,0,P|311:274|368:280,1,83.9999974365235,2|0,0:0|1:2,0:0:0:0:
426,347,73834,1,2,0:0:0:0:
426,347,74022,1,8,1:2:0:0:
506,302,74209,5,2,1:2:0:0:
502,283,74303,1,0,1:2:0:0:
499,265,74397,2,0,L|482:172,1,83.9999974365235,2|0,0:0|0:0,0:0:0:0:
494,90,74772,2,0,P|444:43|345:60,1,167.999994873047,10|2,1:2|1:2,0:0:0:0:
288,123,75334,1,2,0:0:0:0:
216,64,75522,2,0,L|131:45,1,83.9999974365235,10|0,1:2|0:0,0:0:0:0:
63,102,75897,6,0,P|28:151|51:214,1,125.999996154785,0|0,1:2|0:0,0:0:0:0:
63,212,76272,1,10,1:2:0:0:
153,229,76459,1,0,1:2:0:0:
169,235,76553,1,0,1:2:0:0:
185,229,76647,2,0,P|213:208|267:204,1,83.9999974365235,2|0,1:2|0:0,0:0:0:0:
339,251,77022,2,0,P|383:244|415:215,1,83.9999974365235,10|0,1:2|0:0,0:0:0:0:
475,151,77397,6,0,P|490:220|509:320,1,167.999994873047,2|10,1:2|1:2,0:0:0:0:
440,378,77959,2,0,L|353:363,1,83.9999974365235,2|0,0:0|1:2,0:0:0:0:
340,361,78240,1,0,1:2:0:0:
322,358,78334,1,2,0:0:0:0:
234,328,78522,1,8,1:2:0:0:
217,322,78615,1,8,1:2:0:0:
199,324,78709,1,10,1:2:0:0:
183,332,78803,1,10,1:2:0:0:
169,343,78897,6,0,B|77:328|96:386|0:372,1,167.999994873047,6|8,1:2|1:2,0:0:0:0:
0,280,79459,1,2,0:0:0:0:
67,217,79647,2,0,P|79:180|59:134,1,83.9999974365235,2|0,1:2|0:0,0:0:0:0:
7,65,80022,2,0,P|56:31|129:41,1,125.999996154785,10|0,1:2|0:0,0:0:0:0:
127,50,80397,6,0,P|193:99|282:91,1,167.999994873047,2|8,1:2|1:2,0:0:0:0:
346,35,80959,2,0,P|424:-6|513:17,1,167.999994873047,2|0,0:0|0:0,0:0:0:0:
481,99,81522,2,0,P|471:136|459:183,1,83.9999974365235,10|0,1:2|0:0,0:0:0:0:
510,257,81897,6,0,P|500:294|488:341,1,83.9999974365235,6|0,1:2|0:0,0:0:0:0:
398,358,82272,2,0,B|306:372|325:314|228:328,1,167.999994873047,8|0,1:2|1:2,0:0:0:0:
154,362,82834,1,0,0:0:0:0:
81,313,83022,1,10,1:2:0:0:
81,313,83209,1,2,0:0:0:0:
104,229,83397,6,0,P|140:191|214:203,1,125.999996154785,2|0,1:2|0:0,0:0:0:0:
218,212,83797,1,4,1:2:0:0:
296,260,83997,1,8,1:2:0:0:
313,267,84077,1,8,1:2:0:0:
330,265,84155,1,10,1:2:0:0:
414,229,84344,2,0,L|430:144,1,83.9999974365235,4|2,1:2|0:0,0:0:0:0:
307,14,84901,6,0,P|269:14|235:36,1,70,6|2,1:2|0:0,0:0:0:0:
196,104,85276,2,0,P|146:129|97:113,1,105,10|0,1:2|0:0,0:0:0:0:
87,104,85651,1,2,1:2:0:0:
15,160,85838,2,0,L|38:237,1,70,2|8,0:0|1:2,0:0:0:0:
19,317,86213,6,0,B|91:329|79:273|155:285,1,140,2|2,0:0|0:0,0:0:0:0:
226,336,86776,1,10,1:2:0:0:
226,336,86963,2,0,P|282:367|363:345,1,140,2|2,0:0|0:0,0:0:0:0:
417,285,87526,1,10,1:2:0:0:
381,201,87713,5,2,0:0:0:0:
373,185,87807,1,0,0:0:0:0:
377,168,87901,2,0,P|397:127|387:93,1,70,6|2,1:2|0:0,0:0:0:0:
334,34,88276,2,0,P|283:25|220:17,1,105,10|0,1:2|0:0,0:0:0:0:
212,19,88651,1,6,1:2:0:0:
153,88,88838,2,0,L|171:162,1,70,2|8,0:0|1:2,0:0:0:0:
273,227,89213,6,0,P|257:293|236:385,1,140,2|2,1:2|0:0,0:0:0:0:
154,334,89776,1,10,1:2:0:0:
154,334,89963,1,2,0:0:0:0:
41,384,90151,1,4,1:2:0:0:
11,298,90338,1,8,1:2:0:0:
17,281,90432,1,8,1:2:0:0:
25,265,90526,2,0,L|14:215,3,35,8|8|8|8,1:2|0:3|0:3|0:3,0:0:0:0:
22,217,90901,6,0,L|48:95,1,112,6|2,1:2|0:0,0:0:0:0:
102,53,91463,1,2,0:0:0:0:
102,53,91651,2,0,P|131:55|168:67,1,56,2|2,0:0|0:0,0:0:0:0:
208,121,92026,2,0,P|237:119|274:107,1,56,2|2,0:0|0:0,0:0:0:0:
329,70,92401,6,0,P|365:68|408:132,1,112,2|2,0:0|0:0,0:0:0:0:
367,190,92963,1,2,0:0:0:0:
367,190,93151,2,0,L|383:262,1,56,2|2,0:0|0:0,0:0:0:0:
406,340,93526,1,2,0:0:0:0:
406,340,93705,5,6,1:2:0:0:
