osu file format v14

[General]
AudioFilename: audio.mp3
AudioLeadIn: 0
PreviewTime: 60064
Countdown: 0
SampleSet: Soft
StackLeniency: 0.5
Mode: 0
LetterboxInBreaks: 0
WidescreenStoryboard: 1

[Editor]
DistanceSpacing: 1
BeatDivisor: 4
GridSize: 32
TimelineZoom: 1

[Metadata]
Title:Altern-ate- (TV Size)
TitleUnicode:Altern-ate- (TV Size)
Artist:H-el-ical//
ArtistUnicode:H-el-ical//
Creator:Pepekcz
Version:Eas-y-
Source:グレイプニル
Tags:gleipnir alternate helical op opening hikaru// hikaru ヘリカル Herikaru anime japanese j-rock jrock rock pop j-pop jpop vocal vocalist female
BeatmapID:3719587
BeatmapSetID:1812331

[Difficulty]
HPDrainRate:3
CircleSize:3
OverallDifficulty:3
ApproachRate:4
SliderMultiplier:0.9
SliderTickRate:1

[Events]
//Background and Video events
0,0,"bg.jpg",0,0
//Break Periods
//Storyboard Layer 0 (Background)
//Storyboard Layer 1 (Fail)
//Storyboard Layer 2 (Pass)
//Storyboard Layer 3 (Foreground)
//Storyboard Layer 4 (Overlay)
//Storyboard Sound Samples

[TimingPoints]
908,375,4,2,1,30,1,0
6908,-100,4,2,1,40,0,0
9908,-100,4,2,1,50,0,0
12345,-100,4,2,1,50,0,0
12908,-100,4,2,1,70,0,0
24908,-111.111111111111,4,2,1,40,0,0
36908,-100,4,2,1,50,0,0
48908,-100,4,2,1,60,0,0
60158,-100,4,2,1,40,0,0
60879,387.847446670976,4,2,1,80,1,1
60879,-100,4,2,1,80,0,1
61460,375,4,2,1,80,1,1
61460,-100,4,2,1,80,0,1
62397,375,4,2,1,80,1,1
62397,-100,4,2,1,80,0,1
83397,400,4,2,1,80,1,0
83397,-100,4,2,1,80,0,1
84077,375,4,2,1,80,1,0
84077,-100,4,2,1,80,0,1
84155,379.746835443038,4,2,1,80,1,0
84155,-100,4,2,1,80,0,1
84901,375,4,2,1,70,1,0
84901,-100,4,2,1,70,0,0
90901,-100,4,2,1,50,0,0
93527,357.142857142857,4,2,1,50,1,0
93527,-100,4,2,1,50,0,0

[Colours]
Combo1 : 122,111,107
Combo2 : 211,174,165
Combo3 : 92,67,70
Combo4 : 103,44,74

[HitObjects]
23,381,12908,6,0,P|66:364|121:343,1,90,6|10,1:2|1:2,0:0:0:0:
173,287,13658,2,0,P|215:303|256:319,1,90,2|8,1:2|1:2,0:0:0:0:
342,349,14408,2,0,P|396:310|368:195,1,180,0|0,1:2|1:2,0:0:0:0:
320,143,15533,1,10,1:2:0:0:
374,71,15908,6,0,P|331:56|279:39,1,90,6|10,1:2|1:2,0:0:0:0:
204,75,16658,2,0,P|161:89|118:103,1,90,2|8,1:2|1:2,0:0:0:0:
36,141,17408,2,0,L|71:275,1,135,0|2,1:2|0:0,0:0:0:0:
142,324,18345,2,0,L|190:308,1,45,2|10,0:0|1:2,0:0:0:0:
271,333,18908,6,0,P|311:353|361:348,1,90,6|10,1:2|1:2,0:0:0:0:
418,286,19658,2,0,P|438:246|433:196,1,90,2|8,1:2|1:2,0:0:0:0:
371,138,20408,2,0,P|291:97|197:140,1,180,0|0,1:2|1:2,0:0:0:0:
148,190,21533,1,10,1:2:0:0:
66,151,21908,6,0,P|78:108|92:57,1,90,6|10,1:2|1:2,0:0:0:0:
170,23,22658,2,0,P|214:33|267:47,1,90,2|8,1:2|1:2,0:0:0:0:
333,92,23408,1,4,1:2:0:0:
410,46,23783,1,6,1:2:0:0:
472,111,24158,2,0,P|446:197|423:284,1,180,0|6,1:2|1:2,0:0:0:0:
277,356,25658,6,0,P|236:334|185:341,1,80.9999975280763,2|0,0:0|0:0,0:0:0:0:
123,351,26408,2,0,P|104:264|82:172,1,161.999995056153,2|2,0:0|0:0,0:0:0:0:
21,44,27908,1,2,0:0:0:0:
177,86,28658,2,0,P|220:73|263:62,1,80.9999975280763,2|0,0:0|0:0,0:0:0:0:
334,80,29408,2,0,B|378:95|414:67|403:54|437:29|485:43,1,161.999995056153,2|2,0:0|0:0,0:0:0:0:
508,203,30908,6,0,P|489:263|464:347,1,121.499996292114,2|2,0:0|0:0,0:0:0:0:
354,351,32033,2,0,P|315:355|274:328,1,80.9999975280763,2|2,0:0|0:0,0:0:0:0:
215,285,32783,1,2,0:0:0:0:
253,213,33158,2,0,L|274:125,1,80.9999975280763,2|2,0:0|0:0,0:0:0:0:
280,53,33908,2,0,L|181:27,1,80.9999975280763,2|2,0:0|0:0,0:0:0:0:
71,129,35033,1,2,0:0:0:0:
95,206,35408,2,0,B|139:189|174:217|163:231|197:256|244:241,1,161.999995056153,2|0,0:0|0:0,0:0:0:0:
322,219,36533,1,2,0:0:0:0:
406,248,36908,6,0,P|419:203|439:148,1,90,6|0,1:2|1:2,0:0:0:0:
474,81,37658,2,0,P|438:54|386:55,1,90,2|0,1:2|1:2,0:0:0:0:
316,97,38408,2,0,P|246:148|151:113,1,180,2|2,1:2|1:2,0:0:0:0:
90,68,39533,1,0,1:2:0:0:
19,123,39908,6,0,P|33:182|61:314,1,180,2|2,1:2|1:2,0:0:0:0:
126,357,41033,1,0,1:2:0:0:
194,298,41408,2,0,P|209:214|231:116,1,180,2|2,1:2|1:2,0:0:0:0:
279,46,42533,1,0,1:2:0:0:
362,12,42908,6,0,P|432:12|486:69,1,135,6|2,1:2|0:0,0:0:0:0:
501,140,43845,2,0,L|487:194,1,45,2|2,0:0|1:2,0:0:0:0:
473,272,44408,1,0,1:2:0:0:
386,246,44783,2,0,P|342:256|299:269,1,90,2|2,1:2|1:2,0:0:0:0:
222,317,45533,1,2,1:2:0:0:
136,288,45908,6,0,P|159:232|113:171,1,135,2|2,1:2|0:0,0:0:0:0:
59,108,46845,1,2,0:0:0:0:
175,39,47408,2,0,P|217:50|281:70,1,90,2|2,1:2|1:2,0:0:0:0:
344,99,48158,1,4,1:2:0:0:
430,74,48533,1,8,1:2:0:0:
487,143,48908,6,0,P|462:228|361:234,1,180,6|10,1:2|1:2,0:0:0:0:
223,156,50408,2,0,P|182:131|134:132,1,90,6|0,1:2|0:0,0:0:0:0:
65,179,51158,1,10,1:2:0:0:
40,265,51533,1,8,0:3:0:0:
99,332,51908,6,0,P|183:312|281:292,1,180,6|10,1:2|1:2,0:0:0:0:
309,116,53408,2,0,P|352:123|406:138,1,90,6|0,1:2|0:0,0:0:0:0:
466,192,54158,1,10,1:2:0:0:
428,273,54533,1,8,1:2:0:0:
436,362,54908,6,0,P|372:348|297:337,1,135,6|2,1:2|0:0,0:0:0:0:
198,252,56033,1,2,1:2:0:0:
126,307,56408,2,0,P|81:298|37:290,1,90,2|2,1:2|1:2,0:0:0:0:
13,203,57158,1,0,1:2:0:0:
60,126,57533,1,2,1:2:0:0:
40,38,57908,6,0,P|130:30|202:103,1,180,2|2,1:2|1:2,0:0:0:0:
258,148,59033,1,2,1:2:0:0:
347,135,59408,2,0,P|333:200|317:276,1,135,5|2,1:2|0:0,0:0:0:0:
504,379,60879,6,0,P|490:314|474:238,1,135,5|2,1:2|0:0,0:0:0:0:
490,158,61835,2,0,L|476:104,1,45,2|8,0:0|1:2,0:0:0:0:
405,61,62397,1,2,0:0:0:0:
328,107,62772,2,0,P|281:111|231:86,1,90,10|2,1:2|1:2,0:0:0:0:
174,35,63522,1,10,1:2:0:0:
91,73,63897,5,0,1:2:0:0:
1,74,64272,2,0,P|13:115|29:171,1,90,10|2,1:2|1:2,0:0:0:0:
8,248,65022,1,10,1:2:0:0:
89,286,65397,2,0,P|161:292|217:241,1,135,2|2,1:2|0:0,0:0:0:0:
249,175,66334,2,0,L|259:122,1,45,2|8,0:0|1:2,0:0:0:0:
289,46,66897,6,0,P|373:27|442:93,1,180,6|2,1:2|1:2,0:0:0:0:
482,162,68022,1,10,1:2:0:0:
499,250,68397,2,0,P|488:292|476:342,1,90,2|10,1:2|1:2,0:0:0:0:
392,367,69147,1,2,1:2:0:0:
309,330,69522,1,10,1:2:0:0:
221,350,69897,6,0,P|172:357|135:343,1,90,4|8,1:2|1:2,0:0:0:0:
60,291,70647,2,0,P|43:243|55:200,1,90,6|8,1:2|1:2,0:0:0:0:
85,122,71397,2,0,P|133:105|175:117,1,90,6|8,1:2|1:2,0:0:0:0:
242,167,72147,1,6,1:2:0:0:
325,134,72522,1,10,1:2:0:0:
405,173,72897,6,0,P|432:113|397:46,1,135,6|2,1:2|0:0,0:0:0:0:
322,19,73834,2,0,L|273:30,1,45,2|8,0:0|1:2,0:0:0:0:
195,65,74397,1,2,0:0:0:0:
111,31,74772,1,10,1:2:0:0:
39,85,75147,2,0,P|50:128|60:172,1,90,2|10,1:2|1:2,0:0:0:0:
83,259,75897,5,0,1:2:0:0:
154,203,76272,2,0,P|192:183|251:194,1,90,10|2,1:2|1:2,0:0:0:0:
315,232,77022,1,10,1:2:0:0:
397,196,77397,2,0,P|410:259|427:347,1,135,2|2,1:2|0:0,0:0:0:0:
339,359,78334,2,0,L|275:373,1,45,2|8,0:0|1:2,0:0:0:0:
223,313,78897,6,0,B|235:276|212:247|202:256|181:227|193:188,1,135,6|2,1:2|1:2,0:0:0:0:
230,163,79647,1,0,0:0:0:0:
286,92,80022,1,10,1:2:0:0:
217,35,80397,2,0,P|173:21|117:46,1,90,2|8,1:2|1:2,0:0:0:0:
59,86,81147,1,0,1:2:0:0:
93,169,81522,1,10,1:2:0:0:
47,246,81897,6,0,P|137:277|231:312,1,180,6|0,1:2|1:2,0:0:0:0:
295,262,83022,1,10,1:2:0:0:
354,321,83397,2,0,P|388:342|449:333,1,90,2|4,1:2|1:2,0:0:0:0:
485,270,84155,2,0,P|506:236|497:175,1,90,10|2,1:2|0:0,0:0:0:0:
451,116,84901,6,0,P|407:125|363:137,1,90,6|10,1:2|1:2,0:0:0:0:
317,214,85651,2,0,P|273:223|229:235,1,90,2|8,1:2|1:2,0:0:0:0:
143,260,86401,2,0,P|75:222|84:113,1,180,0|0,1:2|1:2,0:0:0:0:
125,55,87526,1,10,1:2:0:0:
202,100,87901,6,0,P|247:109|302:120,1,90,6|10,1:2|1:2,0:0:0:0:
358,58,88651,2,0,P|402:49|446:40,1,90,6|8,1:2|1:2,0:0:0:0:
511,102,89401,1,4,1:2:0:0:
472,183,89776,1,10,1:2:0:0:
499,268,90151,2,0,P|431:324|345:309,1,180,4|6,1:2|1:2,0:0:0:0:
256,192,91088,12,6,93705,1:2:0:0:
