osu file format v14

[General]
AudioFilename: audio.mp3
AudioLeadIn: 0
PreviewTime: 57204
Countdown: 0
SampleSet: Normal
StackLeniency: 0
Mode: 1
LetterboxInBreaks: 0
WidescreenStoryboard: 0

[Editor]
Bookmarks: 19184,57204,76214,114234,133244,152254
DistanceSpacing: 0.1
BeatDivisor: 4
GridSize: 32
TimelineZoom: 3.099999

[Metadata]
Title:Vor der Tuer
TitleUnicode:Vor der Tür
Artist:Gzuz
ArtistUnicode:Gzuz
Creator:Genjuro
Version:Oni
Source:
Tags:german deutsch hip hop hiphop hip-hop rap trap tur 187 straßenbande strassenbande
BeatmapID:3564521
BeatmapSetID:1412628

[Difficulty]
HPDrainRate:5.5
CircleSize:2
OverallDifficulty:5.5
ApproachRate:10
SliderMultiplier:2.8
SliderTickRate:1

[Events]
//Background and Video events
0,0,"bg.jpg",0,0
//Break Periods
//Storyboard Layer 0 (Background)
//Storyboard Layer 1 (Fail)
//Storyboard Layer 2 (Pass)
//Storyboard Layer 3 (Foreground)
//Storyboard Layer 4 (Overlay)
//Storyboard Sound Samples

[TimingPoints]
175,594.059405940594,4,1,0,20,1,0
9605,-100,4,1,0,40,0,0
18516,-100,4,1,0,70,0,0
27724,-100,4,1,0,50,0,0
28615,-100,4,1,0,70,0,0
33368,-100,4,1,0,50,0,0
38120,-100,4,1,0,70,0,0
50001,-100,4,1,0,50,0,0
52377,-100,4,1,0,70,0,0
57204,-100,4,1,0,70,0,1
66709,-100,4,1,0,70,0,0
69085,-100,4,1,0,70,0,1
76214,-100,4,1,0,70,0,0
83269,-100,4,1,0,50,0,0
85645,-100,4,1,0,70,0,0
111783,-100,4,1,0,60,0,0
114160,-100,4,1,0,70,0,0
114234,-100,4,1,0,70,0,1
123739,-100,4,1,0,70,0,0
126115,-100,4,1,0,70,0,1
133244,-100,4,1,0,70,0,0

[HitObjects]
256,192,9679,5,0,0:0:0:0:
256,192,10274,1,8,0:0:0:0:
256,192,11016,1,8,0:0:0:0:
256,192,11165,1,0,0:0:0:0:
256,192,11462,1,8,0:0:0:0:
256,192,12056,1,0,0:0:0:0:
256,192,12650,1,8,0:0:0:0:
256,192,13392,1,8,0:0:0:0:
256,192,13541,1,0,0:0:0:0:
256,192,13615,1,0,0:0:0:0:
256,192,13689,1,0,0:0:0:0:
256,192,13838,1,8,0:0:0:0:
256,192,13986,1,8,0:0:0:0:
256,192,14135,1,8,0:0:0:0:
256,192,14432,1,0,0:0:0:0:
256,192,15026,1,8,0:0:0:0:
256,192,15769,1,8,0:0:0:0:
256,192,15917,1,0,0:0:0:0:
256,192,16214,1,8,0:0:0:0:
256,192,16808,1,0,0:0:0:0:
256,192,17402,1,8,0:0:0:0:
256,192,18145,1,8,0:0:0:0:
256,192,18293,1,0,0:0:0:0:
256,192,18368,1,0,0:0:0:0:
256,192,18442,1,0,0:0:0:0:
256,192,18590,1,8,0:0:0:0:
256,192,18739,1,0,0:0:0:0:
256,192,18887,1,8,0:0:0:0:
256,192,19036,1,8,0:0:0:0:
256,192,19184,1,4,0:0:0:0:
256,192,19407,1,8,0:0:0:0:
256,192,19481,1,8,0:0:0:0:
256,192,19630,1,0,0:0:0:0:
256,192,19778,1,8,0:0:0:0:
256,192,19927,1,0,0:0:0:0:
256,192,20001,1,0,0:0:0:0:
256,192,20075,1,8,0:0:0:0:
256,192,20224,1,8,0:0:0:0:
256,192,20373,1,0,0:0:0:0:
256,192,20818,1,0,0:0:0:0:
256,192,20967,1,8,0:0:0:0:
256,192,21041,1,8,0:0:0:0:
256,192,21115,1,0,0:0:0:0:
256,192,21264,1,8,0:0:0:0:
256,192,21412,1,8,0:0:0:0:
256,192,21561,1,0,0:0:0:0:
256,192,21858,1,8,0:0:0:0:
256,192,22006,1,8,0:0:0:0:
256,192,22080,1,0,0:0:0:0:
256,192,22155,1,8,0:0:0:0:
256,192,22303,1,0,0:0:0:0:
256,192,22452,1,8,0:0:0:0:
256,192,22526,1,8,0:0:0:0:
256,192,22600,1,0,0:0:0:0:
256,192,22749,1,8,0:0:0:0:
256,192,23046,1,0,0:0:0:0:
256,192,23120,1,0,0:0:0:0:
256,192,23194,1,0,0:0:0:0:
256,192,23343,1,8,0:0:0:0:
256,192,23491,1,0,0:0:0:0:
256,192,23640,1,8,0:0:0:0:
256,192,23788,1,8,0:0:0:0:
256,192,23937,1,4,0:0:0:0:
256,192,24234,1,0,0:0:0:0:
256,192,24531,1,8,0:0:0:0:
256,192,24679,1,0,0:0:0:0:
256,192,24754,1,0,0:0:0:0:
256,192,24828,1,8,0:0:0:0:
256,192,24976,1,8,0:0:0:0:
256,192,25125,1,0,0:0:0:0:
256,192,25422,1,8,0:0:0:0:
256,192,25719,1,0,0:0:0:0:
256,192,25868,1,8,0:0:0:0:
256,192,25942,1,8,0:0:0:0:
256,192,26016,1,0,0:0:0:0:
256,192,26165,1,0,0:0:0:0:
256,192,26313,1,8,0:0:0:0:
256,192,26610,1,8,0:0:0:0:
256,192,26759,1,0,0:0:0:0:
256,192,26907,1,8,0:0:0:0:
256,192,27056,1,0,0:0:0:0:
256,192,27130,1,8,0:0:0:0:
256,192,27278,1,8,0:0:0:0:
256,192,27353,1,0,0:0:0:0:
256,192,27501,1,8,0:0:0:0:
256,192,27798,1,0,0:0:0:0:
256,192,27947,1,0,0:0:0:0:
256,192,28095,1,8,0:0:0:0:
256,192,28244,1,0,0:0:0:0:
256,192,28392,1,8,0:0:0:0:
256,192,28541,1,8,0:0:0:0:
256,192,28689,1,4,0:0:0:0:
256,192,28986,1,8,0:0:0:0:
256,192,29135,1,0,0:0:0:0:
256,192,29209,1,0,0:0:0:0:
256,192,29283,1,8,0:0:0:0:
256,192,29432,1,8,0:0:0:0:
256,192,29506,1,8,0:0:0:0:
256,192,29580,1,0,0:0:0:0:
256,192,29729,1,8,0:0:0:0:
256,192,30026,1,8,0:0:0:0:
256,192,30323,1,0,0:0:0:0:
256,192,30472,1,8,0:0:0:0:
256,192,30546,1,0,0:0:0:0:
256,192,30620,1,8,0:0:0:0:
256,192,30769,1,0,0:0:0:0:
256,192,30917,1,0,0:0:0:0:
256,192,31066,1,8,0:0:0:0:
256,192,31363,1,8,0:0:0:0:
256,192,31511,1,8,0:0:0:0:
256,192,31660,1,0,0:0:0:0:
256,192,31734,1,0,0:0:0:0:
256,192,31808,1,8,0:0:0:0:
256,192,31957,1,0,0:0:0:0:
256,192,32105,1,8,0:0:0:0:
256,192,32402,1,8,0:0:0:0:
256,192,32551,1,0,0:0:0:0:
256,192,32625,1,0,0:0:0:0:
256,192,32699,1,0,0:0:0:0:
256,192,32848,1,8,0:0:0:0:
256,192,32996,1,0,0:0:0:0:
256,192,33145,1,8,0:0:0:0:
256,192,33442,1,0,0:0:0:0:
256,192,33590,1,0,0:0:0:0:
256,192,33887,1,0,0:0:0:0:
256,192,35818,1,0,0:0:0:0:
256,192,37303,1,0,0:0:0:0:
256,192,37377,1,0,0:0:0:0:
256,192,37452,1,0,0:0:0:0:
256,192,37600,1,8,0:0:0:0:
256,192,38194,1,4,0:0:0:0:
256,192,38640,1,8,0:0:0:0:
256,192,38788,1,0,0:0:0:0:
256,192,38863,1,0,0:0:0:0:
256,192,38937,1,8,0:0:0:0:
256,192,39085,1,0,0:0:0:0:
256,192,39234,1,0,0:0:0:0:
256,192,39382,1,8,0:0:0:0:
256,192,39605,1,8,0:0:0:0:
256,192,39679,1,0,0:0:0:0:
256,192,39828,1,0,0:0:0:0:
256,192,39976,1,8,0:0:0:0:
256,192,40125,1,8,0:0:0:0:
256,192,40199,1,8,0:0:0:0:
256,192,40274,1,0,0:0:0:0:
256,192,40422,1,0,0:0:0:0:
256,192,40571,1,8,0:0:0:0:
256,192,40719,1,0,0:0:0:0:
256,192,40793,1,0,0:0:0:0:
256,192,40868,1,8,0:0:0:0:
256,192,40942,1,8,0:0:0:0:
256,192,41016,1,0,0:0:0:0:
256,192,41165,1,8,0:0:0:0:
256,192,41462,1,0,0:0:0:0:
256,192,41610,1,8,0:0:0:0:
256,192,41759,1,0,0:0:0:0:
256,192,42056,1,0,0:0:0:0:
256,192,42130,1,0,0:0:0:0:
256,192,42204,1,0,0:0:0:0:
256,192,42353,1,8,0:0:0:0:
256,192,42501,1,0,0:0:0:0:
256,192,42650,1,8,0:0:0:0:
256,192,42798,1,8,0:0:0:0:
256,192,42947,1,4,0:0:0:0:
256,192,43392,1,8,0:0:0:0:
256,192,43541,1,8,0:0:0:0:
256,192,43615,1,0,0:0:0:0:
256,192,43689,1,8,0:0:0:0:
256,192,43838,1,0,0:0:0:0:
256,192,43986,1,0,0:0:0:0:
256,192,44135,1,8,0:0:0:0:
256,192,44209,1,8,0:0:0:0:
256,192,44283,1,0,0:0:0:0:
256,192,44432,1,8,0:0:0:0:
256,192,44580,1,8,0:0:0:0:
256,192,44729,1,0,0:0:0:0:
256,192,45026,1,0,0:0:0:0:
256,192,45175,1,0,0:0:0:0:
256,192,45323,1,8,0:0:0:0:
256,192,45472,1,0,0:0:0:0:
256,192,45546,1,0,0:0:0:0:
256,192,45620,1,8,0:0:0:0:
256,192,45769,1,8,0:0:0:0:
256,192,45917,1,0,0:0:0:0:
256,192,46066,1,8,0:0:0:0:
256,192,46140,1,8,0:0:0:0:
256,192,46214,1,0,0:0:0:0:
256,192,46363,1,0,0:0:0:0:
256,192,46511,1,8,0:0:0:0:
256,192,46808,1,0,0:0:0:0:
256,192,46882,1,0,0:0:0:0:
256,192,46957,1,0,0:0:0:0:
256,192,47105,1,8,0:0:0:0:
256,192,47254,1,0,0:0:0:0:
256,192,47402,1,8,0:0:0:0:
256,192,47551,1,8,0:0:0:0:
256,192,47699,1,4,0:0:0:0:
256,192,47996,1,0,0:0:0:0:
256,192,48145,1,0,0:0:0:0:
256,192,48293,1,8,0:0:0:0:
256,192,48590,1,8,0:0:0:0:
256,192,48739,1,0,0:0:0:0:
256,192,48887,1,8,0:0:0:0:
256,192,49184,1,8,0:0:0:0:
256,192,49333,1,0,0:0:0:0:
256,192,49407,1,0,0:0:0:0:
256,192,49481,1,8,0:0:0:0:
256,192,49630,1,0,0:0:0:0:
256,192,49778,1,8,0:0:0:0:
256,192,49927,1,8,0:0:0:0:
256,192,50075,1,0,0:0:0:0:
256,192,50670,1,0,0:0:0:0:
256,192,51264,1,0,0:0:0:0:
256,192,51858,1,8,0:0:0:0:
256,192,52155,1,8,0:0:0:0:
256,192,52452,1,4,0:0:0:0:
256,192,52749,1,8,0:0:0:0:
256,192,52897,1,0,0:0:0:0:
256,192,52972,1,0,0:0:0:0:
256,192,53046,1,8,0:0:0:0:
256,192,53194,1,0,0:0:0:0:
256,192,53343,1,8,0:0:0:0:
256,192,53417,1,8,0:0:0:0:
256,192,53491,1,0,0:0:0:0:
256,192,53640,1,8,0:0:0:0:
256,192,53937,1,8,0:0:0:0:
256,192,54085,1,0,0:0:0:0:
256,192,54234,1,8,0:0:0:0:
256,192,54308,1,8,0:0:0:0:
256,192,54382,1,8,0:0:0:0:
256,192,54457,1,8,0:0:0:0:
256,192,54531,1,0,0:0:0:0:
256,192,54679,1,0,0:0:0:0:
256,192,54828,1,8,0:0:0:0:
256,192,55125,1,0,0:0:0:0:
256,192,55274,1,8,0:0:0:0:
256,192,55422,1,8,0:0:0:0:
256,192,55571,1,8,0:0:0:0:
256,192,55719,1,0,0:0:0:0:
256,192,56610,1,8,0:0:0:0:
256,192,56907,1,8,0:0:0:0:
256,192,57204,1,4,0:0:0:0:
256,192,57501,1,8,0:0:0:0:
256,192,57650,1,0,0:0:0:0:
256,192,57724,1,0,0:0:0:0:
256,192,57798,1,8,0:0:0:0:
256,192,57947,1,0,0:0:0:0:
256,192,58095,1,8,0:0:0:0:
256,192,58170,1,8,0:0:0:0:
256,192,58244,1,0,0:0:0:0:
256,192,58318,1,0,0:0:0:0:
256,192,58392,1,8,0:0:0:0:
256,192,58541,1,0,0:0:0:0:
256,192,58689,1,8,0:0:0:0:
256,192,58764,1,0,0:0:0:0:
256,192,58838,1,8,0:0:0:0:
256,192,58986,1,0,0:0:0:0:
256,192,59135,1,8,0:0:0:0:
256,192,59209,1,8,0:0:0:0:
256,192,59283,1,8,0:0:0:0:
256,192,59432,1,8,0:0:0:0:
256,192,59580,1,4,0:0:0:0:
256,192,59877,1,8,0:0:0:0:
256,192,60026,1,8,0:0:0:0:
256,192,60100,1,8,0:0:0:0:
256,192,60175,1,0,0:0:0:0:
256,192,60323,1,8,0:0:0:0:
256,192,60472,1,0,0:0:0:0:
256,192,60546,1,0,0:0:0:0:
256,192,60620,1,0,0:0:0:0:
256,192,60694,1,0,0:0:0:0:
256,192,60769,1,8,0:0:0:0:
256,192,60917,1,8,0:0:0:0:
256,192,61066,1,0,0:0:0:0:
256,192,61140,1,0,0:0:0:0:
256,192,61214,1,0,0:0:0:0:
256,192,61363,1,8,0:0:0:0:
256,192,61511,1,0,0:0:0:0:
256,192,61660,1,8,0:0:0:0:
256,192,61734,1,8,0:0:0:0:
256,192,61808,1,8,0:0:0:0:
256,192,61957,1,4,0:0:0:0:
256,192,62254,1,8,0:0:0:0:
256,192,62402,1,0,0:0:0:0:
256,192,62476,1,0,0:0:0:0:
256,192,62551,1,8,0:0:0:0:
256,192,62699,1,0,0:0:0:0:
256,192,62848,1,8,0:0:0:0:
256,192,62922,1,0,0:0:0:0:
256,192,62996,1,8,0:0:0:0:
256,192,63071,1,8,0:0:0:0:
256,192,63145,1,0,0:0:0:0:
256,192,63293,1,8,0:0:0:0:
256,192,63442,1,0,0:0:0:0:
256,192,63516,1,8,0:0:0:0:
256,192,63590,1,0,0:0:0:0:
256,192,63739,1,0,0:0:0:0:
256,192,63887,1,8,0:0:0:0:
256,192,63962,1,8,0:0:0:0:
256,192,64036,1,8,0:0:0:0:
256,192,64184,1,8,0:0:0:0:
256,192,64333,1,4,0:0:0:0:
256,192,64630,1,8,0:0:0:0:
256,192,64778,1,8,0:0:0:0:
256,192,64853,1,8,0:0:0:0:
256,192,64927,1,0,0:0:0:0:
256,192,65075,1,8,0:0:0:0:
256,192,65224,1,0,0:0:0:0:
256,192,65298,1,0,0:0:0:0:
256,192,65373,1,8,0:0:0:0:
256,192,65447,1,8,0:0:0:0:
256,192,65521,1,0,0:0:0:0:
256,192,65670,1,8,0:0:0:0:
256,192,65818,1,0,0:0:0:0:
256,192,65892,1,0,0:0:0:0:
256,192,65967,1,0,0:0:0:0:
256,192,66115,1,8,0:0:0:0:
256,192,66709,1,4,0:0:0:0:
256,192,67155,1,0,0:0:0:0:
256,192,67600,1,0,0:0:0:0:
256,192,69085,1,4,0:0:0:0:
256,192,69382,1,8,0:0:0:0:
256,192,69531,1,0,0:0:0:0:
256,192,69605,1,0,0:0:0:0:
256,192,69679,1,8,0:0:0:0:
256,192,69828,1,0,0:0:0:0:
256,192,69976,1,8,0:0:0:0:
256,192,70051,1,0,0:0:0:0:
256,192,70125,1,8,0:0:0:0:
256,192,70274,1,0,0:0:0:0:
256,192,70571,1,0,0:0:0:0:
256,192,70645,1,0,0:0:0:0:
256,192,70719,1,0,0:0:0:0:
256,192,70868,1,8,0:0:0:0:
256,192,71016,1,0,0:0:0:0:
256,192,71165,1,8,0:0:0:0:
256,192,71239,1,8,0:0:0:0:
256,192,71313,1,8,0:0:0:0:
256,192,71462,1,4,0:0:0:0:
256,192,71759,1,0,0:0:0:0:
256,192,71907,1,0,0:0:0:0:
256,192,72056,1,8,0:0:0:0:
256,192,72353,1,0,0:0:0:0:
256,192,72501,1,0,0:0:0:0:
256,192,72798,1,8,0:0:0:0:
256,192,72947,1,0,0:0:0:0:
256,192,73095,1,0,0:0:0:0:
256,192,73244,1,8,0:0:0:0:
256,192,73392,1,8,0:0:0:0:
256,192,73467,1,8,0:0:0:0:
256,192,73541,1,8,0:0:0:0:
256,192,73689,1,8,0:0:0:0:
256,192,73838,1,4,0:0:0:0:
256,192,74135,1,8,0:0:0:0:
256,192,74209,1,0,0:0:0:0:
256,192,74283,1,0,0:0:0:0:
256,192,74358,1,0,0:0:0:0:
256,192,74432,1,8,0:0:0:0:
256,192,74580,1,0,0:0:0:0:
256,192,74729,1,8,0:0:0:0:
256,192,74803,1,8,0:0:0:0:
256,192,74877,1,0,0:0:0:0:
256,192,75026,1,8,0:0:0:0:
256,192,75323,1,0,0:0:0:0:
256,192,75397,1,0,0:0:0:0:
256,192,75472,1,0,0:0:0:0:
256,192,75620,1,8,0:0:0:0:
256,192,75769,1,0,0:0:0:0:
256,192,75917,1,8,0:0:0:0:
256,192,75991,1,8,0:0:0:0:
256,192,76066,1,8,0:0:0:0:
256,192,76214,1,4,0:0:0:0:
256,192,76511,1,8,0:0:0:0:
256,192,76660,1,0,0:0:0:0:
256,192,76734,1,0,0:0:0:0:
256,192,76808,1,8,0:0:0:0:
256,192,76957,1,0,0:0:0:0:
256,192,77105,1,8,0:0:0:0:
256,192,77254,1,8,0:0:0:0:
256,192,77402,1,0,0:0:0:0:
256,192,77699,1,0,0:0:0:0:
256,192,77774,1,0,0:0:0:0:
256,192,77848,1,0,0:0:0:0:
256,192,77996,1,8,0:0:0:0:
256,192,78219,1,0,0:0:0:0:
256,192,78442,1,8,0:0:0:0:
256,192,78590,1,0,0:0:0:0:
256,192,78739,1,8,0:0:0:0:
256,192,78813,1,8,0:0:0:0:
256,192,78887,1,0,0:0:0:0:
256,192,79036,1,8,0:0:0:0:
256,192,79184,1,0,0:0:0:0:
256,192,79259,1,0,0:0:0:0:
256,192,79333,1,8,0:0:0:0:
256,192,79407,1,8,0:0:0:0:
256,192,79481,1,0,0:0:0:0:
256,192,79630,1,8,0:0:0:0:
256,192,79778,1,0,0:0:0:0:
256,192,80075,1,0,0:0:0:0:
256,192,80150,1,0,0:0:0:0:
256,192,80224,1,0,0:0:0:0:
256,192,80373,1,8,0:0:0:0:
256,192,80595,1,0,0:0:0:0:
256,192,80818,1,8,0:0:0:0:
256,192,80967,1,4,0:0:0:0:
256,192,81264,1,0,0:0:0:0:
256,192,81412,1,0,0:0:0:0:
256,192,81561,1,8,0:0:0:0:
256,192,81709,1,0,0:0:0:0:
256,192,81783,1,0,0:0:0:0:
256,192,81858,1,8,0:0:0:0:
256,192,82006,1,0,0:0:0:0:
256,192,82303,1,8,0:0:0:0:
256,192,82452,1,0,0:0:0:0:
256,192,82600,1,0,0:0:0:0:
256,192,82749,1,8,0:0:0:0:
256,192,83046,1,8,0:0:0:0:
256,192,83343,1,0,0:0:0:0:
256,192,83788,1,0,0:0:0:0:
256,192,84234,1,0,0:0:0:0:
256,192,85719,1,4,0:0:0:0:
256,192,85868,1,8,0:0:0:0:
256,192,86016,1,0,0:0:0:0:
256,192,86313,1,8,0:0:0:0:
256,192,86462,1,0,0:0:0:0:
256,192,86536,1,0,0:0:0:0:
256,192,86610,1,0,0:0:0:0:
256,192,86759,1,8,0:0:0:0:
256,192,87056,1,8,0:0:0:0:
256,192,87353,1,0,0:0:0:0:
256,192,87501,1,8,0:0:0:0:
256,192,87575,1,8,0:0:0:0:
256,192,87650,1,0,0:0:0:0:
256,192,87798,1,8,0:0:0:0:
256,192,87947,1,8,0:0:0:0:
256,192,88095,1,0,0:0:0:0:
256,192,88392,1,8,0:0:0:0:
256,192,88541,1,0,0:0:0:0:
256,192,88615,1,0,0:0:0:0:
256,192,88689,1,8,0:0:0:0:
256,192,88764,1,8,0:0:0:0:
256,192,88838,1,0,0:0:0:0:
256,192,88986,1,0,0:0:0:0:
256,192,89135,1,8,0:0:0:0:
256,192,89432,1,8,0:0:0:0:
256,192,89580,1,0,0:0:0:0:
256,192,89655,1,0,0:0:0:0:
256,192,89729,1,0,0:0:0:0:
256,192,89877,1,8,0:0:0:0:
256,192,90175,1,8,0:0:0:0:
256,192,90472,1,0,0:0:0:0:
256,192,91066,1,8,0:0:0:0:
256,192,91363,1,0,0:0:0:0:
256,192,91808,1,0,0:0:0:0:
256,192,91957,1,0,0:0:0:0:
256,192,92254,1,8,0:0:0:0:
256,192,92848,1,0,0:0:0:0:
256,192,93442,1,8,0:0:0:0:
256,192,93739,1,0,0:0:0:0:
256,192,95224,1,4,0:0:0:0:
256,192,95447,1,8,0:0:0:0:
256,192,95521,1,8,0:0:0:0:
256,192,95670,1,0,0:0:0:0:
256,192,95818,1,8,0:0:0:0:
256,192,95967,1,0,0:0:0:0:
256,192,96041,1,0,0:0:0:0:
256,192,96115,1,8,0:0:0:0:
256,192,96264,1,8,0:0:0:0:
256,192,96412,1,0,0:0:0:0:
256,192,96635,1,0,0:0:0:0:
256,192,96709,1,8,0:0:0:0:
256,192,96858,1,0,0:0:0:0:
256,192,97006,1,8,0:0:0:0:
256,192,97155,1,8,0:0:0:0:
256,192,97229,1,8,0:0:0:0:
256,192,97303,1,0,0:0:0:0:
256,192,97452,1,0,0:0:0:0:
256,192,97600,1,8,0:0:0:0:
256,192,97749,1,0,0:0:0:0:
256,192,97823,1,0,0:0:0:0:
256,192,97897,1,8,0:0:0:0:
256,192,98046,1,0,0:0:0:0:
256,192,98194,1,8,0:0:0:0:
256,192,98269,1,8,0:0:0:0:
256,192,98343,1,8,0:0:0:0:
256,192,98491,1,0,0:0:0:0:
256,192,98788,1,8,0:0:0:0:
256,192,98937,1,8,0:0:0:0:
256,192,99085,1,0,0:0:0:0:
256,192,99160,1,0,0:0:0:0:
256,192,99234,1,0,0:0:0:0:
256,192,99382,1,8,0:0:0:0:
256,192,99679,1,8,0:0:0:0:
256,192,99976,1,4,0:0:0:0:
256,192,100125,1,8,0:0:0:0:
256,192,100199,1,8,0:0:0:0:
256,192,100274,1,0,0:0:0:0:
256,192,100422,1,0,0:0:0:0:
256,192,100571,1,8,0:0:0:0:
256,192,100868,1,0,0:0:0:0:
256,192,101016,1,8,0:0:0:0:
256,192,101090,1,0,0:0:0:0:
256,192,101165,1,8,0:0:0:0:
256,192,101313,1,0,0:0:0:0:
256,192,101462,1,0,0:0:0:0:
256,192,101610,1,8,0:0:0:0:
256,192,101907,1,0,0:0:0:0:
256,192,102204,1,8,0:0:0:0:
256,192,102353,1,0,0:0:0:0:
256,192,102501,1,8,0:0:0:0:
256,192,102798,1,8,0:0:0:0:
256,192,102947,1,0,0:0:0:0:
256,192,103021,1,0,0:0:0:0:
256,192,103095,1,8,0:0:0:0:
256,192,103244,1,0,0:0:0:0:
256,192,103392,1,0,0:0:0:0:
256,192,103541,1,8,0:0:0:0:
256,192,103838,1,0,0:0:0:0:
256,192,103912,1,0,0:0:0:0:
256,192,103986,1,0,0:0:0:0:
256,192,104135,1,8,0:0:0:0:
256,192,104432,1,8,0:0:0:0:
256,192,104729,1,4,0:0:0:0:
256,192,105026,1,8,0:0:0:0:
256,192,105174,1,8,0:0:0:0:
256,192,105249,1,0,0:0:0:0:
256,192,105323,1,8,0:0:0:0:
256,192,105472,1,0,0:0:0:0:
256,192,105620,1,8,0:0:0:0:
256,192,105694,1,8,0:0:0:0:
256,192,105769,1,0,0:0:0:0:
256,192,105843,1,0,0:0:0:0:
256,192,105917,1,8,0:0:0:0:
256,192,106066,1,0,0:0:0:0:
256,192,106214,1,8,0:0:0:0:
256,192,106288,1,8,0:0:0:0:
256,192,106363,1,0,0:0:0:0:
256,192,106511,1,8,0:0:0:0:
256,192,106660,1,0,0:0:0:0:
256,192,106808,1,8,0:0:0:0:
256,192,106957,1,8,0:0:0:0:
256,192,107105,1,0,0:0:0:0:
256,192,107551,1,8,0:0:0:0:
256,192,107699,1,0,0:0:0:0:
256,192,107774,1,0,0:0:0:0:
256,192,107848,1,8,0:0:0:0:
256,192,107996,1,0,0:0:0:0:
256,192,108145,1,0,0:0:0:0:
256,192,108293,1,8,0:0:0:0:
256,192,108590,1,0,0:0:0:0:
256,192,108665,1,0,0:0:0:0:
256,192,108739,1,0,0:0:0:0:
256,192,108887,1,8,0:0:0:0:
256,192,109184,1,8,0:0:0:0:
256,192,109481,1,4,0:0:0:0:
256,192,109778,1,8,0:0:0:0:
256,192,109927,1,0,0:0:0:0:
256,192,110075,1,8,0:0:0:0:
256,192,110224,1,0,0:0:0:0:
256,192,110298,1,0,0:0:0:0:
256,192,110373,1,8,0:0:0:0:
256,192,110447,1,0,0:0:0:0:
256,192,110521,1,8,0:0:0:0:
256,192,110670,1,0,0:0:0:0:
256,192,110818,1,8,0:0:0:0:
256,192,110892,1,8,0:0:0:0:
256,192,110967,1,0,0:0:0:0:
256,192,111115,1,8,0:0:0:0:
256,192,111264,1,0,0:0:0:0:
256,192,111338,1,8,0:0:0:0:
256,192,111412,1,0,0:0:0:0:
256,192,111561,1,8,0:0:0:0:
256,192,111858,1,0,0:0:0:0:
256,192,112006,1,8,0:0:0:0:
256,192,112155,1,0,0:0:0:0:
256,192,112303,1,0,0:0:0:0:
256,192,112452,1,8,0:0:0:0:
256,192,112600,1,0,0:0:0:0:
256,192,112749,1,8,0:0:0:0:
256,192,112897,1,8,0:0:0:0:
256,192,113046,1,0,0:0:0:0:
256,192,113194,1,8,0:0:0:0:
256,192,113343,1,8,0:0:0:0:
256,192,113491,1,8,0:0:0:0:
256,192,113640,1,0,0:0:0:0:
256,192,113788,1,0,0:0:0:0:
256,192,113937,1,8,0:0:0:0:
256,192,114085,1,8,0:0:0:0:
256,192,114234,1,4,0:0:0:0:
256,192,114531,1,8,0:0:0:0:
256,192,114679,1,0,0:0:0:0:
256,192,114754,1,0,0:0:0:0:
256,192,114828,1,8,0:0:0:0:
256,192,114976,1,0,0:0:0:0:
256,192,115125,1,8,0:0:0:0:
256,192,115199,1,8,0:0:0:0:
256,192,115274,1,0,0:0:0:0:
256,192,115348,1,0,0:0:0:0:
256,192,115422,1,8,0:0:0:0:
256,192,115571,1,0,0:0:0:0:
256,192,115719,1,8,0:0:0:0:
256,192,115793,1,0,0:0:0:0:
256,192,115868,1,8,0:0:0:0:
256,192,116016,1,0,0:0:0:0:
256,192,116165,1,8,0:0:0:0:
256,192,116239,1,8,0:0:0:0:
256,192,116313,1,8,0:0:0:0:
256,192,116462,1,8,0:0:0:0:
256,192,116610,1,4,0:0:0:0:
256,192,116907,1,8,0:0:0:0:
256,192,117056,1,8,0:0:0:0:
256,192,117130,1,8,0:0:0:0:
256,192,117204,1,0,0:0:0:0:
256,192,117353,1,8,0:0:0:0:
256,192,117501,1,0,0:0:0:0:
256,192,117575,1,0,0:0:0:0:
256,192,117650,1,0,0:0:0:0:
256,192,117724,1,0,0:0:0:0:
256,192,117798,1,8,0:0:0:0:
256,192,117947,1,8,0:0:0:0:
256,192,118095,1,0,0:0:0:0:
256,192,118170,1,0,0:0:0:0:
256,192,118244,1,0,0:0:0:0:
256,192,118392,1,8,0:0:0:0:
256,192,118541,1,0,0:0:0:0:
256,192,118689,1,8,0:0:0:0:
256,192,118764,1,8,0:0:0:0:
256,192,118838,1,8,0:0:0:0:
256,192,118986,1,4,0:0:0:0:
256,192,119283,1,8,0:0:0:0:
256,192,119432,1,0,0:0:0:0:
256,192,119506,1,0,0:0:0:0:
256,192,119580,1,8,0:0:0:0:
256,192,119729,1,0,0:0:0:0:
256,192,119877,1,8,0:0:0:0:
256,192,119952,1,0,0:0:0:0:
256,192,120026,1,8,0:0:0:0:
256,192,120100,1,8,0:0:0:0:
256,192,120174,1,0,0:0:0:0:
256,192,120323,1,8,0:0:0:0:
256,192,120472,1,0,0:0:0:0:
256,192,120546,1,8,0:0:0:0:
256,192,120620,1,0,0:0:0:0:
256,192,120769,1,0,0:0:0:0:
256,192,120917,1,8,0:0:0:0:
256,192,120991,1,8,0:0:0:0:
256,192,121066,1,8,0:0:0:0:
256,192,121214,1,8,0:0:0:0:
256,192,121363,1,4,0:0:0:0:
256,192,121660,1,8,0:0:0:0:
256,192,121808,1,8,0:0:0:0:
256,192,121882,1,8,0:0:0:0:
256,192,121957,1,0,0:0:0:0:
256,192,122105,1,8,0:0:0:0:
256,192,122254,1,0,0:0:0:0:
256,192,122328,1,0,0:0:0:0:
256,192,122402,1,8,0:0:0:0:
256,192,122476,1,8,0:0:0:0:
256,192,122551,1,0,0:0:0:0:
256,192,122699,1,8,0:0:0:0:
256,192,122848,1,0,0:0:0:0:
256,192,122922,1,0,0:0:0:0:
256,192,122996,1,0,0:0:0:0:
256,192,123145,1,8,0:0:0:0:
256,192,123739,1,4,0:0:0:0:
256,192,124184,1,0,0:0:0:0:
256,192,124630,1,0,0:0:0:0:
256,192,126115,1,4,0:0:0:0:
256,192,126412,1,8,0:0:0:0:
256,192,126561,1,0,0:0:0:0:
256,192,126635,1,0,0:0:0:0:
256,192,126709,1,8,0:0:0:0:
256,192,126858,1,0,0:0:0:0:
256,192,127006,1,8,0:0:0:0:
256,192,127080,1,0,0:0:0:0:
256,192,127155,1,8,0:0:0:0:
256,192,127303,1,0,0:0:0:0:
256,192,127600,1,0,0:0:0:0:
256,192,127674,1,0,0:0:0:0:
256,192,127749,1,0,0:0:0:0:
256,192,127897,1,8,0:0:0:0:
256,192,128046,1,0,0:0:0:0:
256,192,128194,1,8,0:0:0:0:
256,192,128269,1,8,0:0:0:0:
256,192,128343,1,8,0:0:0:0:
256,192,128491,1,4,0:0:0:0:
256,192,128788,1,0,0:0:0:0:
256,192,128937,1,0,0:0:0:0:
256,192,129085,1,8,0:0:0:0:
256,192,129382,1,0,0:0:0:0:
256,192,129531,1,0,0:0:0:0:
256,192,129828,1,8,0:0:0:0:
256,192,129976,1,0,0:0:0:0:
256,192,130125,1,0,0:0:0:0:
256,192,130274,1,8,0:0:0:0:
256,192,130422,1,8,0:0:0:0:
256,192,130496,1,8,0:0:0:0:
256,192,130571,1,8,0:0:0:0:
256,192,130719,1,8,0:0:0:0:
256,192,130868,1,4,0:0:0:0:
256,192,131165,1,8,0:0:0:0:
256,192,131239,1,0,0:0:0:0:
256,192,131313,1,0,0:0:0:0:
256,192,131387,1,0,0:0:0:0:
256,192,131462,1,8,0:0:0:0:
256,192,131610,1,0,0:0:0:0:
256,192,131759,1,8,0:0:0:0:
256,192,131833,1,8,0:0:0:0:
256,192,131907,1,0,0:0:0:0:
256,192,132056,1,8,0:0:0:0:
256,192,132353,1,0,0:0:0:0:
256,192,132427,1,0,0:0:0:0:
256,192,132501,1,0,0:0:0:0:
256,192,132650,1,8,0:0:0:0:
256,192,132798,1,0,0:0:0:0:
256,192,132947,1,8,0:0:0:0:
256,192,133021,1,8,0:0:0:0:
256,192,133095,1,8,0:0:0:0:
256,192,133244,1,4,0:0:0:0:
256,192,133467,1,8,0:0:0:0:
256,192,133689,1,8,0:0:0:0:
256,192,133838,1,0,0:0:0:0:
256,192,133986,1,8,0:0:0:0:
256,192,134135,1,0,0:0:0:0:
256,192,134283,1,8,0:0:0:0:
256,192,134580,1,8,0:0:0:0:
256,192,134877,1,8,0:0:0:0:
256,192,135026,1,0,0:0:0:0:
256,192,135175,1,0,0:0:0:0:
256,192,135249,1,0,0:0:0:0:
256,192,135323,1,8,0:0:0:0:
256,192,135472,1,8,0:0:0:0:
256,192,135620,1,0,0:0:0:0:
256,192,135917,1,8,0:0:0:0:
256,192,136066,1,0,0:0:0:0:
256,192,136214,1,8,0:0:0:0:
256,192,136511,1,8,0:0:0:0:
256,192,136660,1,8,0:0:0:0:
256,192,136808,1,0,0:0:0:0:
256,192,137105,1,0,0:0:0:0:
256,192,137179,1,0,0:0:0:0:
256,192,137254,1,0,0:0:0:0:
256,192,137402,1,8,0:0:0:0:
256,192,137551,1,0,0:0:0:0:
256,192,137699,1,8,0:0:0:0:
256,192,137996,1,8,0:0:0:0:
256,192,138145,1,8,0:0:0:0:
256,192,138293,1,0,0:0:0:0:
256,192,138442,1,0,0:0:0:0:
256,192,138590,1,8,0:0:0:0:
256,192,138887,1,8,0:0:0:0:
256,192,139036,1,0,0:0:0:0:
256,192,139333,1,0,0:0:0:0:
256,192,139481,1,8,0:0:0:0:
256,192,139630,1,8,0:0:0:0:
256,192,139778,1,0,0:0:0:0:
256,192,140075,1,0,0:0:0:0:
256,192,140224,1,8,0:0:0:0:
256,192,140373,1,0,0:0:0:0:
256,192,140521,1,0,0:0:0:0:
256,192,140670,1,8,0:0:0:0:
256,192,140967,1,0,0:0:0:0:
256,192,141189,1,0,0:0:0:0:
256,192,141264,1,8,0:0:0:0:
256,192,141561,1,8,0:0:0:0:
256,192,141858,1,0,0:0:0:0:
256,192,141932,1,0,0:0:0:0:
256,192,142006,1,0,0:0:0:0:
256,192,142155,1,8,0:0:0:0:
256,192,142749,1,4,0:0:0:0:
256,192,142972,1,8,0:0:0:0:
256,192,143194,1,8,0:0:0:0:
256,192,143343,1,0,0:0:0:0:
256,192,143640,1,8,0:0:0:0:
256,192,143788,1,0,0:0:0:0:
256,192,143937,1,0,0:0:0:0:
256,192,144085,1,8,0:0:0:0:
256,192,144382,1,8,0:0:0:0:
256,192,144531,1,0,0:0:0:0:
256,192,144679,1,0,0:0:0:0:
256,192,144754,1,0,0:0:0:0:
256,192,144828,1,8,0:0:0:0:
256,192,144976,1,8,0:0:0:0:
256,192,145125,1,0,0:0:0:0:
256,192,145422,1,8,0:0:0:0:
256,192,145645,1,0,0:0:0:0:
256,192,145868,1,8,0:0:0:0:
256,192,146016,1,0,0:0:0:0:
256,192,146165,1,0,0:0:0:0:
256,192,146313,1,8,0:0:0:0:
256,192,146610,1,8,0:0:0:0:
256,192,146684,1,8,0:0:0:0:
256,192,146759,1,8,0:0:0:0:
256,192,146907,1,0,0:0:0:0:
256,192,147056,1,8,0:0:0:0:
256,192,147204,1,8,0:0:0:0:
256,192,147353,1,8,0:0:0:0:
256,192,147501,1,0,0:0:0:0:
256,192,147798,1,8,0:0:0:0:
256,192,147947,1,0,0:0:0:0:
256,192,148095,1,8,0:0:0:0:
256,192,148392,1,8,0:0:0:0:
256,192,148541,1,8,0:0:0:0:
256,192,148689,1,0,0:0:0:0:
256,192,148986,1,0,0:0:0:0:
256,192,149135,1,8,0:0:0:0:
256,192,149283,1,0,0:0:0:0:
256,192,149432,1,8,0:0:0:0:
256,192,149580,1,8,0:0:0:0:
256,192,149877,1,0,0:0:0:0:
256,192,150175,1,8,0:0:0:0:
256,192,150323,1,0,0:0:0:0:
256,192,152254,1,4,0:0:0:0:
