osu file format v14

[General]
AudioFilename: audio.mp3
AudioLeadIn: 0
PreviewTime: 57204
Countdown: 0
SampleSet: None
StackLeniency: 0
Mode: 1
LetterboxInBreaks: 0
WidescreenStoryboard: 0

[Editor]
Bookmarks: 19184,57204,76214,114234,133244,152254
DistanceSpacing: 0.1
BeatDivisor: 4
GridSize: 32
TimelineZoom: 3.099999

[Metadata]
Title:Vor der Tuer
TitleUnicode:Vor der Tür
Artist:Gzuz
ArtistUnicode:Gzuz
Creator:Genjuro
Version:Kantan
Source:
Tags:german deutsch hip hop hiphop hip-hop rap trap tur 187 straßenbande strassenbande
BeatmapID:3565428
BeatmapSetID:1412628

[Difficulty]
HPDrainRate:7
CircleSize:2
OverallDifficulty:3
ApproachRate:10
SliderMultiplier:2.8
SliderTickRate:1

[Events]
//Background and Video events
0,0,"bg.jpg",0,0
//Break Periods
//Storyboard Layer 0 (Background)
//Storyboard Layer 1 (Fail)
//Storyboard Layer 2 (Pass)
//Storyboard Layer 3 (Foreground)
//Storyboard Layer 4 (Overlay)
//Storyboard Sound Samples

[TimingPoints]
175,594.059405940594,4,1,0,20,1,0
9605,-100,4,1,0,40,0,0
18516,-100,4,1,0,70,0,0
27724,-100,4,1,0,50,0,0
28615,-100,4,1,0,70,0,0
33368,-100,4,1,0,50,0,0
38120,-100,4,1,0,70,0,0
50001,-100,4,1,0,50,0,0
52377,-100,4,1,0,70,0,0
57204,-100,4,1,0,70,0,1
66709,-100,4,1,0,70,0,0
69085,-100,4,1,0,70,0,1
76214,-100,4,1,0,70,0,0
83269,-100,4,1,0,50,0,0
85645,-100,4,1,0,70,0,0
111783,-100,4,1,0,60,0,0
114160,-100,4,1,0,70,0,0
114234,-100,4,1,0,70,0,1
123739,-100,4,1,0,70,0,0
126115,-100,4,1,0,70,0,1
133244,-100,4,1,0,70,0,0

[HitObjects]
256,192,9679,5,0,0:0:0:0:
256,192,10274,1,8,0:0:0:0:
256,192,11016,1,8,0:0:0:0:
256,192,11462,1,8,0:0:0:0:
256,192,12056,1,0,0:0:0:0:
256,192,12650,1,8,0:0:0:0:
256,192,13541,1,0,0:0:0:0:
256,192,13838,1,8,0:0:0:0:
256,192,14432,1,0,0:0:0:0:
256,192,15026,1,8,0:0:0:0:
256,192,15769,1,8,0:0:0:0:
256,192,16214,1,8,0:0:0:0:
256,192,16808,1,0,0:0:0:0:
256,192,17402,1,8,0:0:0:0:
256,192,18293,1,0,0:0:0:0:
256,192,18590,1,8,0:0:0:0:
256,192,19184,1,4,0:0:0:0:
256,192,19778,1,8,0:0:0:0:
256,192,20075,1,0,0:0:0:0:
256,192,20373,1,8,0:0:0:0:
256,192,20967,1,0,0:0:0:0:
256,192,21561,1,8,0:0:0:0:
256,192,22155,1,0,0:0:0:0:
256,192,22452,1,0,0:0:0:0:
256,192,22749,1,8,0:0:0:0:
256,192,23937,1,0,0:0:0:0:
256,192,24531,1,8,0:0:0:0:
256,192,24828,1,8,0:0:0:0:
256,192,25125,1,0,0:0:0:0:
256,192,25719,1,0,0:0:0:0:
256,192,26016,1,0,0:0:0:0:
256,192,26313,1,8,0:0:0:0:
256,192,26907,1,0,0:0:0:0:
256,192,27501,1,8,0:0:0:0:
256,192,28689,1,0,0:0:0:0:
256,192,29283,1,8,0:0:0:0:
256,192,29580,1,8,0:0:0:0:
256,192,29877,1,8,0:0:0:0:
256,192,30472,1,0,0:0:0:0:
256,192,31066,1,8,0:0:0:0:
256,192,31660,1,0,0:0:0:0:
256,192,31957,1,8,0:0:0:0:
256,192,32254,1,0,0:0:0:0:
256,192,33442,1,0,0:0:0:0:
256,192,37303,1,0,0:0:0:0:
256,192,37600,1,8,0:0:0:0:
256,192,38194,1,0,0:0:0:0:
256,192,38788,1,8,0:0:0:0:
256,192,39085,1,8,0:0:0:0:
256,192,39382,1,0,0:0:0:0:
256,192,39976,1,8,0:0:0:0:
256,192,40571,1,0,0:0:0:0:
256,192,40868,1,8,0:0:0:0:
256,192,41165,1,0,0:0:0:0:
256,192,41462,1,8,0:0:0:0:
256,192,41759,1,0,0:0:0:0:
256,192,42947,1,0,0:0:0:0:
256,192,43541,1,8,0:0:0:0:
256,192,43838,1,0,0:0:0:0:
256,192,44135,1,0,0:0:0:0:
256,192,44729,1,8,0:0:0:0:
256,192,45323,1,0,0:0:0:0:
256,192,45620,1,8,0:0:0:0:
256,192,45917,1,8,0:0:0:0:
256,192,46214,1,8,0:0:0:0:
256,192,46511,1,0,0:0:0:0:
256,192,47699,1,0,0:0:0:0:
256,192,48293,1,8,0:0:0:0:
256,192,48887,1,0,0:0:0:0:
256,192,49184,1,0,0:0:0:0:
256,192,49481,1,8,0:0:0:0:
256,192,50075,1,0,0:0:0:0:
256,192,51858,1,8,0:0:0:0:
256,192,52452,1,0,0:0:0:0:
256,192,53046,1,8,0:0:0:0:
256,192,53343,1,8,0:0:0:0:
256,192,53640,1,0,0:0:0:0:
256,192,54234,1,8,0:0:0:0:
256,192,54828,1,0,0:0:0:0:
256,192,55125,1,8,0:0:0:0:
256,192,55422,1,0,0:0:0:0:
256,192,55719,1,8,0:0:0:0:
256,192,57204,1,4,0:0:0:0:
256,192,57798,1,8,0:0:0:0:
256,192,58095,1,0,0:0:0:0:
256,192,58392,1,8,0:0:0:0:
256,192,58986,1,0,0:0:0:0:
256,192,59580,1,8,0:0:0:0:
256,192,59877,1,8,0:0:0:0:
256,192,60175,1,0,0:0:0:0:
256,192,60472,1,8,0:0:0:0:
256,192,60769,1,0,0:0:0:0:
256,192,61363,1,8,0:0:0:0:
256,192,61957,1,0,0:0:0:0:
256,192,62551,1,8,0:0:0:0:
256,192,62848,1,8,0:0:0:0:
256,192,63145,1,0,0:0:0:0:
256,192,63739,1,8,0:0:0:0:
256,192,64333,1,0,0:0:0:0:
256,192,64630,1,8,0:0:0:0:
256,192,64927,1,0,0:0:0:0:
256,192,65224,1,0,0:0:0:0:
256,192,65521,1,8,0:0:0:0:
256,192,66709,1,0,0:0:0:0:
256,192,67155,1,0,0:0:0:0:
256,192,67600,1,0,0:0:0:0:
256,192,69085,1,4,0:0:0:0:
256,192,69679,1,8,0:0:0:0:
256,192,69976,1,0,0:0:0:0:
256,192,70274,1,0,0:0:0:0:
256,192,70868,1,8,0:0:0:0:
256,192,71462,1,0,0:0:0:0:
256,192,72353,1,0,0:0:0:0:
256,192,72650,1,8,0:0:0:0:
256,192,73541,1,8,0:0:0:0:
256,192,73838,1,0,0:0:0:0:
256,192,74432,1,0,0:0:0:0:
256,192,74729,1,0,0:0:0:0:
256,192,75026,1,8,0:0:0:0:
256,192,76214,1,4,0:0:0:0:
256,192,76808,1,8,0:0:0:0:
256,192,77105,1,0,0:0:0:0:
256,192,77402,1,8,0:0:0:0:
256,192,77996,1,0,0:0:0:0:
256,192,78590,1,0,0:0:0:0:
256,192,79184,1,8,0:0:0:0:
256,192,79481,1,8,0:0:0:0:
256,192,79778,1,8,0:0:0:0:
256,192,80967,1,0,0:0:0:0:
256,192,81561,1,8,0:0:0:0:
256,192,81858,1,8,0:0:0:0:
256,192,82155,1,0,0:0:0:0:
256,192,82749,1,0,0:0:0:0:
256,192,83046,1,0,0:0:0:0:
256,192,83343,1,8,0:0:0:0:
256,192,85719,1,0,0:0:0:0:
256,192,86313,1,0,0:0:0:0:
256,192,86610,1,8,0:0:0:0:
256,192,86907,1,0,0:0:0:0:
256,192,87501,1,8,0:0:0:0:
256,192,88095,1,0,0:0:0:0:
256,192,88392,1,0,0:0:0:0:
256,192,88689,1,8,0:0:0:0:
256,192,88986,1,8,0:0:0:0:
256,192,89283,1,0,0:0:0:0:
256,192,90472,1,0,0:0:0:0:
256,192,91066,1,8,0:0:0:0:
256,192,92254,1,8,0:0:0:0:
256,192,92848,1,0,0:0:0:0:
256,192,93442,1,8,0:0:0:0:
256,192,95224,1,0,0:0:0:0:
256,192,95818,1,8,0:0:0:0:
256,192,96115,1,0,0:0:0:0:
256,192,96412,1,0,0:0:0:0:
256,192,97006,1,8,0:0:0:0:
256,192,97303,1,8,0:0:0:0:
256,192,97600,1,0,0:0:0:0:
256,192,98194,1,8,0:0:0:0:
256,192,98788,1,0,0:0:0:0:
256,192,99976,1,0,0:0:0:0:
256,192,100571,1,0,0:0:0:0:
256,192,100868,1,0,0:0:0:0:
256,192,101165,1,8,0:0:0:0:
256,192,101759,1,0,0:0:0:0:
256,192,102353,1,8,0:0:0:0:
256,192,102650,1,8,0:0:0:0:
256,192,102947,1,0,0:0:0:0:
256,192,103244,1,0,0:0:0:0:
256,192,103541,1,8,0:0:0:0:
256,192,104729,1,0,0:0:0:0:
256,192,105323,1,8,0:0:0:0:
256,192,105917,1,0,0:0:0:0:
256,192,106214,1,0,0:0:0:0:
256,192,106511,1,8,0:0:0:0:
256,192,107105,1,0,0:0:0:0:
256,192,107699,1,8,0:0:0:0:
256,192,107996,1,8,0:0:0:0:
256,192,108293,1,0,0:0:0:0:
256,192,109481,1,0,0:0:0:0:
256,192,109778,1,0,0:0:0:0:
256,192,110075,1,8,0:0:0:0:
256,192,110373,1,0,0:0:0:0:
256,192,110670,1,8,0:0:0:0:
256,192,110967,1,8,0:0:0:0:
256,192,111264,1,0,0:0:0:0:
256,192,111858,1,8,0:0:0:0:
256,192,114234,1,4,0:0:0:0:
256,192,114828,1,8,0:0:0:0:
256,192,115125,1,0,0:0:0:0:
256,192,115422,1,8,0:0:0:0:
256,192,116016,1,0,0:0:0:0:
256,192,116610,1,8,0:0:0:0:
256,192,116907,1,8,0:0:0:0:
256,192,117204,1,0,0:0:0:0:
256,192,117501,1,8,0:0:0:0:
256,192,117798,1,0,0:0:0:0:
256,192,118392,1,8,0:0:0:0:
256,192,118986,1,0,0:0:0:0:
256,192,119580,1,8,0:0:0:0:
256,192,119877,1,8,0:0:0:0:
256,192,120174,1,0,0:0:0:0:
256,192,120769,1,8,0:0:0:0:
256,192,121363,1,0,0:0:0:0:
256,192,121660,1,8,0:0:0:0:
256,192,121957,1,0,0:0:0:0:
256,192,122254,1,0,0:0:0:0:
256,192,122551,1,8,0:0:0:0:
256,192,123739,1,0,0:0:0:0:
256,192,124184,1,0,0:0:0:0:
256,192,124630,1,0,0:0:0:0:
256,192,126115,1,4,0:0:0:0:
256,192,126709,1,8,0:0:0:0:
256,192,127006,1,0,0:0:0:0:
256,192,127303,1,0,0:0:0:0:
256,192,127897,1,8,0:0:0:0:
256,192,128491,1,0,0:0:0:0:
256,192,129382,1,0,0:0:0:0:
256,192,129679,1,8,0:0:0:0:
256,192,130571,1,8,0:0:0:0:
256,192,130868,1,0,0:0:0:0:
256,192,131462,1,0,0:0:0:0:
256,192,131759,1,0,0:0:0:0:
256,192,132056,1,8,0:0:0:0:
256,192,133244,1,4,0:0:0:0:
256,192,133838,1,0,0:0:0:0:
256,192,134432,1,0,0:0:0:0:
256,192,135026,1,8,0:0:0:0:
256,192,135620,1,0,0:0:0:0:
256,192,135917,1,0,0:0:0:0:
256,192,136214,1,8,0:0:0:0:
256,192,136808,1,0,0:0:0:0:
256,192,137996,1,8,0:0:0:0:
256,192,138293,1,8,0:0:0:0:
256,192,138590,1,0,0:0:0:0:
256,192,139184,1,8,0:0:0:0:
256,192,139778,1,0,0:0:0:0:
256,192,140373,1,8,0:0:0:0:
256,192,140670,1,0,0:0:0:0:
256,192,140967,1,8,0:0:0:0:
256,192,141561,1,8,0:0:0:0:
256,192,142749,1,0,0:0:0:0:
256,192,143343,1,8,0:0:0:0:
256,192,143937,1,0,0:0:0:0:
256,192,144234,1,0,0:0:0:0:
256,192,144531,1,8,0:0:0:0:
256,192,144828,1,8,0:0:0:0:
256,192,145125,1,0,0:0:0:0:
256,192,145719,1,8,0:0:0:0:
256,192,146313,1,0,0:0:0:0:
256,192,147501,1,0,0:0:0:0:
256,192,147798,1,0,0:0:0:0:
256,192,148095,1,8,0:0:0:0:
256,192,148689,1,0,0:0:0:0:
256,192,149283,1,8,0:0:0:0:
256,192,149877,1,0,0:0:0:0:
256,192,150175,1,8,0:0:0:0:
256,192,152254,1,4,0:0:0:0:
