osu file format v14

[General]
AudioFilename: audio.mp3
AudioLeadIn: 0
PreviewTime: -1
Countdown: 1
SampleSet: None
StackLeniency: 0.7
Mode: 0
LetterboxInBreaks: 0
WidescreenStoryboard: 1

[Editor]
DistanceSpacing: 1
BeatDivisor: 4
GridSize: 4
TimelineZoom: 1

[Metadata]
Title:Honesty - Stream Practice
TitleUnicode:Honesty - Stream Practice
Artist:Gyze
ArtistUnicode:Gyze
Creator:leon737
Version:One Stream 185 Bpm [Ar 9.3]
Source:
Tags:
BeatmapID:1992367
BeatmapSetID:954286

[Difficulty]
HPDrainRate:6
CircleSize:4.2
OverallDifficulty:9.5
ApproachRate:9.3
SliderMultiplier:1.4
SliderTickRate:1

[Events]
//Background and Video events
//Break Periods
//Storyboard Layer 0 (Background)
//Storyboard Layer 1 (Fail)
//Storyboard Layer 2 (Pass)
//Storyboard Layer 3 (Foreground)
//Storyboard Sound Samples

[TimingPoints]
2834,324.324324324324,4,1,0,50,1,0

[HitObjects]
356,95,222725,5,0,0:0:0:0:
356,95,222806,1,0,0:0:0:0:
356,95,222888,1,0,0:0:0:0:
356,95,222969,1,0,0:0:0:0:
356,95,223050,1,0,0:0:0:0:
356,95,223131,1,0,0:0:0:0:
356,95,223212,1,0,0:0:0:0:
356,95,223293,1,0,0:0:0:0:
356,95,223374,5,0,0:0:0:0:
368,130,223455,1,0,0:0:0:0:
368,167,223536,1,0,0:0:0:0:
355,201,223617,1,0,0:0:0:0:
323,222,223698,1,0,0:0:0:0:
285,227,223779,1,0,0:0:0:0:
248,218,223861,1,0,0:0:0:0:
223,189,223942,1,0,0:0:0:0:
213,152,224023,1,0,0:0:0:0:
203,114,224104,1,0,0:0:0:0:
182,82,224185,1,0,0:0:0:0:
146,69,224266,1,0,0:0:0:0:
108,76,224347,1,0,0:0:0:0:
82,103,224428,1,0,0:0:0:0:
74,139,224509,1,0,0:0:0:0:
71,177,224590,5,0,0:0:0:0:
83,212,224671,1,0,0:0:0:0:
109,239,224752,1,0,0:0:0:0:
145,252,224833,1,0,0:0:0:0:
182,253,224915,1,0,0:0:0:0:
218,248,224996,1,0,0:0:0:0:
254,243,225077,1,0,0:0:0:0:
290,235,225158,1,0,0:0:0:0:
326,225,225239,1,0,0:0:0:0:
362,216,225320,1,0,0:0:0:0:
399,220,225401,1,0,0:0:0:0:
430,241,225482,1,0,0:0:0:0:
441,277,225563,1,0,0:0:0:0:
436,313,225644,1,0,0:0:0:0:
418,344,225725,1,0,0:0:0:0:
383,354,225806,5,0,0:0:0:0:
346,347,225888,1,0,0:0:0:0:
313,326,225969,1,0,0:0:0:0:
289,296,226050,1,0,0:0:0:0:
277,260,226131,1,0,0:0:0:0:
272,223,226212,1,0,0:0:0:0:
276,185,226293,1,0,0:0:0:0:
293,150,226374,1,0,0:0:0:0:
320,124,226455,1,0,0:0:0:0:
350,100,226536,1,0,0:0:0:0:
366,65,226617,1,0,0:0:0:0:
355,31,226698,1,0,0:0:0:0:
322,16,226779,1,0,0:0:0:0:
284,16,226861,1,0,0:0:0:0:
249,31,226942,1,0,0:0:0:0:
223,58,227023,5,0,0:0:0:0:
199,86,227104,1,0,0:0:0:0:
180,118,227185,1,0,0:0:0:0:
174,153,227266,1,0,0:0:0:0:
173,190,227347,1,0,0:0:0:0:
182,226,227428,1,0,0:0:0:0:
199,259,227509,1,0,0:0:0:0:
230,280,227590,1,0,0:0:0:0:
265,291,227671,1,0,0:0:0:0:
302,293,227752,1,0,0:0:0:0:
339,298,227833,1,0,0:0:0:0:
377,301,227915,1,0,0:0:0:0:
414,303,227996,1,0,0:0:0:0:
449,313,228077,1,0,0:0:0:0:
478,339,228158,1,0,0:0:0:0:
494,374,228239,5,0,0:0:0:0:
456,372,228320,1,0,0:0:0:0:
421,358,228401,1,0,0:0:0:0:
396,328,228482,1,0,0:0:0:0:
386,291,228563,1,0,0:0:0:0:
381,253,228644,1,0,0:0:0:0:
377,215,228725,1,0,0:0:0:0:
375,176,228806,1,0,0:0:0:0:
358,141,228888,1,0,0:0:0:0:
323,126,228969,1,0,0:0:0:0:
285,130,229050,1,0,0:0:0:0:
265,160,229131,1,0,0:0:0:0:
279,194,229212,1,0,0:0:0:0:
312,209,229293,1,0,0:0:0:0:
345,226,229374,1,0,0:0:0:0:
370,254,229455,5,0,0:0:0:0:
371,291,229536,1,0,0:0:0:0:
349,321,229617,1,0,0:0:0:0:
311,324,229698,1,0,0:0:0:0:
276,311,229779,1,0,0:0:0:0:
245,286,229861,1,0,0:0:0:0:
219,258,229942,1,0,0:0:0:0:
195,227,230023,1,0,0:0:0:0:
173,195,230104,1,0,0:0:0:0:
154,163,230185,1,0,0:0:0:0:
152,125,230266,1,0,0:0:0:0:
170,91,230347,1,0,0:0:0:0:
203,73,230428,1,0,0:0:0:0:
241,69,230509,1,0,0:0:0:0:
276,74,230590,1,0,0:0:0:0:
312,85,230671,5,0,0:0:0:0:
346,99,230752,1,0,0:0:0:0:
371,127,230833,1,0,0:0:0:0:
392,157,230915,1,0,0:0:0:0:
409,191,230996,1,0,0:0:0:0:
429,223,231077,1,0,0:0:0:0:
449,254,231158,1,0,0:0:0:0:
448,291,231239,1,0,0:0:0:0:
430,323,231320,1,0,0:0:0:0:
393,331,231401,1,0,0:0:0:0:
355,329,231482,1,0,0:0:0:0:
319,316,231563,1,0,0:0:0:0:
283,302,231644,1,0,0:0:0:0:
251,282,231725,1,0,0:0:0:0:
221,258,231806,1,0,0:0:0:0:
193,232,231888,5,0,0:0:0:0:
171,201,231969,1,0,0:0:0:0:
167,163,232050,1,0,0:0:0:0:
192,136,232131,1,0,0:0:0:0:
229,138,232212,1,0,0:0:0:0:
251,169,232293,1,0,0:0:0:0:
256,206,232374,1,0,0:0:0:0:
263,243,232455,1,0,0:0:0:0:
290,269,232536,1,0,0:0:0:0:
326,260,232617,1,0,0:0:0:0:
356,239,232698,1,0,0:0:0:0:
373,204,232779,1,0,0:0:0:0:
376,165,232861,1,0,0:0:0:0:
360,131,232942,1,0,0:0:0:0:
328,110,233023,1,0,0:0:0:0:
291,101,233104,5,0,0:0:0:0:
253,102,233185,1,0,0:0:0:0:
216,103,233266,1,0,0:0:0:0:
184,119,233347,1,0,0:0:0:0:
178,152,233428,1,0,0:0:0:0:
181,187,233509,1,0,0:0:0:0:
203,217,233590,1,0,0:0:0:0:
233,237,233671,1,0,0:0:0:0:
269,243,233752,1,0,0:0:0:0:
307,239,233833,1,0,0:0:0:0:
344,231,233915,1,0,0:0:0:0:
375,208,233996,1,0,0:0:0:0:
399,179,234077,1,0,0:0:0:0:
417,145,234158,1,0,0:0:0:0:
416,106,234239,1,0,0:0:0:0:
397,74,234320,5,0,0:0:0:0:
361,62,234401,1,0,0:0:0:0:
323,64,234482,1,0,0:0:0:0:
286,73,234563,1,0,0:0:0:0:
256,96,234644,1,0,0:0:0:0:
248,131,234725,1,0,0:0:0:0:
247,168,234806,1,0,0:0:0:0:
251,205,234888,1,0,0:0:0:0:
263,241,234969,1,0,0:0:0:0:
289,268,235050,1,0,0:0:0:0:
298,306,235131,1,0,0:0:0:0:
273,334,235212,1,0,0:0:0:0:
241,352,235293,1,0,0:0:0:0:
204,351,235374,1,0,0:0:0:0:
168,336,235455,1,0,0:0:0:0:
141,309,235536,5,0,0:0:0:0:
125,274,235617,1,0,0:0:0:0:
120,238,235698,1,0,0:0:0:0:
132,200,235779,1,0,0:0:0:0:
158,174,235861,1,0,0:0:0:0:
192,159,235942,1,0,0:0:0:0:
229,152,236023,1,0,0:0:0:0:
266,152,236104,1,0,0:0:0:0:
304,152,236185,1,0,0:0:0:0:
339,162,236266,1,0,0:0:0:0:
371,183,236347,1,0,0:0:0:0:
390,215,236428,1,0,0:0:0:0:
400,252,236509,1,0,0:0:0:0:
401,288,236590,1,0,0:0:0:0:
381,319,236671,1,0,0:0:0:0:
345,329,236752,5,0,0:0:0:0:
308,320,236833,1,0,0:0:0:0:
273,305,236915,1,0,0:0:0:0:
239,285,236996,1,0,0:0:0:0:
210,260,237077,1,0,0:0:0:0:
183,231,237158,1,0,0:0:0:0:
157,202,237239,1,0,0:0:0:0:
134,170,237320,1,0,0:0:0:0:
129,132,237401,1,0,0:0:0:0:
148,99,237482,1,0,0:0:0:0:
183,85,237563,1,0,0:0:0:0:
219,88,237644,1,0,0:0:0:0:
251,106,237725,1,0,0:0:0:0:
280,130,237806,1,0,0:0:0:0:
298,162,237888,1,0,0:0:0:0:
310,197,237969,5,0,0:0:0:0:
316,234,238050,1,0,0:0:0:0:
311,270,238131,1,0,0:0:0:0:
293,299,238212,1,0,0:0:0:0:
259,314,238293,1,0,0:0:0:0:
222,316,238374,1,0,0:0:0:0:
184,309,238455,1,0,0:0:0:0:
150,293,238536,1,0,0:0:0:0:
131,258,238617,1,0,0:0:0:0:
125,220,238698,1,0,0:0:0:0:
140,183,238779,1,0,0:0:0:0:
168,157,238861,1,0,0:0:0:0:
205,160,238942,1,0,0:0:0:0:
234,182,239023,1,0,0:0:0:0:
254,213,239104,1,0,0:0:0:0:
273,245,239185,5,0,0:0:0:0:
295,275,239266,1,0,0:0:0:0:
330,288,239347,1,0,0:0:0:0:
363,272,239428,1,0,0:0:0:0:
377,238,239509,1,0,0:0:0:0:
365,201,239590,1,0,0:0:0:0:
331,184,239671,1,0,0:0:0:0:
296,171,239752,1,0,0:0:0:0:
270,143,239833,1,0,0:0:0:0:
274,104,239915,1,0,0:0:0:0:
306,83,239996,1,0,0:0:0:0:
344,90,240077,1,0,0:0:0:0:
365,122,240158,1,0,0:0:0:0:
355,157,240239,1,0,0:0:0:0:
323,178,240320,1,0,0:0:0:0:
285,175,240401,5,0,0:0:0:0:
249,165,240482,1,0,0:0:0:0:
216,144,240563,1,0,0:0:0:0:
191,116,240644,1,0,0:0:0:0:
164,88,240725,1,0,0:0:0:0:
128,72,240806,1,0,0:0:0:0:
92,83,240888,1,0,0:0:0:0:
66,110,240969,1,0,0:0:0:0:
51,144,241050,1,0,0:0:0:0:
43,180,241131,1,0,0:0:0:0:
43,217,241212,1,0,0:0:0:0:
51,255,241293,1,0,0:0:0:0:
74,287,241374,1,0,0:0:0:0:
107,305,241455,1,0,0:0:0:0:
144,310,241536,1,0,0:0:0:0:
181,307,241617,5,0,0:0:0:0:
218,299,241698,1,0,0:0:0:0:
255,292,241779,1,0,0:0:0:0:
290,282,241861,1,0,0:0:0:0:
327,273,241942,1,0,0:0:0:0:
358,249,242023,1,0,0:0:0:0:
383,220,242104,1,0,0:0:0:0:
406,188,242185,1,0,0:0:0:0:
409,150,242266,1,0,0:0:0:0:
400,113,242347,1,0,0:0:0:0:
365,96,242428,1,0,0:0:0:0:
332,114,242509,1,0,0:0:0:0:
333,152,242590,1,0,0:0:0:0:
349,184,242671,1,0,0:0:0:0:
364,218,242752,1,0,0:0:0:0:
379,253,242833,5,0,0:0:0:0:
384,290,242915,1,0,0:0:0:0:
366,325,242996,1,0,0:0:0:0:
335,344,243077,1,0,0:0:0:0:
297,350,243158,1,0,0:0:0:0:
260,345,243239,1,0,0:0:0:0:
223,334,243320,1,0,0:0:0:0:
193,311,243401,1,0,0:0:0:0:
166,282,243482,1,0,0:0:0:0:
154,248,243563,1,0,0:0:0:0:
172,233,243644,1,0,0:0:0:0:
172,233,243725,1,0,0:0:0:0:
172,233,243806,1,0,0:0:0:0:
172,233,243888,1,0,0:0:0:0:
172,233,243969,1,0,0:0:0:0:
172,233,244050,1,0,0:0:0:0:
172,233,244131,5,0,0:0:0:0:
206,248,244212,1,0,0:0:0:0:
242,256,244293,1,0,0:0:0:0:
278,254,244374,1,0,0:0:0:0:
315,244,244455,1,0,0:0:0:0:
341,220,244536,1,0,0:0:0:0:
353,184,244617,1,0,0:0:0:0:
354,147,244698,1,0,0:0:0:0:
343,110,244779,1,0,0:0:0:0:
312,87,244861,1,0,0:0:0:0:
276,75,244942,1,0,0:0:0:0:
239,81,245023,1,0,0:0:0:0:
205,97,245104,1,0,0:0:0:0:
189,129,245185,1,0,0:0:0:0:
177,164,245266,1,0,0:0:0:0:
171,202,245347,5,0,0:0:0:0:
178,240,245428,1,0,0:0:0:0:
205,268,245509,1,0,0:0:0:0:
240,284,245590,1,0,0:0:0:0:
262,314,245671,1,0,0:0:0:0:
262,350,245752,1,0,0:0:0:0:
232,373,245833,1,0,0:0:0:0:
195,374,245915,1,0,0:0:0:0:
157,371,245996,1,0,0:0:0:0:
122,358,246077,1,0,0:0:0:0:
92,333,246158,1,0,0:0:0:0:
68,302,246239,1,0,0:0:0:0:
46,270,246320,1,0,0:0:0:0:
34,232,246401,1,0,0:0:0:0:
29,193,246482,1,0,0:0:0:0:
31,154,246563,5,0,0:0:0:0:
43,117,246644,1,0,0:0:0:0:
64,85,246725,1,0,0:0:0:0:
94,63,246806,1,0,0:0:0:0:
127,45,246888,1,0,0:0:0:0:
164,38,246969,1,0,0:0:0:0:
201,41,247050,1,0,0:0:0:0:
238,51,247131,1,0,0:0:0:0:
265,77,247212,1,0,0:0:0:0:
281,114,247293,1,0,0:0:0:0:
284,152,247374,1,0,0:0:0:0:
270,189,247455,1,0,0:0:0:0:
244,217,247536,1,0,0:0:0:0:
226,250,247617,1,0,0:0:0:0:
224,288,247698,1,0,0:0:0:0:
236,325,247779,5,0,0:0:0:0:
264,349,247861,1,0,0:0:0:0:
300,360,247942,1,0,0:0:0:0:
336,357,248023,1,0,0:0:0:0:
371,341,248104,1,0,0:0:0:0:
404,319,248185,1,0,0:0:0:0:
427,289,248266,1,0,0:0:0:0:
441,253,248347,1,0,0:0:0:0:
441,215,248428,1,0,0:0:0:0:
431,178,248509,1,0,0:0:0:0:
411,146,248590,1,0,0:0:0:0:
382,120,248671,1,0,0:0:0:0:
349,101,248752,1,0,0:0:0:0:
312,89,248833,1,0,0:0:0:0:
274,89,248915,1,0,0:0:0:0:
236,98,248996,5,0,0:0:0:0:
207,121,249077,1,0,0:0:0:0:
179,146,249158,1,0,0:0:0:0:
167,180,249239,1,0,0:0:0:0:
167,218,249320,1,0,0:0:0:0:
189,249,249401,1,0,0:0:0:0:
225,259,249482,1,0,0:0:0:0:
252,285,249563,1,0,0:0:0:0:
251,323,249644,1,0,0:0:0:0:
229,353,249725,1,0,0:0:0:0:
192,363,249806,1,0,0:0:0:0:
154,356,249888,1,0,0:0:0:0:
121,338,249969,1,0,0:0:0:0:
101,306,250050,1,0,0:0:0:0:
88,270,250131,1,0,0:0:0:0:
89,234,250212,5,0,0:0:0:0:
100,197,250293,1,0,0:0:0:0:
120,163,250374,1,0,0:0:0:0:
149,138,250455,1,0,0:0:0:0:
184,124,250536,1,0,0:0:0:0:
220,115,250617,1,0,0:0:0:0:
257,108,250698,1,0,0:0:0:0:
294,116,250779,1,0,0:0:0:0:
327,132,250861,1,0,0:0:0:0:
356,156,250942,1,0,0:0:0:0:
385,181,251023,1,0,0:0:0:0:
404,212,251104,1,0,0:0:0:0:
416,247,251185,1,0,0:0:0:0:
424,285,251266,1,0,0:0:0:0:
420,322,251347,1,0,0:0:0:0:
427,359,251428,5,0,0:0:0:0:
391,349,251509,1,0,0:0:0:0:
354,338,251590,1,0,0:0:0:0:
316,336,251671,1,0,0:0:0:0:
280,344,251752,1,0,0:0:0:0:
242,351,251833,1,0,0:0:0:0:
204,348,251915,1,0,0:0:0:0:
170,333,251996,1,0,0:0:0:0:
143,304,252077,1,0,0:0:0:0:
126,272,252158,1,0,0:0:0:0:
120,234,252239,1,0,0:0:0:0:
133,197,252320,1,0,0:0:0:0:
165,177,252401,1,0,0:0:0:0:
201,167,252482,1,0,0:0:0:0:
236,177,252563,1,0,0:0:0:0:
265,198,252644,5,0,0:0:0:0:
290,227,252725,1,0,0:0:0:0:
318,251,252806,1,0,0:0:0:0:
353,264,252888,1,0,0:0:0:0:
390,258,252969,1,0,0:0:0:0:
424,242,253050,1,0,0:0:0:0:
447,212,253131,1,0,0:0:0:0:
462,177,253212,1,0,0:0:0:0:
465,138,253293,1,0,0:0:0:0:
453,102,253374,1,0,0:0:0:0:
426,74,253455,1,0,0:0:0:0:
392,54,253536,1,0,0:0:0:0:
353,54,253617,1,0,0:0:0:0:
317,66,253698,1,0,0:0:0:0:
282,80,253779,1,0,0:0:0:0:
247,94,253861,5,0,0:0:0:0:
213,109,253942,1,0,0:0:0:0:
186,133,254023,1,0,0:0:0:0:
177,169,254104,1,0,0:0:0:0:
178,206,254185,1,0,0:0:0:0:
193,240,254266,1,0,0:0:0:0:
221,264,254347,1,0,0:0:0:0:
257,272,254428,1,0,0:0:0:0:
293,265,254509,1,0,0:0:0:0:
326,248,254590,1,0,0:0:0:0:
348,217,254671,1,0,0:0:0:0:
358,180,254752,1,0,0:0:0:0:
353,142,254833,1,0,0:0:0:0:
321,121,254915,1,0,0:0:0:0:
284,121,254996,1,0,0:0:0:0:
246,120,255077,5,0,0:0:0:0:
209,108,255158,1,0,0:0:0:0:
187,75,255239,1,0,0:0:0:0:
164,44,255320,1,0,0:0:0:0:
125,37,255401,1,0,0:0:0:0:
89,49,255482,1,0,0:0:0:0:
61,74,255563,1,0,0:0:0:0:
48,109,255644,1,0,0:0:0:0:
43,145,255725,1,0,0:0:0:0:
46,182,255806,1,0,0:0:0:0:
55,217,255888,1,0,0:0:0:0:
81,244,255969,1,0,0:0:0:0:
114,263,256050,1,0,0:0:0:0:
151,262,256131,1,0,0:0:0:0:
188,258,256212,1,0,0:0:0:0:
224,248,256293,5,0,0:0:0:0:
257,231,256374,1,0,0:0:0:0:
288,209,256455,1,0,0:0:0:0:
313,181,256536,1,0,0:0:0:0:
327,145,256617,1,0,0:0:0:0:
333,107,256698,1,0,0:0:0:0:
347,71,256779,1,0,0:0:0:0:
380,52,256861,1,0,0:0:0:0:
415,63,256942,1,0,0:0:0:0:
441,91,257023,1,0,0:0:0:0:
460,123,257104,1,0,0:0:0:0:
468,159,257185,1,0,0:0:0:0:
465,196,257266,1,0,0:0:0:0:
451,231,257347,1,0,0:0:0:0:
425,257,257428,1,0,0:0:0:0:
393,278,257509,5,0,0:0:0:0:
356,285,257590,1,0,0:0:0:0:
318,288,257671,1,0,0:0:0:0:
280,283,257752,1,0,0:0:0:0:
244,272,257833,1,0,0:0:0:0:
212,251,257915,1,0,0:0:0:0:
193,217,257996,1,0,0:0:0:0:
177,182,258077,1,0,0:0:0:0:
159,147,258158,1,0,0:0:0:0:
125,129,258239,1,0,0:0:0:0:
87,128,258320,1,0,0:0:0:0:
52,144,258401,1,0,0:0:0:0:
30,174,258482,1,0,0:0:0:0:
23,211,258563,1,0,0:0:0:0:
27,248,258644,1,0,0:0:0:0:
36,283,258725,5,0,0:0:0:0:
61,310,258806,1,0,0:0:0:0:
96,323,258888,1,0,0:0:0:0:
133,327,258969,1,0,0:0:0:0:
169,318,259050,1,0,0:0:0:0:
200,298,259131,1,0,0:0:0:0:
223,268,259212,1,0,0:0:0:0:
241,234,259293,1,0,0:0:0:0:
257,200,259374,1,0,0:0:0:0:
272,166,259455,1,0,0:0:0:0:
291,134,259536,1,0,0:0:0:0:
316,105,259617,1,0,0:0:0:0:
351,90,259698,1,0,0:0:0:0:
388,87,259779,1,0,0:0:0:0:
423,98,259861,1,0,0:0:0:0:
446,127,259942,5,0,0:0:0:0:
454,163,260023,1,0,0:0:0:0:
450,200,260104,1,0,0:0:0:0:
433,234,260185,1,0,0:0:0:0:
405,259,260266,1,0,0:0:0:0:
373,278,260347,1,0,0:0:0:0:
339,292,260428,1,0,0:0:0:0:
302,300,260509,1,0,0:0:0:0:
264,299,260590,1,0,0:0:0:0:
227,288,260671,1,0,0:0:0:0:
192,269,260752,1,0,0:0:0:0:
171,237,260833,1,0,0:0:0:0:
151,206,260915,1,0,0:0:0:0:
141,168,260996,5,0,0:0:0:0:
181,181,261077,1,0,0:0:0:0:
223,186,261158,1,0,0:0:0:0:
264,179,261239,1,0,0:0:0:0:
302,159,261320,1,0,0:0:0:0:
331,127,261401,1,0,0:0:0:0:
353,90,261482,1,0,0:0:0:0:
381,58,261563,1,0,0:0:0:0:
423,48,261644,1,0,0:0:0:0:
459,70,261725,1,0,0:0:0:0:
478,108,261806,1,0,0:0:0:0:
481,151,261888,1,0,0:0:0:0:
475,193,261969,1,0,0:0:0:0:
451,228,262050,1,0,0:0:0:0:
415,250,262131,1,0,0:0:0:0:
374,260,262212,1,0,0:0:0:0:
332,258,262293,5,0,0:0:0:0:
350,213,262374,1,0,0:0:0:0:
366,169,262455,1,0,0:0:0:0:
363,120,262536,1,0,0:0:0:0:
340,78,262617,1,0,0:0:0:0:
303,46,262698,1,0,0:0:0:0:
255,36,262779,1,0,0:0:0:0:
206,38,262861,1,0,0:0:0:0:
166,65,262942,1,0,0:0:0:0:
143,108,263023,1,0,0:0:0:0:
140,157,263104,1,0,0:0:0:0:
147,205,263185,1,0,0:0:0:0:
166,250,263266,1,0,0:0:0:0:
199,285,263347,1,0,0:0:0:0:
239,314,263428,1,0,0:0:0:0:
287,323,263509,1,0,0:0:0:0:
336,319,263590,5,0,0:0:0:0:
309,270,263671,1,0,0:0:0:0:
292,217,263752,1,0,0:0:0:0:
311,164,263833,1,0,0:0:0:0:
350,122,263915,1,0,0:0:0:0:
360,67,263996,1,0,0:0:0:0:
327,22,264077,1,0,0:0:0:0:
271,14,264158,1,0,0:0:0:0:
217,27,264239,1,0,0:0:0:0:
170,58,264320,1,0,0:0:0:0:
143,107,264401,1,0,0:0:0:0:
141,163,264482,1,0,0:0:0:0:
159,216,264563,1,0,0:0:0:0:
193,260,264644,1,0,0:0:0:0:
241,288,264725,1,0,0:0:0:0:
296,296,264806,1,0,0:0:0:0:
348,274,264888,5,0,0:0:0:0:
317,236,264969,1,0,0:0:0:0:
278,205,265050,1,0,0:0:0:0:
232,187,265131,1,0,0:0:0:0:
183,194,265212,1,0,0:0:0:0:
141,219,265293,1,0,0:0:0:0:
119,263,265374,1,0,0:0:0:0:
125,311,265455,1,0,0:0:0:0:
158,347,265536,1,0,0:0:0:0:
206,356,265617,1,0,0:0:0:0:
254,346,265698,1,0,0:0:0:0:
288,311,265779,1,0,0:0:0:0:
302,263,265861,1,0,0:0:0:0:
296,214,265942,1,0,0:0:0:0:
275,170,266023,1,0,0:0:0:0:
243,133,266104,1,0,0:0:0:0:
206,101,266185,5,0,0:0:0:0:
258,78,266266,1,0,0:0:0:0:
314,83,266347,1,0,0:0:0:0:
363,110,266428,1,0,0:0:0:0:
396,155,266509,1,0,0:0:0:0:
414,208,266590,1,0,0:0:0:0:
402,263,266671,1,0,0:0:0:0:
356,295,266752,1,0,0:0:0:0:
301,301,266833,1,0,0:0:0:0:
248,280,266915,1,0,0:0:0:0:
219,232,266996,1,0,0:0:0:0:
210,177,267077,1,0,0:0:0:0:
228,124,267158,1,0,0:0:0:0:
278,98,267239,1,0,0:0:0:0:
334,103,267320,1,0,0:0:0:0:
366,149,267401,1,0,0:0:0:0:
389,200,267482,5,0,0:0:0:0:
369,260,267563,1,0,0:0:0:0:
319,298,267644,1,0,0:0:0:0:
257,309,267725,1,0,0:0:0:0:
194,305,267806,1,0,0:0:0:0:
132,291,267888,1,0,0:0:0:0:
86,248,267969,1,0,0:0:0:0:
68,187,268050,1,0,0:0:0:0:
85,126,268131,1,0,0:0:0:0:
136,89,268212,1,0,0:0:0:0:
198,102,268293,1,0,0:0:0:0:
239,148,268374,1,0,0:0:0:0:
261,207,268455,1,0,0:0:0:0:
276,269,268536,1,0,0:0:0:0:
317,317,268617,1,0,0:0:0:0:
377,336,268698,1,0,0:0:0:0:
440,332,268779,5,0,0:0:0:0:
408,269,268861,1,0,0:0:0:0:
374,206,268942,1,0,0:0:0:0:
335,147,269023,1,0,0:0:0:0:
285,97,269104,1,0,0:0:0:0:
217,80,269185,1,0,0:0:0:0:
149,89,269266,1,0,0:0:0:0:
97,131,269347,1,0,0:0:0:0:
82,197,269428,1,0,0:0:0:0:
93,263,269509,1,0,0:0:0:0:
131,318,269590,1,0,0:0:0:0:
191,345,269671,1,0,0:0:0:0:
257,344,269752,1,0,0:0:0:0:
324,338,269833,1,0,0:0:0:0:
383,308,269915,1,0,0:0:0:0:
424,255,269996,1,0,0:0:0:0:
440,189,270077,5,0,0:0:0:0:
433,151,270158,1,0,0:0:0:0:
408,122,270239,1,0,0:0:0:0:
374,103,270320,1,0,0:0:0:0:
337,93,270401,1,0,0:0:0:0:
299,93,270482,1,0,0:0:0:0:
265,110,270563,1,0,0:0:0:0:
242,139,270644,1,0,0:0:0:0:
236,176,270725,1,0,0:0:0:0:
241,213,270806,1,0,0:0:0:0:
260,247,270888,1,0,0:0:0:0:
292,270,270969,1,0,0:0:0:0:
326,286,271050,1,0,0:0:0:0:
364,288,271131,1,0,0:0:0:0:
400,277,271212,1,0,0:0:0:0:
435,261,271293,5,0,0:0:0:0:
436,299,271374,1,0,0:0:0:0:
421,334,271455,1,0,0:0:0:0:
388,352,271536,1,0,0:0:0:0:
349,351,271617,1,0,0:0:0:0:
314,338,271698,1,0,0:0:0:0:
286,312,271779,1,0,0:0:0:0:
269,278,271861,1,0,0:0:0:0:
263,240,271942,1,0,0:0:0:0:
257,200,272023,1,0,0:0:0:0:
251,161,272104,1,0,0:0:0:0:
244,123,272185,1,0,0:0:0:0:
223,90,272266,1,0,0:0:0:0:
190,69,272347,1,0,0:0:0:0:
153,71,272428,1,0,0:0:0:0:
118,84,272509,5,0,0:0:0:0:
97,116,272590,1,0,0:0:0:0:
92,152,272671,1,0,0:0:0:0:
100,188,272752,1,0,0:0:0:0:
124,218,272833,1,0,0:0:0:0:
156,238,272915,1,0,0:0:0:0:
193,241,272996,1,0,0:0:0:0:
229,236,273077,1,0,0:0:0:0:
265,224,273158,1,0,0:0:0:0:
295,200,273239,1,0,0:0:0:0:
310,165,273320,1,0,0:0:0:0:
325,129,273401,1,0,0:0:0:0:
353,103,273482,1,0,0:0:0:0:
391,100,273563,1,0,0:0:0:0:
424,117,273644,1,0,0:0:0:0:
436,152,273725,5,0,0:0:0:0:
439,188,273806,1,0,0:0:0:0:
439,225,273888,1,0,0:0:0:0:
440,262,273969,1,0,0:0:0:0:
441,300,274050,1,0,0:0:0:0:
423,333,274131,1,0,0:0:0:0:
387,346,274212,1,0,0:0:0:0:
350,347,274293,1,0,0:0:0:0:
314,333,274374,1,0,0:0:0:0:
281,313,274455,1,0,0:0:0:0:
254,286,274536,1,0,0:0:0:0:
240,250,274617,1,0,0:0:0:0:
239,212,274698,1,0,0:0:0:0:
262,181,274779,1,0,0:0:0:0:
298,175,274861,1,0,0:0:0:0:
328,196,274942,5,0,0:0:0:0:
349,228,275023,1,0,0:0:0:0:
353,266,275104,1,0,0:0:0:0:
370,298,275185,1,0,0:0:0:0:
407,305,275266,1,0,0:0:0:0:
435,279,275347,1,0,0:0:0:0:
453,245,275428,1,0,0:0:0:0:
457,207,275509,1,0,0:0:0:0:
454,168,275590,1,0,0:0:0:0:
437,134,275671,1,0,0:0:0:0:
411,106,275752,1,0,0:0:0:0:
382,82,275833,1,0,0:0:0:0:
345,71,275915,1,0,0:0:0:0:
308,62,275996,1,0,0:0:0:0:
269,62,276077,1,0,0:0:0:0:
231,63,276158,5,0,0:0:0:0:
194,71,276239,1,0,0:0:0:0:
168,98,276320,1,0,0:0:0:0:
146,126,276401,1,0,0:0:0:0:
130,160,276482,1,0,0:0:0:0:
124,198,276563,1,0,0:0:0:0:
124,235,276644,1,0,0:0:0:0:
131,272,276725,1,0,0:0:0:0:
149,305,276806,1,0,0:0:0:0:
179,330,276888,1,0,0:0:0:0:
214,347,276969,1,0,0:0:0:0:
251,354,277050,1,0,0:0:0:0:
288,354,277131,1,0,0:0:0:0:
323,339,277212,1,0,0:0:0:0:
352,315,277293,1,0,0:0:0:0:
373,283,277374,5,0,0:0:0:0:
379,246,277455,1,0,0:0:0:0:
372,210,277536,1,0,0:0:0:0:
345,182,277617,1,0,0:0:0:0:
310,167,277698,1,0,0:0:0:0:
276,148,277779,1,0,0:0:0:0:
243,126,277861,1,0,0:0:0:0:
216,98,277942,1,0,0:0:0:0:
214,60,278023,1,0,0:0:0:0:
237,31,278104,1,0,0:0:0:0:
271,14,278185,1,0,0:0:0:0:
307,15,278266,1,0,0:0:0:0:
342,28,278347,1,0,0:0:0:0:
365,57,278428,1,0,0:0:0:0:
381,91,278509,1,0,0:0:0:0:
386,128,278590,5,0,0:0:0:0:
390,164,278671,1,0,0:0:0:0:
386,200,278752,1,0,0:0:0:0:
361,227,278833,1,0,0:0:0:0:
324,228,278915,1,0,0:0:0:0:
288,214,278996,1,0,0:0:0:0:
264,186,279077,1,0,0:0:0:0:
242,153,279158,1,0,0:0:0:0:
211,129,279239,1,0,0:0:0:0:
173,132,279320,1,0,0:0:0:0:
144,156,279401,1,0,0:0:0:0:
136,192,279482,1,0,0:0:0:0:
154,224,279563,1,0,0:0:0:0:
191,230,279644,1,0,0:0:0:0:
224,211,279725,1,0,0:0:0:0:
247,182,279806,5,0,0:0:0:0:
271,152,279888,1,0,0:0:0:0:
301,130,279969,1,0,0:0:0:0:
337,122,280050,1,0,0:0:0:0:
374,118,280131,1,0,0:0:0:0:
410,128,280212,1,0,0:0:0:0:
442,149,280293,1,0,0:0:0:0:
462,182,280374,1,0,0:0:0:0:
475,216,280455,1,0,0:0:0:0:
477,253,280536,1,0,0:0:0:0:
469,289,280617,1,0,0:0:0:0:
449,320,280698,1,0,0:0:0:0:
417,341,280779,1,0,0:0:0:0:
379,338,280861,1,0,0:0:0:0:
341,330,280942,1,0,0:0:0:0:
310,308,281023,5,0,0:0:0:0:
289,277,281104,1,0,0:0:0:0:
273,243,281185,1,0,0:0:0:0:
269,205,281266,1,0,0:0:0:0:
276,168,281347,1,0,0:0:0:0:
296,136,281428,1,0,0:0:0:0:
331,122,281509,1,0,0:0:0:0:
368,122,281590,1,0,0:0:0:0:
396,147,281671,1,0,0:0:0:0:
414,178,281752,1,0,0:0:0:0:
423,215,281833,1,0,0:0:0:0:
423,253,281915,1,0,0:0:0:0:
412,288,281996,1,0,0:0:0:0:
379,309,282077,1,0,0:0:0:0:
342,310,282158,1,0,0:0:0:0:
305,307,282239,5,0,0:0:0:0:
271,292,282320,1,0,0:0:0:0:
247,262,282401,1,0,0:0:0:0:
238,224,282482,1,0,0:0:0:0:
237,186,282563,1,0,0:0:0:0:
237,148,282644,1,0,0:0:0:0:
229,111,282725,1,0,0:0:0:0:
197,89,282806,1,0,0:0:0:0:
158,88,282888,1,0,0:0:0:0:
128,109,282969,1,0,0:0:0:0:
109,139,283050,1,0,0:0:0:0:
101,175,283131,1,0,0:0:0:0:
109,211,283212,1,0,0:0:0:0:
134,237,283293,1,0,0:0:0:0:
170,248,283374,1,0,0:0:0:0:
206,249,283455,5,0,0:0:0:0:
242,242,283536,1,0,0:0:0:0:
271,219,283617,1,0,0:0:0:0:
295,191,283698,1,0,0:0:0:0:
331,181,283779,1,0,0:0:0:0:
367,186,283861,1,0,0:0:0:0:
399,205,283942,1,0,0:0:0:0:
421,233,284023,1,0,0:0:0:0:
430,268,284104,1,0,0:0:0:0:
421,303,284185,1,0,0:0:0:0:
397,333,284266,1,0,0:0:0:0:
361,346,284347,1,0,0:0:0:0:
323,346,284428,1,0,0:0:0:0:
288,328,284509,1,0,0:0:0:0:
261,302,284590,1,0,0:0:0:0:
242,270,284671,5,0,0:0:0:0:
228,235,284752,1,0,0:0:0:0:
210,202,284833,1,0,0:0:0:0:
190,169,284915,1,0,0:0:0:0:
164,142,284996,1,0,0:0:0:0:
128,130,285077,1,0,0:0:0:0:
90,136,285158,1,0,0:0:0:0:
67,166,285239,1,0,0:0:0:0:
67,205,285320,1,0,0:0:0:0:
82,239,285401,1,0,0:0:0:0:
104,270,285482,1,0,0:0:0:0:
131,295,285563,1,0,0:0:0:0:
167,304,285644,1,0,0:0:0:0:
202,297,285725,1,0,0:0:0:0:
238,291,285806,1,0,0:0:0:0:
275,282,285888,5,0,0:0:0:0:
311,271,285969,1,0,0:0:0:0:
344,253,286050,1,0,0:0:0:0:
370,224,286131,1,0,0:0:0:0:
383,189,286212,1,0,0:0:0:0:
381,152,286293,1,0,0:0:0:0:
364,117,286374,1,0,0:0:0:0:
337,91,286455,1,0,0:0:0:0:
302,76,286536,1,0,0:0:0:0:
265,66,286617,1,0,0:0:0:0:
228,68,286698,1,0,0:0:0:0:
193,78,286779,1,0,0:0:0:0:
162,101,286861,1,0,0:0:0:0:
126,112,286942,1,0,0:0:0:0:
88,118,287023,1,0,0:0:0:0:
49,116,287104,5,0,0:0:0:0:
62,150,287185,1,0,0:0:0:0:
75,184,287266,1,0,0:0:0:0:
77,219,287347,1,0,0:0:0:0:
70,255,287428,1,0,0:0:0:0:
59,289,287509,1,0,0:0:0:0:
62,325,287590,1,0,0:0:0:0:
84,356,287671,1,0,0:0:0:0:
121,363,287752,1,0,0:0:0:0:
158,357,287833,1,0,0:0:0:0:
191,339,287915,1,0,0:0:0:0:
217,312,287996,1,0,0:0:0:0:
240,281,288077,1,0,0:0:0:0:
254,246,288158,1,0,0:0:0:0:
264,210,288239,1,0,0:0:0:0:
273,172,288320,5,0,0:0:0:0:
289,137,288401,1,0,0:0:0:0:
317,110,288482,1,0,0:0:0:0:
352,98,288563,1,0,0:0:0:0:
389,100,288644,1,0,0:0:0:0:
418,121,288725,1,0,0:0:0:0:
441,149,288806,1,0,0:0:0:0:
454,183,288888,1,0,0:0:0:0:
460,219,288969,1,0,0:0:0:0:
460,255,289050,1,0,0:0:0:0:
448,290,289131,1,0,0:0:0:0:
419,316,289212,1,0,0:0:0:0:
380,317,289293,1,0,0:0:0:0:
342,308,289374,1,0,0:0:0:0:
308,289,289455,1,0,0:0:0:0:
281,259,289536,5,0,0:0:0:0:
261,225,289617,1,0,0:0:0:0:
242,191,289698,1,0,0:0:0:0:
225,158,289779,1,0,0:0:0:0:
202,128,289861,1,0,0:0:0:0:
189,93,289942,1,0,0:0:0:0:
201,57,290023,1,0,0:0:0:0:
232,33,290104,1,0,0:0:0:0:
269,31,290185,1,0,0:0:0:0:
305,43,290266,1,0,0:0:0:0:
334,69,290347,1,0,0:0:0:0:
351,103,290428,1,0,0:0:0:0:
360,139,290509,1,0,0:0:0:0:
363,177,290590,1,0,0:0:0:0:
358,214,290671,1,0,0:0:0:0:
337,245,290752,1,0,0:0:0:0:
256,192,290833,12,0,300725,0:0:0:0:
136,182,300888,6,0,P|146:144|224:80,1,140
256,192,301374,12,0,303806,0:0:0:0:
