osu file format v14

[General]
AudioFilename: audio.mp3
AudioLeadIn: 0
PreviewTime: 222707
Countdown: 1
SampleSet: Normal
StackLeniency: 0.2
Mode: 1
LetterboxInBreaks: 0
WidescreenStoryboard: 0

[Editor]
Bookmarks: 2329,132301,302491
DistanceSpacing: 1.6
BeatDivisor: 2
GridSize: 16
TimelineZoom: 2.899999

[Metadata]
Title:HONESTY
TitleUnicode:HONESTY
Artist:GYZE
ArtistUnicode:GYZE
Creator:Axer
Version:Rebellion
Source:
Tags:black bride melodic death metal ettore rigotti feat disarmonia mundi
BeatmapID:1574205
BeatmapSetID:746993

[Difficulty]
HPDrainRate:4
CircleSize:2
OverallDifficulty:6
ApproachRate:10
SliderMultiplier:1.4
SliderTickRate:1

[Events]
//Background and Video events
0,0,"bg.jpg",0,0
//Break Periods
//Storyboard Layer 0 (Background)
//Storyboard Layer 1 (Fail)
//Storyboard Layer 2 (Pass)
//Storyboard Layer 3 (Foreground)
//Storyboard Sound Samples

[TimingPoints]
1518,324.324324324324,4,1,0,80,1,0
1518,-111.111111111111,4,1,0,80,0,0
2815,-100,4,1,0,80,0,0
22274,-99.1296417454747,4,1,0,80,0,0
22355,-98.2742066568982,4,1,0,80,0,0
22436,-97.4335040693103,4,1,0,80,0,0
22517,-96.6069699996715,4,1,0,80,0,0
22599,-95.7944328107428,4,1,0,80,0,0
22680,-94.9953594766896,4,1,0,80,0,0
22761,-94.2095956241527,4,1,0,80,0,0
22842,-93.4366368790668,4,1,0,80,0,0
22923,-92.6763445484067,4,1,0,80,0,0
23004,-91.9282408152197,4,1,0,80,0,0
23085,-91.1922012429497,4,1,0,80,0,0
23166,-90.4677726653434,4,1,0,80,0,0
23247,-89.754843620136,4,1,0,80,0,0
23328,-89.0529838538035,4,1,0,80,0,0
23409,-88.3620937221383,4,1,0,80,0,0
23490,-87.6817642973885,4,1,0,80,0,0
23572,-86.9565217391304,4,1,0,80,0,0
23653,-87.2727526611644,4,1,0,80,0,0
23734,-87.591215301835,4,1,0,80,0,0
23815,-87.9120879120879,4,1,0,80,0,0
23896,-88.2353200692118,4,1,0,80,0,0
24382,-90.2255910452905,4,1,0,80,0,0
24545,-90.9090909090909,4,1,0,80,0,0
24707,-91.6030254647251,4,1,0,80,0,0
24869,-92.3077207100679,4,1,0,80,0,0
24950,-92.6640640419879,4,1,0,80,0,0
25031,-93.0232558139535,4,1,0,80,0,0
25112,-93.3852430771185,4,1,0,80,0,0
25193,-93.7499707031342,4,1,0,80,0,0
25355,-94.4882187364469,4,1,0,80,0,0
25517,-95.2380952380952,4,1,0,80,0,0
25680,-95.9999692800098,4,1,0,80,0,0
25842,-96.774224765879,4,1,0,80,0,0
26004,-97.5609756097561,4,1,0,80,0,0
26166,-98.3606234883202,4,1,0,80,0,0
26247,-98.7654320987654,4,1,0,80,0,0
26328,-99.173586503665,4,1,0,80,0,0
26409,-99.5850291833928,4,1,0,80,0,0
26490,-100,4,1,0,80,0,0
31193,-90.9090909090909,4,1,0,80,0,0
31517,-89.4771314347479,4,1,0,80,0,0
31599,-89.1261625393826,4,1,0,80,0,0
31680,-88.7779361970728,4,1,0,80,0,0
31842,-88.0895835829205,4,1,0,80,0,0
31923,-87.7493947485497,4,1,0,80,0,0
32004,-87.4118233232227,4,1,0,80,0,0
32166,-86.744412792372,4,1,0,80,0,0
32247,-86.4145148732342,4,1,0,80,0,0
32328,-86.0871167186346,4,1,0,80,0,0
32409,-85.7621900232844,4,1,0,80,0,0
32490,-85.4397069076294,4,1,0,80,0,0
32572,-85.1196399098753,4,1,0,80,0,0
32653,-84.8019619781923,4,1,0,80,0,0
32815,-84.1736671099813,4,1,0,80,0,0
32896,-83.8629980518626,4,1,0,80,0,0
32977,-83.5546138022195,4,1,0,80,0,0
33139,-82.9446684411296,4,1,0,80,0,0
33220,-82.6429888993937,4,1,0,80,0,0
33301,-82.3434958931181,4,1,0,80,0,0
33463,-81.7509750847553,4,1,0,80,0,0
33545,-81.4579009276426,4,1,0,80,0,0
33626,-81.1669205838499,4,1,0,80,0,0
33788,-80.5911522197624,4,1,0,80,0,0
33950,-80,4,1,0,80,0,0
34031,-80.235957905007,4,1,0,80,0,0
34112,-80.4733765904557,4,1,0,80,0,0
34193,-80.7121393478943,4,1,0,80,0,0
34274,-80.9523886621323,4,1,0,80,0,0
34761,-82.4242624058818,4,1,0,80,0,0
34923,-82.9268535395669,4,1,0,80,0,0
35085,-83.4356114870812,4,1,0,80,0,0
35247,-83.9506504496397,4,1,0,80,0,0
35328,-84.2105263157895,4,1,0,80,0,0
35409,-84.4720161105029,4,1,0,80,0,0
35490,-84.7352067157735,4,1,0,80,0,0
35572,-84.9999702500104,4,1,0,80,0,0
35734,-85.534565373213,4,1,0,80,0,0
35896,-86.0759275757145,4,1,0,80,0,0
36058,-86.624186165771,4,1,0,80,0,0
36220,-87.1794737672604,4,1,0,80,0,0
36382,-87.7419264266399,4,1,0,80,0,0
36545,-88.3116837240684,4,1,0,80,0,0
36626,-88.5993854746623,4,1,0,80,0,0
36707,-88.8888888888889,4,1,0,80,0,0
36788,-89.1802904423699,4,1,0,80,0,0
36869,-89.4736889196678,4,1,0,80,0,0
37355,-91.2751873879597,4,1,0,80,0,0
37517,-91.8919167275451,4,1,0,80,0,0
37680,-92.5170370123658,4,1,0,80,0,0
37842,-93.1507206605504,4,1,0,80,0,0
37923,-93.4707852387197,4,1,0,80,0,0
38004,-93.7931448466294,4,1,0,80,0,0
38085,-94.1176470588235,4,1,0,80,0,0
38166,-94.4444024691545,4,1,0,80,0,0
38328,-95.1048578610347,4,1,0,80,0,0
38490,-95.774615512806,4,1,0,80,0,0
38653,-96.4538733464189,4,1,0,80,0,0
38815,-97.1428349387806,4,1,0,80,0,0
38977,-97.8417097251724,4,1,0,80,0,0
39139,-98.5507132115115,4,1,0,80,0,0
39220,-98.9091311920825,4,1,0,80,0,0
39301,-99.2700671959085,4,1,0,80,0,0
39382,-99.6337463484232,4,1,0,80,0,0
39463,-100,4,1,0,80,0,0
41572,-90.9090909090909,4,1,0,80,0,0
41896,-89.4736889196678,4,1,0,80,0,0
42058,-88.7728135034102,4,1,0,80,0,0
42220,-88.0829106821669,4,1,0,80,0,0
42382,-87.4035720091809,4,1,0,80,0,0
42545,-86.7347071532715,4,1,0,80,0,0
42707,-86.0759275757145,4,1,0,80,0,0
42788,-85.7503498614274,4,1,0,80,0,0
42869,-85.427152849679,4,1,0,80,0,0
42950,-85.1063829787234,4,1,0,80,0,0
43031,-84.7880130098727,4,1,0,80,0,0
43193,-84.1584366728804,4,1,0,80,0,0
43355,-83.5380712228888,4,1,0,80,0,0
43517,-82.9268535395669,4,1,0,80,0,0
43680,-82.3244472324991,4,1,0,80,0,0
43842,-81.7307967363258,4,1,0,80,0,0
44004,-81.1455808522396,4,1,0,80,0,0
44166,-80.5687509265406,4,1,0,80,0,0
44328,-80,4,1,0,80,0,0
44490,-81.078013264363,4,1,0,80,0,0
44653,-82.1855437272295,4,1,0,80,0,0
44815,-83.3236816735395,4,1,0,80,0,0
44977,-84.4938564516974,4,1,0,80,0,0
45058,-85.091320004629,4,1,0,80,0,0
45139,-85.6972931652981,4,1,0,80,0,0
45301,-86.9355816033877,4,1,0,80,0,0
45463,-88.2101023501818,4,1,0,80,0,0
45626,-89.5226295302927,4,1,0,80,0,0
45788,-90.8747237408398,4,1,0,80,0,0
45950,-92.2683717861773,4,1,0,80,0,0
46112,-93.7053435472158,4,1,0,80,0,0
46274,-95.1878723035656,4,1,0,80,0,0
46355,-95.9468224331347,4,1,0,80,0,0
46436,-96.7179723270538,4,1,0,80,0,0
46599,-98.2981638885967,4,1,0,80,0,0
46761,-99.9307479916418,4,1,0,80,0,0
46923,-80,4,1,0,80,0,0
47085,-81.0811029948927,4,1,0,80,0,0
47247,-82.1917583036279,4,1,0,80,0,0
47409,-83.3333333333333,4,1,0,80,0,0
47572,-84.5070660583285,4,1,0,80,0,0
47653,-85.1063829787234,4,1,0,80,0,0
47734,-85.7142612244968,4,1,0,80,0,0
47896,-86.9565217391304,4,1,0,80,0,0
48058,-88.2353200692118,4,1,0,80,0,0
48220,-89.5522120739665,4,1,0,80,0,0
48382,-90.9090909090909,4,1,0,80,0,0
48545,-92.3077207100679,4,1,0,80,0,0
48707,-93.7499707031342,4,1,0,80,0,0
48869,-95.2380952380952,4,1,0,80,0,0
48950,-95.9999692800098,4,1,0,80,0,0
49031,-96.774224765879,4,1,0,80,0,0
49193,-98.3606234883202,4,1,0,80,0,0
49355,-100,4,1,0,80,0,0
49517,-80,4,1,0,80,0,0
49680,-81.078013264363,4,1,0,80,0,0
49842,-82.1855437272295,4,1,0,80,0,0
50004,-83.3236816735395,4,1,0,80,0,0
50166,-84.4938564516974,4,1,0,80,0,0
50247,-85.091320004629,4,1,0,80,0,0
50328,-85.6972931652981,4,1,0,80,0,0
50490,-86.9355816033877,4,1,0,80,0,0
50653,-88.2101023501818,4,1,0,80,0,0
50815,-89.5226295302927,4,1,0,80,0,0
50977,-90.8747237408398,4,1,0,80,0,0
51139,-92.2683717861773,4,1,0,80,0,0
51301,-93.7053435472158,4,1,0,80,0,0
51463,-93.4579439252336,4,1,0,80,0,0
51545,-91.7774726686687,4,1,0,80,0,0
51626,-90.1563672032774,4,1,0,80,0,0
51707,-88.5915363189862,4,1,0,80,0,0
51788,-87.0801755884661,4,1,0,80,0,0
51950,-80,4,1,0,80,0,0
52274,-82.5397139833831,4,1,0,80,0,0
52355,-83.2000053248003,4,1,0,80,0,0
52436,-83.8709460978204,4,1,0,80,0,0
52599,-85.2458960494494,4,1,0,80,0,0
52761,-86.6666782222238,4,1,0,80,0,0
52923,-88.1356230968214,4,1,0,80,0,0
53085,-89.6551414982271,4,1,0,80,0,0
53247,-91.2280573715007,4,1,0,80,0,0
53409,-92.8571494897964,4,1,0,80,0,0
53572,-94.5454820495948,4,1,0,80,0,0
53734,-96.2962534979614,4,1,0,80,0,0
53896,-98.1131853328637,4,1,0,80,0,0
54058,-100,4,1,0,80,0,0
54220,-68.9655172413793,4,1,0,80,0,0
54545,-74.0740740740741,4,1,0,80,0,0
54707,-80,4,1,0,80,0,0
54869,-81.0811029948927,4,1,0,80,0,0
55031,-82.1917583036279,4,1,0,80,0,0
55193,-83.3333333333333,4,1,0,80,0,0
55355,-84.5070660583285,4,1,0,80,0,0
55436,-85.1063829787234,4,1,0,80,0,0
55517,-85.7142612244968,4,1,0,80,0,0
55680,-86.9565217391304,4,1,0,80,0,0
55842,-88.2353200692118,4,1,0,80,0,0
56004,-89.5522120739665,4,1,0,80,0,0
56166,-90.9090909090909,4,1,0,80,0,0
56328,-92.3077207100679,4,1,0,80,0,0
56490,-93.7499707031342,4,1,0,80,0,0
56653,-95.2380952380952,4,1,0,80,0,0
56734,-95.9999692800098,4,1,0,80,0,0
56815,-96.774224765879,4,1,0,80,0,0
56977,-98.3606234883202,4,1,0,80,0,0
57139,-100,4,1,0,80,0,0
57301,-80,4,1,0,80,0,0
57463,-81.078013264363,4,1,0,80,0,0
57626,-82.1855437272295,4,1,0,80,0,0
57788,-83.3236816735395,4,1,0,80,0,0
57950,-84.4938564516974,4,1,0,80,0,0
58031,-85.091320004629,4,1,0,80,0,0
58112,-85.6972931652981,4,1,0,80,0,0
58274,-86.9355816033877,4,1,0,80,0,0
58436,-88.2101023501818,4,1,0,80,0,0
58599,-89.5226295302927,4,1,0,80,0,0
58761,-90.8747237408398,4,1,0,80,0,0
58923,-92.2683717861773,4,1,0,80,0,0
59085,-93.7053435472158,4,1,0,80,0,0
59247,-95.1878723035656,4,1,0,80,0,0
59328,-95.9468224331347,4,1,0,80,0,0
59409,-96.7179723270538,4,1,0,80,0,0
59572,-98.2981638885967,4,1,0,80,0,0
59734,-99.9307479916418,4,1,0,80,0,0
59896,-80,4,1,0,80,0,0
60058,-81.0811029948927,4,1,0,80,0,0
60220,-82.1917583036279,4,1,0,80,0,0
60382,-83.3333333333333,4,1,0,80,0,0
60545,-84.5070660583285,4,1,0,80,0,0
60626,-85.1063829787234,4,1,0,80,0,0
60707,-85.7142612244968,4,1,0,80,0,0
60869,-86.9565217391304,4,1,0,80,0,0
61031,-88.2353200692118,4,1,0,80,0,0
61193,-89.5522120739665,4,1,0,80,0,0
61355,-90.9090909090909,4,1,0,80,0,0
61517,-92.3077207100679,4,1,0,80,0,0
61680,-93.7499707031342,4,1,0,80,0,0
61842,-93.4579439252336,4,1,0,80,0,0
61923,-91.743119266055,4,1,0,80,0,0
62004,-90.0900900900901,4,1,0,80,0,0
62085,-88.495575221239,4,1,0,80,0,0
62166,-86.9565217391304,4,1,0,80,0,0
62328,-80,4,1,0,80,0,0
62653,-82.5397139833831,4,1,0,80,0,0
62734,-83.2000053248003,4,1,0,80,0,0
62815,-83.8709460978204,4,1,0,80,0,0
62977,-85.2458960494494,4,1,0,80,0,0
63139,-86.6666782222238,4,1,0,80,0,0
63301,-88.1356230968214,4,1,0,80,0,0
63382,-88.8888888888889,4,1,0,80,0,0
63463,-89.6551414982271,4,1,0,80,0,0
63626,-91.2280573715007,4,1,0,80,0,0
63788,-92.8571494897964,4,1,0,80,0,0
63950,-94.5454820495948,4,1,0,80,0,0
64031,-95.4128370339202,4,1,0,80,0,0
64112,-96.2962534979614,4,1,0,80,0,0
64274,-98.1131853328637,4,1,0,80,0,0
64436,-100,4,1,0,80,0,0
64599,-97.5855386038632,4,1,0,80,0,0
64680,-96.4215085530699,4,1,0,80,0,0
64761,-95.2848301786114,4,1,0,80,0,0
64923,-93.090194158218,4,1,0,80,0,0
65004,-92.0303552923896,4,1,0,80,0,0
65085,-90.9090909090909,4,1,0,80,0,0
65247,-89.3854748603352,4,1,0,80,0,0
65328,-88.6426592797784,4,1,0,80,0,0
65409,-87.9120879120879,4,1,0,80,0,0
65490,-87.1934604904632,4,1,0,80,0,0
65572,-86.4864864864865,4,1,0,80,0,0
65653,-85.7908847184987,4,1,0,80,0,0
65734,-85.1063829787234,4,1,0,80,0,0
65815,-84.4327176781003,4,1,0,80,0,0
65896,-83.7696335078534,4,1,0,80,0,0
65977,-83.1168831168831,4,1,0,80,0,0
66058,-82.4742268041237,4,1,0,80,0,0
66139,-81.8414322250639,4,1,0,80,0,0
66220,-81.2182741116751,4,1,0,80,0,0
66301,-80.6045340050378,4,1,0,80,0,0
66382,-80,4,1,0,80,0,0
66463,-81.0073425055247,4,1,0,80,0,0
66545,-82.0403769919403,4,1,0,80,0,0
66626,-83.1000990553181,4,1,0,80,0,0
66707,-84.1875564056628,4,1,0,80,0,0
66788,-85.3038523219709,4,1,0,80,0,0
66869,-86.4501493858581,4,1,0,80,0,0
66950,-87.6276735203191,4,1,0,80,0,0
67031,-88.8377183631117,4,1,0,80,0,0
67112,-90.0816500075669,4,1,0,80,0,0
67193,-91.3609121473469,4,1,0,80,0,0
67274,-92.6770316658882,4,1,0,80,0,0
67355,-94.0316247160245,4,1,0,80,0,0
67436,-95.426494402759,4,1,0,80,0,0
67517,-96.8632765165641,4,1,0,80,0,0
67599,-98.3439856260431,4,1,0,80,0,0
67680,-99.8706674856061,4,1,0,80,0,0
83247,-100,4,1,0,80,0,0
83409,-99.3395904030009,4,1,0,80,0,0
83572,-98.6878463943409,4,1,0,80,0,0
83653,-98.3651708603018,4,1,0,80,0,0
83734,-98.0445023996392,4,1,0,80,0,0
83815,-97.7260133943274,4,1,0,80,0,0
83896,-97.4095868567193,4,1,0,80,0,0
83977,-97.0952028173144,4,1,0,80,0,0
84058,-96.7828415635849,4,1,0,80,0,0
84139,-96.472483635855,4,1,0,80,0,0
84220,-96.16410982326,4,1,0,80,0,0
84382,-95.5532389203631,4,1,0,80,0,0
84545,-94.9499898403511,4,1,0,80,0,0
84626,-94.6512574419551,4,1,0,80,0,0
84707,-94.354398896431,4,1,0,80,0,0
84869,-93.7662332791365,4,1,0,80,0,0
85031,-93.1853549896098,4,1,0,80,0,0
85112,-92.8976064002735,4,1,0,80,0,0
85193,-92.6116294275305,4,1,0,80,0,0
85274,-92.3274077603033,4,1,0,80,0,0
85355,-92.0448405645294,4,1,0,80,0,0
85436,-91.7640818865961,4,1,0,80,0,0
85517,-91.4850307618416,4,1,0,80,0,0
85680,-90.9090909090909,4,1,0,80,0,0
85842,-90.1856381175011,4,1,0,80,0,0
85923,-89.8282932175147,4,1,0,80,0,0
86004,-89.4736889196678,4,1,0,80,0,0
86085,-89.1218732704787,4,1,0,80,0,0
86166,-88.7728135034102,4,1,0,80,0,0
86247,-88.4265555557521,4,1,0,80,0,0
86328,-88.0829106821669,4,1,0,80,0,0
86409,-87.7419264266399,4,1,0,80,0,0
86490,-87.4035720091809,4,1,0,80,0,0
86572,-87.0678929308707,4,1,0,80,0,0
86653,-86.7347071532715,4,1,0,80,0,0
86734,-86.4040616821315,4,1,0,80,0,0
86815,-86.0759275757145,4,1,0,80,0,0
86896,-85.7503498614274,4,1,0,80,0,0
86977,-85.427152849679,4,1,0,80,0,0
87058,-85.1063829787234,4,1,0,80,0,0
87139,-84.7880130098727,4,1,0,80,0,0
87220,-84.4720161105029,4,1,0,80,0,0
87301,-84.1584366728804,4,1,0,80,0,0
87382,-83.847106478279,4,1,0,80,0,0
87463,-83.5380712228888,4,1,0,80,0,0
87545,-83.2313056245219,4,1,0,80,0,0
87626,-82.9268535395669,4,1,0,80,0,0
87707,-82.6245523814875,4,1,0,80,0,0
87788,-82.3244472324991,4,1,0,80,0,0
87869,-82.0265142504663,4,1,0,80,0,0
87950,-81.7307967363258,4,1,0,80,0,0
88031,-81.4371374520437,4,1,0,80,0,0
88112,-81.1455808522396,4,1,0,80,0,0
88193,-80.8561044337445,4,1,0,80,0,0
88274,-80.5687509265406,4,1,0,80,0,0
88355,-80.2833681763151,4,1,0,80,0,0
88436,-80,4,1,0,80,0,1
106599,-80,4,1,0,80,0,1
106761,-79.6019900497512,4,1,0,80,0,1
106842,-79.4044665012407,4,1,0,80,0,1
106923,-79.2079207920792,4,1,0,80,0,1
107004,-79.0123456790123,4,1,0,80,0,1
107085,-78.8177339901478,4,1,0,80,0,1
107166,-78.6240786240786,4,1,0,80,0,1
107247,-78.4313725490196,4,1,0,80,0,1
107328,-78.239608801956,4,1,0,80,0,1
107409,-78.0487804878049,4,1,0,80,0,1
107490,-77.8588807785888,4,1,0,80,0,1
107572,-77.6699029126214,4,1,0,80,0,1
107653,-77.4818401937046,4,1,0,80,0,1
107734,-77.2946859903382,4,1,0,80,0,1
107815,-77.1084337349398,4,1,0,80,0,1
107896,-76.9230769230769,4,1,0,80,0,1
107977,-76.7386091127098,4,1,0,80,0,1
108058,-76.555023923445,4,1,0,80,0,1
108139,-76.3723150357995,4,1,0,80,0,1
108220,-76.1904761904762,4,1,0,80,0,1
108301,-76.0095011876485,4,1,0,80,0,1
108382,-75.8293838862559,4,1,0,80,0,1
108463,-75.6501182033097,4,1,0,80,0,1
108545,-75.4716981132076,4,1,0,80,0,1
108626,-75.2941176470588,4,1,0,80,0,1
108707,-75.1173708920188,4,1,0,80,0,1
108788,-74.9414519906323,4,1,0,80,0,1
108869,-74.7663551401869,4,1,0,80,0,1
108950,-74.5920745920746,4,1,0,80,0,1
109031,-74.4186046511628,4,1,0,80,0,1
109112,-74.245939675174,4,1,0,80,0,1
109193,-74.0740740740741,4,1,0,80,0,0
109274,-74.3572374501714,4,1,0,80,0,0
109355,-74.6425740342371,4,1,0,80,0,0
109436,-74.9300527957152,4,1,0,80,0,0
109517,-75.2198110929664,4,1,0,80,0,0
110004,-77.0064808654296,4,1,0,80,0,0
110166,-77.6210092128376,4,1,0,80,0,0
110328,-78.2454858223092,4,1,0,80,0,0
110490,-78.8800297850992,4,1,0,80,0,0
110572,-79.2012082936337,4,1,0,80,0,0
110653,-79.5250130023396,4,1,0,80,0,0
110734,-79.8514124916356,4,1,0,80,0,0
110815,-80.1805666360644,4,1,0,80,0,0
110977,-80.8470834010428,4,1,0,80,0,0
111139,-81.5247076931606,4,1,0,80,0,0
111301,-82.2138546787905,4,1,0,80,0,0
111463,-82.9146832783471,4,1,0,80,0,0
111626,-83.6276329114877,4,1,0,80,0,0
111788,-84.3528784576245,4,1,0,80,0,0
111869,-84.7202748325715,4,1,0,80,0,0
111950,-85.0908855748825,4,1,0,80,0,0
112031,-85.4647530538693,4,1,0,80,0,0
112112,-85.8418466984797,4,1,0,80,0,0
112599,-88.1765788898216,4,1,0,80,0,0
112761,-88.983250682724,4,1,0,80,0,0
112923,-89.8048988572327,4,1,0,80,0,0
113085,-90.6417800595335,4,1,0,80,0,0
113166,-91.0661386044843,4,1,0,80,0,0
113247,-91.4944892869103,4,1,0,80,0,0
113328,-91.9268887068737,4,1,0,80,0,0
113409,-92.3633092295884,4,1,0,80,0,0
113572,-93.2488747192043,4,1,0,80,0,0
113734,-94.1514972912614,4,1,0,80,0,0
113896,-95.071855308242,4,1,0,80,0,0
114058,-96.0103844831857,4,1,0,80,0,0
114220,-96.9675342998411,4,1,0,80,0,0
114382,-97.9440563139146,4,1,0,80,0,0
114463,-98.4396333714295,4,1,0,80,0,0
114545,-98.9403488636701,4,1,0,80,0,0
114626,-99.4461842001892,4,1,0,80,0,0
114707,-99.9572183105631,4,1,0,80,0,0
116815,-90.9090909090909,4,1,0,80,0,0
117139,-89.4771314347479,4,1,0,80,0,0
117301,-88.7779361970728,4,1,0,80,0,0
117463,-88.0895835829205,4,1,0,80,0,0
117626,-87.4118233232227,4,1,0,80,0,0
117788,-86.744412792372,4,1,0,80,0,0
117950,-86.0871167186346,4,1,0,80,0,0
118031,-85.7621900232844,4,1,0,80,0,0
118112,-85.4397069076294,4,1,0,80,0,0
118193,-85.1196399098753,4,1,0,80,0,0
118274,-84.8019619781923,4,1,0,80,0,0
118436,-84.1736671099813,4,1,0,80,0,0
118599,-83.5546138022195,4,1,0,80,0,0
118761,-82.9446684411296,4,1,0,80,0,0
118923,-82.3434958931181,4,1,0,80,0,0
119085,-81.7509750847553,4,1,0,80,0,0
119247,-81.1669205838499,4,1,0,80,0,0
119409,-80.5911522197624,4,1,0,80,0,0
119572,-80,4,1,0,80,0,0
119734,-81.0811029948927,4,1,0,80,0,0
119896,-82.1917583036279,4,1,0,80,0,0
120058,-83.3333333333333,4,1,0,80,0,0
120220,-84.5070660583285,4,1,0,80,0,0
120301,-85.1063829787234,4,1,0,80,0,0
120382,-85.7142612244968,4,1,0,80,0,0
120545,-86.9565217391304,4,1,0,80,0,0
120707,-88.2353200692118,4,1,0,80,0,0
120869,-89.5522120739665,4,1,0,80,0,0
121031,-90.9090909090909,4,1,0,80,0,0
121193,-92.3077207100679,4,1,0,80,0,0
121355,-93.7499707031342,4,1,0,80,0,0
121517,-95.2380952380952,4,1,0,80,0,0
121599,-95.9999692800098,4,1,0,80,0,0
121680,-96.774224765879,4,1,0,80,0,0
121842,-98.3606234883202,4,1,0,80,0,0
122004,-100,4,1,0,80,0,0
122166,-80,4,1,0,80,0,0
122328,-81.078013264363,4,1,0,80,0,0
122490,-82.1855437272295,4,1,0,80,0,0
122653,-83.3236816735395,4,1,0,80,0,0
122815,-84.4938564516974,4,1,0,80,0,0
122896,-85.091320004629,4,1,0,80,0,0
122977,-85.6972931652981,4,1,0,80,0,0
123139,-86.9355816033877,4,1,0,80,0,0
123301,-88.2101023501818,4,1,0,80,0,0
123463,-89.5226295302927,4,1,0,80,0,0
123626,-90.8747237408398,4,1,0,80,0,0
123788,-92.2683717861773,4,1,0,80,0,0
123950,-93.7053435472158,4,1,0,80,0,0
124112,-95.1878723035656,4,1,0,80,0,0
124193,-95.9468224331347,4,1,0,80,0,0
124274,-96.7179723270538,4,1,0,80,0,0
124436,-98.2981638885967,4,1,0,80,0,0
124599,-99.9307479916418,4,1,0,80,0,0
124761,-80,4,1,0,80,0,0
124923,-81.0811029948927,4,1,0,80,0,0
125085,-82.1917583036279,4,1,0,80,0,0
125247,-83.3333333333333,4,1,0,80,0,0
125409,-84.5070660583285,4,1,0,80,0,0
125490,-85.1063829787234,4,1,0,80,0,0
125572,-85.7142612244968,4,1,0,80,0,0
125734,-86.9565217391304,4,1,0,80,0,0
125896,-88.2353200692118,4,1,0,80,0,0
126058,-89.5522120739665,4,1,0,80,0,0
126220,-90.9090909090909,4,1,0,80,0,0
126382,-92.3077207100679,4,1,0,80,0,0
126545,-93.4579439252336,4,1,0,80,0,0
126707,-91.1853826184247,4,1,0,80,0,0
126788,-90.0900900900901,4,1,0,80,0,0
126869,-89.0207979290202,4,1,0,80,0,0
126950,-87.9765137898787,4,1,0,80,0,0
127031,-86.9565217391304,4,1,0,80,0,0
127193,-80,4,1,0,80,0,0
127517,-82.1855437272295,4,1,0,80,0,0
127680,-83.3236816735395,4,1,0,80,0,0
127761,-83.9047245072275,4,1,0,80,0,0
127842,-84.4938564516974,4,1,0,80,0,0
128004,-85.6972931652981,4,1,0,80,0,0
128166,-86.9355816033877,4,1,0,80,0,0
128328,-88.2101023501818,4,1,0,80,0,0
128409,-88.8615590227361,4,1,0,80,0,0
128490,-89.5226295302927,4,1,0,80,0,0
128653,-90.8747237408398,4,1,0,80,0,0
128815,-92.2683717861773,4,1,0,80,0,0
128977,-93.7053435472158,4,1,0,80,0,0
129058,-94.4408347058735,4,1,0,80,0,0
129139,-95.1878723035656,4,1,0,80,0,0
129301,-96.7179723270538,4,1,0,80,0,0
129463,-98.2981638885967,4,1,0,80,0,0
129626,-100,4,1,0,80,0,0
129788,-97.5609756097561,4,1,0,80,0,0
129869,-96.3855421686747,4,1,0,80,0,0
129950,-95.2380952380952,4,1,0,80,0,0
130112,-93.0232558139535,4,1,0,80,0,0
130193,-91.9540229885058,4,1,0,80,0,0
130274,-90.9090909090909,4,1,0,80,0,0
130355,-89.8876404494382,4,1,0,80,0,0
130436,-88.8888888888889,4,1,0,80,0,0
130517,-87.9120879120879,4,1,0,80,0,0
130599,-86.9565217391304,4,1,0,80,0,0
130680,-86.0215053763441,4,1,0,80,0,0
130761,-85.1063829787234,4,1,0,80,0,0
130842,-84.2105263157895,4,1,0,80,0,0
130923,-83.3333333333333,4,1,0,80,0,0
131004,-82.4742268041237,4,1,0,80,0,0
131085,-81.6326530612245,4,1,0,80,0,0
131166,-80.8080808080808,4,1,0,80,0,0
131247,-80,4,1,0,80,0,0
131328,-81.0073425055247,4,1,0,80,0,0
131409,-82.0403769919403,4,1,0,80,0,0
131490,-83.1000990553181,4,1,0,80,0,0
131572,-84.1875564056628,4,1,0,80,0,0
131653,-85.3038523219709,4,1,0,80,0,0
131734,-86.4501493858581,4,1,0,80,0,0
131815,-87.6276735203191,4,1,0,80,0,0
131896,-88.8377183631117,4,1,0,80,0,0
131977,-90.0816500075669,4,1,0,80,0,0
132058,-91.3609121473469,4,1,0,80,0,0
132139,-92.6770316658882,4,1,0,80,0,0
132220,-94.0316247160245,4,1,0,80,0,0
132301,-95.426494402759,4,1,0,80,0,0
132382,-96.8632765165641,4,1,0,80,0,0
132463,-98.3439856260431,4,1,0,80,0,0
132545,-99.8706674856061,4,1,0,80,0,0
148112,-100,4,1,0,80,0,0
148436,-98.6878463943409,4,1,0,80,0,0
148599,-98.0445023996392,4,1,0,80,0,0
148761,-97.4095868567193,4,1,0,80,0,0
148923,-96.7828415635849,4,1,0,80,0,0
149004,-96.472483635855,4,1,0,80,0,0
149085,-96.16410982326,4,1,0,80,0,0
149247,-95.5532389203631,4,1,0,80,0,0
149409,-94.9499898403511,4,1,0,80,0,0
149572,-94.354398896431,4,1,0,80,0,0
149734,-93.7662332791365,4,1,0,80,0,0
149896,-93.1853549896098,4,1,0,80,0,0
149977,-92.8976064002735,4,1,0,80,0,0
150058,-92.6116294275305,4,1,0,80,0,0
150220,-92.0448405645294,4,1,0,80,0,0
150382,-91.4850307618416,4,1,0,80,0,0
150545,-90.9090909090909,4,1,0,80,0,0
150707,-90.1856381175011,4,1,0,80,0,0
150788,-89.8282932175147,4,1,0,80,0,0
150869,-89.4736889196678,4,1,0,80,0,0
150950,-89.1218732704787,4,1,0,80,0,0
151031,-88.7728135034102,4,1,0,80,0,0
151112,-88.4265555557521,4,1,0,80,0,0
151193,-88.0829106821669,4,1,0,80,0,0
151274,-87.7419264266399,4,1,0,80,0,0
151355,-87.4035720091809,4,1,0,80,0,0
151436,-87.0678929308707,4,1,0,80,0,0
151517,-86.7347071532715,4,1,0,80,0,0
151599,-86.4040616821315,4,1,0,80,0,0
151680,-86.0759275757145,4,1,0,80,0,0
151761,-85.7503498614274,4,1,0,80,0,0
151842,-85.427152849679,4,1,0,80,0,0
151923,-85.1063829787234,4,1,0,80,0,0
152004,-84.7880130098727,4,1,0,80,0,0
152085,-84.4720161105029,4,1,0,80,0,0
152166,-84.1584366728804,4,1,0,80,0,0
152247,-83.847106478279,4,1,0,80,0,0
152328,-83.5380712228888,4,1,0,80,0,0
152409,-83.2313056245219,4,1,0,80,0,0
152490,-82.9268535395669,4,1,0,80,0,0
152572,-82.6245523814875,4,1,0,80,0,0
152653,-82.3244472324991,4,1,0,80,0,0
152734,-82.0265142504663,4,1,0,80,0,0
152815,-81.7307967363258,4,1,0,80,0,0
152896,-81.4371374520437,4,1,0,80,0,0
152977,-81.1455808522396,4,1,0,80,0,0
153058,-80.8561044337445,4,1,0,80,0,0
153139,-80.5687509265406,4,1,0,80,0,0
153220,-80.2833681763151,4,1,0,80,0,0
153301,-80,4,1,0,80,0,1
171463,-80,4,1,0,80,0,1
171626,-79.3676619636036,4,1,0,80,0,1
171707,-79.0552580442678,4,1,0,80,0,1
171788,-78.745303826943,4,1,0,80,0,1
171869,-78.4377706103086,4,1,0,80,0,1
171950,-78.1325690926308,4,1,0,80,0,1
172031,-77.8297940234501,4,1,0,80,0,1
172112,-77.5293564908353,4,1,0,80,0,1
172193,-77.2312295288972,4,1,0,80,0,1
172274,-76.935327394439,4,1,0,80,0,1
172355,-76.6417427719172,4,1,0,80,0,1
172436,-76.3503902650198,4,1,0,80,0,1
172517,-76.0612445140827,4,1,0,80,0,1
172599,-75.7742231247774,4,1,0,80,0,1
172680,-75.4894167612172,4,1,0,80,0,1
172761,-75.2067433374346,4,1,0,80,0,1
172842,-74.9261789821578,4,1,0,80,0,1
172923,-74.6476444562554,4,1,0,80,0,1
173004,-74.3712284490773,4,1,0,80,0,1
173085,-74.0740740740741,4,1,0,80,0,1
173247,-75.9360830801498,4,1,0,80,0,1
173328,-76.9026681380711,4,1,0,80,0,1
173409,-77.8941776439037,4,1,0,80,0,1
173490,-78.9115882456455,4,1,0,80,0,1
173572,-79.9558643628717,4,1,0,80,0,1
173653,-81.028215645252,4,1,0,80,0,1
173734,-82.1297222537053,4,1,0,80,0,1
173815,-83.261589596964,4,1,0,80,0,1
173896,-84.4250191855856,4,1,0,80,0,1
173977,-85.6214964753911,4,1,0,80,0,1
174058,-86.8523744136379,4,1,0,80,0,0
189626,-80,4,1,0,80,0,0
189707,-80.2507675985921,4,1,0,80,0,0
189788,-80.5031122503196,4,1,0,80,0,0
189869,-80.7571140960735,4,1,0,80,0,0
189950,-81.0126582278481,4,1,0,80,0,0
190031,-81.2698247578769,4,1,0,80,0,0
190112,-81.5286956550097,4,1,0,80,0,0
190193,-81.7891541038526,4,1,0,80,0,0
190274,-82.0512820512821,4,1,0,80,0,0
190355,-82.315095600752,4,1,0,80,0,0
190436,-82.5806110634896,4,1,0,80,0,0
190517,-82.8479135995679,4,1,0,80,0,0
190599,-83.1168831168831,4,1,0,80,0,0
190680,-83.3876047661019,4,1,0,80,0,0
190761,-83.6601657140562,4,1,0,80,0,0
190842,-83.9344438419817,4,1,0,80,0,0
190923,-84.2105263157895,4,1,0,80,0,0
191004,-84.4884309991433,4,1,0,80,0,0
191085,-84.7681759922963,4,1,0,80,0,0
191166,-85.0498519707326,4,1,0,80,0,0
191247,-85.3333333333333,4,1,0,80,0,0
191328,-85.618710770577,4,1,0,80,0,0
191409,-85.906077167711,4,1,0,80,0,0
191490,-86.1953047693586,4,1,0,80,0,0
191572,-86.4864864864865,4,1,0,80,0,0
191626,-86.6817030527562,4,1,0,80,0,0
191680,-86.8778028951159,4,1,0,80,0,0
191734,-87.0747920218593,4,1,0,80,0,0
191815,-87.3720327365532,4,1,0,80,0,0
191896,-87.6712328767123,4,1,0,80,0,0
191977,-87.9724892431639,4,1,0,80,0,0
192058,-88.2759010321218,4,1,0,80,0,0
192139,-88.5813344955205,4,1,0,80,0,0
192220,-88.8888888888889,4,1,0,80,0,0
192382,-89.5104494498688,4,1,0,80,0,0
192463,-89.8245815746429,4,1,0,80,0,0
192545,-90.1408450704225,4,1,0,80,0,0
192626,-90.4593435003605,4,1,0,80,0,0
192707,-90.7801830491611,4,1,0,80,0,0
192788,-91.1032235964637,4,1,0,80,0,0
192869,-91.4285714285714,4,1,0,80,0,0
192950,-91.7562513534047,4,1,0,80,0,0
193031,-92.0862885358096,4,1,0,80,0,0
193112,-92.4187939162556,4,1,0,80,0,0
193193,-92.7536231884058,4,1,0,80,0,0
193274,-93.0908874261207,4,1,0,80,0,0
193355,-93.4307005807652,4,1,0,80,0,0
193436,-93.7729157562879,4,1,0,80,0,0
193517,-94.1176470588235,4,1,0,80,0,0
193680,-94.8147698655906,4,1,0,80,0,0
193761,-95.1673088873895,4,1,0,80,0,0
193842,-95.5223880597015,4,1,0,80,0,0
193923,-95.8801268302318,4,1,0,80,0,0
194004,-96.2406478150486,4,1,0,80,0,0
194085,-96.603796915634,4,1,0,80,0,0
194166,-96.969696969697,4,1,0,80,0,0
194247,-97.3383793549191,4,1,0,80,0,0
194328,-97.7098759279995,4,1,0,80,0,0
194409,-98.0843152390658,4,1,0,80,0,0
194490,-98.4615384615385,4,1,0,80,0,0
194572,-98.8416744175013,4,1,0,80,0,0
194653,-99.2248554293856,4,1,0,80,0,0
194734,-99.6109197474664,4,1,0,80,0,0
194815,-100,4,1,0,80,0,0
194977,-97.8593272171254,4,1,0,80,0,0
195058,-96.823042334907,4,1,0,80,0,0
195139,-95.8083832335329,4,1,0,80,0,0
195220,-94.8147698655906,4,1,0,80,0,0
195301,-93.841642228739,4,1,0,80,0,0
195355,-93.2038545386083,4,1,0,80,0,0
195409,-92.5747633789048,4,1,0,80,0,0
195463,-91.9540229885058,4,1,0,80,0,0
195545,-91.0383653879418,4,1,0,80,0,0
195626,-90.1408450704225,4,1,0,80,0,0
195707,-89.2608487635587,4,1,0,80,0,0
195788,-88.3977900552486,4,1,0,80,0,0
195869,-87.5512612634698,4,1,0,80,0,0
195950,-86.7208672086721,4,1,0,80,0,0
196031,-85.906077167711,4,1,0,80,0,0
196112,-85.1063829787234,4,1,0,80,0,0
196193,-84.3214400752822,4,1,0,80,0,0
196274,-83.5509138381201,4,1,0,80,0,0
196355,-82.7942736168596,4,1,0,80,0,0
196436,-82.0512820512821,4,1,0,80,0,0
196517,-81.3214408858182,4,1,0,80,0,0
196599,-80.6045340050378,4,1,0,80,0,0
196680,-79.9000929238081,4,1,0,80,0,0
196761,-79.2079207920792,4,1,0,80,0,0
196842,-78.5275765290497,4,1,0,80,0,0
196923,-77.8588807785888,4,1,0,80,0,0
197004,-77.2014773274701,4,1,0,80,0,0
197085,-76.555023923445,4,1,0,80,0,0
197166,-75.9193068870958,4,1,0,80,0,0
197247,-75.2941176470588,4,1,0,80,0,0
197328,-74.6791410703911,4,1,0,80,0,0
197409,-74.0740740740741,4,1,0,80,0,0
197572,-133.333333333333,4,1,0,80,0,0
212977,-100,4,1,0,80,0,0
218166,-100,4,1,0,80,0,0
218328,-99.3395904030009,4,1,0,80,0,0
218490,-98.6878463943409,4,1,0,80,0,0
218653,-98.0445023996392,4,1,0,80,0,0
218734,-97.7260133943274,4,1,0,80,0,0
218815,-97.4095868567193,4,1,0,80,0,0
218977,-96.7828415635849,4,1,0,80,0,0
219139,-96.16410982326,4,1,0,80,0,0
219301,-95.5532389203631,4,1,0,80,0,0
219463,-94.9499898403511,4,1,0,80,0,0
219626,-94.354398896431,4,1,0,80,0,0
219788,-93.7662332791365,4,1,0,80,0,0
219950,-93.1853549896098,4,1,0,80,0,0
220031,-92.8976064002735,4,1,0,80,0,0
220112,-92.6116294275305,4,1,0,80,0,0
220274,-92.0448405645294,4,1,0,80,0,0
220436,-91.4850307618416,4,1,0,80,0,0
220599,-90.9090909090909,4,1,0,80,0,0
220761,-90.1856381175011,4,1,0,80,0,0
220842,-89.8282932175147,4,1,0,80,0,0
220923,-89.4736889196678,4,1,0,80,0,0
221004,-89.1218732704787,4,1,0,80,0,0
221085,-88.7728135034102,4,1,0,80,0,0
221166,-88.4265555557521,4,1,0,80,0,0
221247,-88.0829106821669,4,1,0,80,0,0
221328,-87.7419264266399,4,1,0,80,0,0
221409,-87.4035720091809,4,1,0,80,0,0
221490,-87.0678929308707,4,1,0,80,0,0
221572,-86.7347071532715,4,1,0,80,0,0
221653,-86.4040616821315,4,1,0,80,0,0
221734,-86.0759275757145,4,1,0,80,0,0
221815,-85.7503498614274,4,1,0,80,0,0
221896,-85.427152849679,4,1,0,80,0,0
221977,-85.1063829787234,4,1,0,80,0,0
222058,-84.7880130098727,4,1,0,80,0,0
222099,-84.6297195878871,4,1,0,80,0,0
222707,-82.3244472324991,4,1,0,80,0,0
222788,-82.0265142504663,4,1,0,80,0,0
222869,-81.7307967363258,4,1,0,80,0,0
222950,-81.4371374520437,4,1,0,80,0,0
223031,-81.1455808522396,4,1,0,80,0,0
223112,-80.8561044337445,4,1,0,80,0,0
223193,-80.5687509265406,4,1,0,80,0,0
223274,-80.2833681763151,4,1,0,80,0,0
223355,-80,4,1,0,80,0,1
241517,-80,4,1,0,80,0,1
241599,-79.7351517200467,4,1,0,80,0,1
241680,-79.4720512690097,4,1,0,80,0,1
241761,-79.2106186586949,4,1,0,80,0,1
241842,-78.9509627675155,4,1,0,80,0,1
241923,-78.6930036411253,4,1,0,80,0,1
242004,-78.4367247019993,4,1,0,80,0,1
242085,-78.1820484634882,4,1,0,80,0,1
242166,-77.9290814187457,4,1,0,80,0,1
242247,-77.6777461025191,4,1,0,80,0,1
242328,-77.4280267777088,4,1,0,80,0,1
242409,-77.179848341598,4,1,0,80,0,1
242490,-76.9333149719155,4,1,0,80,0,1
242572,-76.688351576214,4,1,0,80,0,1
242653,-76.4449432052295,4,1,0,80,0,1
242734,-76.2030170298502,4,1,0,80,0,1
242815,-75.9626749800218,4,1,0,80,0,1
242896,-75.7238442269656,4,1,0,80,0,1
242977,-75.4865105605628,4,1,0,80,0,1
243058,-75.2506033217121,4,1,0,80,0,1
243139,-75.0162222580633,4,1,0,80,0,1
243220,-74.7832967019818,4,1,0,80,0,1
243301,-74.5518131373714,4,1,0,80,0,1
243382,-74.3217029777734,4,1,0,80,0,1
243463,-74.0740740740741,4,1,0,80,0,1
243626,-75.45700535292,4,1,0,80,0,1
243707,-76.1680175064571,4,1,0,80,0,1
243788,-76.8926156176591,4,1,0,80,0,1
243869,-77.6310723024755,4,1,0,80,0,1
243950,-78.3838504185306,4,1,0,80,0,1
244031,-79.1513706642858,4,1,0,80,0,1
244112,-79.9340703787516,4,1,0,80,0,1
259680,-80,4,1,0,80,0,1
259842,-79.8004987531172,4,1,0,80,0,1
259923,-79.7010890356806,4,1,0,80,0,1
260004,-79.6019900497512,4,1,0,80,0,1
260085,-79.5031371937937,4,1,0,80,0,1
260166,-79.4044665012407,4,1,0,80,0,1
260247,-79.3060404238749,4,1,0,80,0,1
260328,-79.2079207920792,4,1,0,80,0,1
260409,-79.1100436529221,4,1,0,80,0,1
260490,-79.0123456790123,4,1,0,80,0,1
260572,-78.9148887142239,4,1,0,80,0,1
260653,-78.8177339901478,4,1,0,80,0,1
260734,-78.720818192696,4,1,0,80,0,1
260815,-78.6240786240786,4,1,0,80,0,1
260896,-78.5275765290497,4,1,0,80,0,1
260977,-78.4313725490196,4,1,0,80,0,1
261058,-78.3354039991791,4,1,0,80,0,1
261139,-78.239608801956,4,1,0,80,0,1
261220,-78.1440476116053,4,1,0,80,0,1
261301,-78.0487804878049,4,1,0,80,0,1
261382,-77.9537453656498,4,1,0,80,0,1
261463,-77.8588807785888,4,1,0,80,0,1
261545,-77.7642467988348,4,1,0,80,0,1
261626,-77.6699029126214,4,1,0,80,0,1
261707,-77.5757876657601,4,1,0,80,0,1
261788,-77.4818401937046,4,1,0,80,0,1
261869,-77.3881199949233,4,1,0,80,0,1
261950,-77.2946859903382,4,1,0,80,0,1
262031,-77.2014773274701,4,1,0,80,0,1
262112,-77.1084337349398,4,1,0,80,0,1
262193,-77.0156141456119,4,1,0,80,0,1
262274,-76.9230769230769,4,1,0,80,0,1
262355,-76.8307618077356,4,1,0,80,0,1
262436,-76.7386091127098,4,1,0,80,0,1
262517,-76.6466772132494,4,1,0,80,0,1
262599,-76.555023923445,4,1,0,80,0,1
262680,-76.4635895679196,4,1,0,80,0,1
262761,-76.3723150357995,4,1,0,80,0,1
262842,-76.2812581525595,4,1,0,80,0,1
262923,-76.1904761904762,4,1,0,80,0,1
263004,-76.0998521379873,4,1,0,80,0,1
263085,-76.0095011876485,4,1,0,80,0,1
263166,-75.9193068870958,4,1,0,80,0,1
263247,-75.8293838862559,4,1,0,80,0,1
263328,-75.7396736528942,4,1,0,80,0,1
263409,-75.6501182033097,4,1,0,80,0,1
263490,-75.5607742863663,4,1,0,80,0,1
263572,-75.4716981132076,4,1,0,80,0,1
263653,-75.3828317108435,4,1,0,80,0,1
263734,-75.2941176470588,4,1,0,80,0,1
263815,-75.2056121436006,4,1,0,80,0,1
263896,-75.1173708920188,4,1,0,80,0,1
263977,-75.02933647056,4,1,0,80,0,1
264058,-74.9414519906323,4,1,0,80,0,1
264139,-74.8537731541434,4,1,0,80,0,1
264220,-74.7663551401869,4,1,0,80,0,1
264301,-74.6791410703911,4,1,0,80,0,1
264382,-74.5920745920746,4,1,0,80,0,1
264463,-74.50521089445,4,1,0,80,0,1
264545,-74.4186046511628,4,1,0,80,0,1
264626,-74.3321442667989,4,1,0,80,0,1
264707,-74.245939675174,4,1,0,80,0,1
264788,-74.1598798016668,4,1,0,80,0,1
264869,-74.0740740740741,4,1,0,80,0,1
265031,-80,4,1,0,80,0,1
265112,-79.7940674706717,4,1,0,80,0,1
265193,-79.5891924243823,4,1,0,80,0,1
265274,-79.3854297569933,4,1,0,80,0,1
265355,-79.1826450645853,4,1,0,80,0,1
265436,-78.9808937319973,4,1,0,80,0,1
265517,-78.7801678805377,4,1,0,80,0,1
265599,-78.5804597114054,4,1,0,80,0,1
265680,-78.3818229417325,4,1,0,80,0,1
265761,-78.1841267458516,4,1,0,80,0,1
265842,-77.9874253075434,4,1,0,80,0,1
265923,-77.7917111375949,4,1,0,80,0,1
266004,-77.596976821783,4,1,0,80,0,1
266085,-77.4032749325624,4,1,0,80,0,1
266166,-77.2104780795592,4,1,0,80,0,1
266247,-77.0186392808924,4,1,0,80,0,1
266328,-76.8277514130544,4,1,0,80,0,1
266409,-76.6378074229848,4,1,0,80,0,1
266490,-76.4488003272009,4,1,0,80,0,1
266572,-76.2607813679659,4,1,0,80,0,1
266653,-76.0736270992517,4,1,0,80,0,1
266734,-75.8873891854399,4,1,0,80,0,1
266815,-75.7020609129063,4,1,0,80,0,1
266896,-75.5176356334495,4,1,0,80,0,1
266977,-75.3341635158153,4,1,0,80,0,1
267058,-75.1515242607908,4,1,0,80,0,1
267139,-74.9697684408762,4,1,0,80,0,1
267220,-74.7888896617074,4,1,0,80,0,1
267301,-74.6088815904823,4,1,0,80,0,1
267382,-74.4297933531217,4,1,0,80,0,1
267463,-74.2515076768634,4,1,0,80,0,1
267626,-73.8974864508959,4,1,0,80,0,1
267707,-73.721738771442,4,1,0,80,0,1
267788,-73.5468791485036,4,1,0,80,0,1
267869,-73.3727932215279,4,1,0,80,0,1
267950,-73.1995294734245,4,1,0,80,0,1
268031,-73.0270820933943,4,1,0,80,0,1
268112,-72.8554453252668,4,1,0,80,0,1
268193,-72.6846662974286,4,1,0,80,0,1
268274,-72.5146334530308,4,1,0,80,0,1
268355,-72.3453942751643,4,1,0,80,0,1
268436,-72.1769432198423,4,1,0,80,0,1
268517,-72.0092747945935,4,1,0,80,0,1
268599,-71.8424351711826,4,1,0,80,0,1
268680,-71.6763154933373,4,1,0,80,0,1
268761,-71.5109622729616,4,1,0,80,0,1
268842,-71.346370217742,4,1,0,80,0,1
268923,-71.1825340839769,4,1,0,80,0,1
269004,-71.0194486760199,4,1,0,80,0,1
269085,-70.8571590530649,4,1,0,80,0,1
269166,-70.6955594705185,4,1,0,80,0,1
269247,-70.5346953112767,4,1,0,80,0,1
269328,-70.3745615664814,4,1,0,80,0,1
269409,-70.2151532726581,4,1,0,80,0,1
269490,-70.05651459032,4,1,0,80,0,1
269572,-69.898542265901,4,1,0,80,0,1
269626,-69.7936063473097,4,1,0,80,0,1
269680,-69.6890335942955,4,1,0,80,0,1
269734,-69.584725317776,4,1,0,80,0,1
269896,-69.273761592964,4,1,0,80,0,1
269977,-69.1192957573194,4,1,0,80,0,1
270058,-68.9655172413793,4,1,0,80,0,0
270220,-69.6409382862897,4,1,0,80,0,0
270301,-69.9836098385758,4,1,0,80,0,0
270382,-70.3296703296703,4,1,0,80,0,0
270463,-70.6791702830842,4,1,0,80,0,0
270545,-71.032211687356,4,1,0,80,0,0
270626,-71.3887467063017,4,1,0,80,0,0
270707,-71.7488789237668,4,1,0,80,0,0
270788,-72.1126630557452,4,1,0,80,0,0
270869,-72.4801549335792,4,1,0,80,0,0
270950,-72.8514646058444,4,1,0,80,0,0
271031,-73.2265446224256,4,1,0,80,0,0
271112,-73.605506869602,4,1,0,80,0,0
271193,-73.9884666778143,4,1,0,80,0,0
271274,-74.3753769901921,4,1,0,80,0,0
271355,-74.7663551401869,4,1,0,80,0,0
271436,-75.161465618515,4,1,0,80,0,0
271517,-75.5607742863663,4,1,0,80,0,0
271599,-75.9644061178694,4,1,0,80,0,0
271680,-76.3723150357995,4,1,0,80,0,0
271761,-76.784628331685,4,1,0,80,0,0
271842,-77.2014773274701,4,1,0,80,0,0
271923,-77.6228167612501,4,1,0,80,0,0
272004,-78.0487804878049,4,1,0,80,0,0
272085,-78.4794450561481,4,1,0,80,0,0
272166,-78.9148887142239,4,1,0,80,0,0
272247,-79.3552544288168,4,1,0,80,0,0
272328,-79.8004987531172,4,1,0,80,0,0
272409,-80.2507675985921,4,1,0,80,0,0
272490,-80.7062116342846,4,1,0,80,0,0
272572,-81.1667888226838,4,1,0,80,0,0
272653,-81.6326530612245,4,1,0,80,0,0
272734,-82.1038959119649,4,1,0,80,0,0
272815,-82.5806110634896,4,1,0,80,0,0
272896,-83.062963387507,4,1,0,80,0,0
272977,-83.5509138381201,4,1,0,80,0,0
273058,-84.0446310608786,4,1,0,80,0,0
273139,-84.5442893714301,4,1,0,80,0,0
273220,-85.0498519707326,4,1,0,80,0,0
273301,-85.5614973262032,4,1,0,80,0,0
273382,-86.0793358807078,4,1,0,80,0,0
273463,-86.603480767099,4,1,0,80,0,0
273545,-87.1341238141046,4,1,0,80,0,0
273626,-87.6712328767123,4,1,0,80,0,0
273707,-88.2150046665737,4,1,0,80,0,0
273788,-88.7656427253893,4,1,0,80,0,0
273869,-89.3231183415198,4,1,0,80,0,0
273950,-89.8876404494382,4,1,0,80,0,0
274031,-90.4593435003605,4,1,0,80,0,0
274112,-91.0383653879418,4,1,0,80,0,0
274193,-91.6249315103637,4,1,0,80,0,0
274274,-92.2190201729107,4,1,0,80,0,0
274355,-92.8208631597707,4,1,0,80,0,0
274436,-93.4307005807652,4,1,0,80,0,0
274517,-94.0485158673954,4,1,0,80,0,0
274599,-94.6745562130178,4,1,0,80,0,0
274680,-95.3089869703084,4,1,0,80,0,0
274761,-95.9519779540736,4,1,0,80,0,0
274842,-96.603796915634,4,1,0,80,0,0
274923,-97.2644376899696,4,1,0,80,0,0
275004,-97.9341764813034,4,1,0,80,0,0
275085,-98.6132025327815,4,1,0,80,0,0
275166,-99.3018089810542,4,1,0,80,0,0
275247,-100,4,1,0,80,0,0
279139,-100,4,1,0,80,0,0
279220,-99.0712074303406,4,1,0,80,0,0
279301,-98.159509202454,4,1,0,80,0,0
279382,-97.2644376899696,4,1,0,80,0,0
279463,-96.3855421686747,4,1,0,80,0,0
279545,-95.5223880597015,4,1,0,80,0,0
279626,-94.6745562130178,4,1,0,80,0,0
279707,-93.841642228739,4,1,0,80,0,0
279788,-93.0232558139535,4,1,0,80,0,0
279869,-92.2190201729107,4,1,0,80,0,0
279950,-91.4285714285714,4,1,0,80,0,0
280031,-90.6515580736544,4,1,0,80,0,0
280112,-89.8876404494382,4,1,0,80,0,0
280193,-89.1364902506964,4,1,0,80,0,0
280274,-88.3977900552486,4,1,0,80,0,0
280355,-87.6712328767123,4,1,0,80,0,0
280436,-86.9565217391304,4,1,0,80,0,0
280599,-87.6693882167082,4,1,0,80,0,0
280680,-88.0301837894177,4,1,0,80,0,0
280761,-88.3939612781413,4,1,0,80,0,0
280842,-88.760836588637,4,1,0,80,0,0
280923,-89.1306905489381,4,1,0,80,0,0
281004,-89.503639665507,4,1,0,80,0,0
281085,-89.8798037384606,4,1,0,80,0,0
281166,-90.2590615584852,4,1,0,80,0,0
281247,-90.641533582235,4,1,0,80,0,0
281328,-91.0273437037752,4,1,0,80,0,0
281409,-91.4163686493049,4,1,0,80,0,0
281490,-91.8087330303033,4,1,0,80,0,0
281572,-92.2045650480155,4,1,0,80,0,0
281653,-92.6037393389945,4,1,0,80,0,0
281734,-93.0063848883226,4,1,0,80,0,0
281815,-93.4126344324575,4,1,0,80,0,0
281896,-93.8223604955322,4,1,0,80,0,0
281977,-94.2356966703701,4,1,0,80,0,0
282058,-94.6526908813491,4,1,0,80,0,0
282139,-95.0734822944654,4,1,0,80,0,0
282220,-95.4979405869113,4,1,0,80,0,0
282301,-95.9262058883342,4,1,0,80,0,0
282382,-96.3584224969936,4,1,0,80,0,0
282463,-96.7944579365164,4,1,0,80,0,0
282545,-97.2344575581316,4,1,0,80,0,0
282626,-97.6785710797194,4,1,0,80,0,0
282707,-98.1266638602441,4,1,0,80,0,0
282788,-98.5788867683475,4,1,0,80,0,0
282869,-99.0353952502624,4,1,0,80,0,0
282950,-99.4960524941173,4,1,0,80,0,0
283031,-99.9610152040704,4,1,0,80,0,0
289517,-100,4,1,0,80,0,0
289599,-98.1688563230069,4,1,0,80,0,0
289680,-96.4035684744906,4,1,0,80,0,0
289761,-94.7006465213138,4,1,0,80,0,0
289842,-93.0569294377221,4,1,0,80,0,0
289923,-91.4692151209589,4,1,0,80,0,0
290004,-89.9347703110934,4,1,0,80,0,0
290085,-88.4509583661339,4,1,0,80,0,0
290166,-87.0153138250801,4,1,0,80,0,0
290247,-85.62552873764,4,1,0,80,0,0
290328,-84.2795113136816,4,1,0,80,0,0
290409,-82.9750883892129,4,1,0,80,0,0
290490,-81.7104280482484,4,1,0,80,0,0
290572,-80.4837394676967,4,1,0,80,0,0
290653,-79.2933377737603,4,1,0,80,0,0
290734,-78.1376363208738,4,1,0,80,0,0
290815,-76.9230769230769,4,1,0,80,0,0
290977,-40,4,1,0,79,0,0
291139,-78.1041925549522,4,1,0,78,0,0
291301,-78.7084262092763,4,1,0,77,0,0
291463,-79.3220817604426,4,1,0,75,0,0
291626,-79.9454452281763,4,1,0,74,0,0
291788,-80.5786189469342,4,1,0,73,0,0
291950,-81.2219022981737,4,1,0,72,0,0
292112,-81.8756063912098,4,1,0,71,0,0
292274,-82.5398502396957,4,1,0,70,0,0
292436,-83.2150293000118,4,1,0,69,0,0
292599,-83.9012750476769,4,1,0,67,0,0
292761,-84.598933376648,4,1,0,66,0,0
292923,-85.3083641438708,4,1,0,65,0,0
293085,-86.0297198270114,4,1,0,64,0,0
293247,-86.7633789130284,4,1,0,63,0,0
293409,-87.5097354580697,4,1,0,62,0,0
293572,-88.2689661320804,4,1,0,60,0,0
293734,-89.0414862092546,4,1,0,59,0,0
293896,-89.827728382508,4,1,0,58,0,0
294058,-90.6278972605906,4,1,0,57,0,0
294220,-91.4424497798066,4,1,0,56,0,0
294382,-92.2718624337257,4,1,0,55,0,0
294545,-93.1163721861396,4,1,0,54,0,0
294707,-93.9764833248128,4,1,0,52,0,0
294869,-94.8527221782738,4,1,0,51,0,0
295031,-95.7453632914192,4,1,0,50,0,0
295193,-96.6549649722407,4,1,0,49,0,0
295355,-97.5821104668523,4,1,0,48,0,0
295517,-98.5271181113534,4,1,0,47,0,0
295680,-99.4907070705061,4,1,0,46,0,0
295842,-100.473228908157,4,1,0,44,0,0
296004,-101.475350115327,4,1,0,43,0,0
296166,-102.497768111099,4,1,0,42,0,0
296328,-103.540891404242,4,1,0,41,0,0
296490,-104.605464798692,4,1,0,40,0,0
296653,-105.692268504867,4,1,0,39,0,0
296815,-106.801778036001,4,1,0,38,0,0
296977,-107.93482895028,4,1,0,36,0,0
297139,-109.092297538332,4,1,0,35,0,0
297301,-110.274738483458,4,1,0,34,0,0
297463,-111.483093031526,4,1,0,33,0,0
297626,-112.718349532839,4,1,0,32,0,0
297788,-113.981156635185,4,1,0,31,0,0
297950,-115.272579304653,4,1,0,30,0,0
298112,-116.593737283996,4,1,0,28,0,0
298274,-117.945391283836,4,1,0,27,0,0
298436,-119.328894298465,4,1,0,26,0,0
298599,-120.745093824975,4,1,0,25,0,0
298761,-122.195312099047,4,1,0,24,0,0
298923,-123.680942745618,4,1,0,23,0,0
299085,-125.202985339982,4,1,0,21,0,0
299247,-126.762955807898,4,1,0,20,0,0
299409,-128.36245449551,4,1,0,19,0,0
299572,-130.002665054634,4,1,0,18,0,0
299734,-131.685335257695,4,1,0,17,0,0
299896,-133.41231342288,4,1,0,16,0,0
300058,-135.185007441935,4,1,0,15,0,0
300220,-137.005444596368,4,1,0,13,0,0
300382,-138.875772843676,4,1,0,12,0,0
300545,-140.797675148788,4,1,0,11,0,0
300707,-142.773518367813,4,1,0,10,0,0
300869,-100,4,1,0,80,0,0
301031,-100,4,1,0,73,0,0
301193,-100,4,1,0,66,0,0
301355,-100,4,1,0,59,0,0
301517,-100,4,1,0,52,0,0
301680,-100,4,1,0,45,0,0
301842,-100,4,1,0,38,0,0
302004,-100,4,1,0,31,0,0
302166,-100,4,1,0,24,0,0
302328,-100,4,1,0,17,0,0
302490,-100,4,1,0,10,0,0

[HitObjects]
256,192,2328,5,0,0:0:0:0:
256,192,2382,1,0,0:0:0:0:
256,192,2436,1,0,0:0:0:0:
256,192,2490,1,8,0:0:0:0:
256,192,2815,1,12,0:0:0:0:
256,192,2977,1,0,0:0:0:0:
256,192,3058,1,0,0:0:0:0:
256,192,3139,1,8,0:0:0:0:
256,192,3220,1,0,0:0:0:0:
256,192,3301,1,8,0:0:0:0:
256,192,3382,1,8,0:0:0:0:
256,192,3463,1,0,0:0:0:0:
256,192,3545,1,0,0:0:0:0:
256,192,3626,1,8,0:0:0:0:
256,192,3707,1,0,0:0:0:0:
256,192,3788,1,8,0:0:0:0:
256,192,3869,1,8,0:0:0:0:
256,192,3950,1,0,0:0:0:0:
256,192,4031,1,0,0:0:0:0:
256,192,4112,1,8,0:0:0:0:
256,192,4193,1,8,0:0:0:0:
256,192,4274,1,0,0:0:0:0:
256,192,4355,1,0,0:0:0:0:
256,192,4436,1,8,0:0:0:0:
256,192,4517,1,0,0:0:0:0:
256,192,4599,1,8,0:0:0:0:
256,192,4680,1,8,0:0:0:0:
256,192,4761,1,0,0:0:0:0:
256,192,4842,1,0,0:0:0:0:
256,192,4923,1,8,0:0:0:0:
256,192,5004,1,8,0:0:0:0:
256,192,5085,1,8,0:0:0:0:
256,192,5166,1,8,0:0:0:0:
256,192,5247,1,0,0:0:0:0:
256,192,5328,1,0,0:0:0:0:
256,192,5409,1,8,0:0:0:0:
256,192,5490,1,8,0:0:0:0:
256,192,5572,1,0,0:0:0:0:
256,192,5653,1,0,0:0:0:0:
256,192,5734,1,8,0:0:0:0:
256,192,5815,1,0,0:0:0:0:
256,192,5896,1,8,0:0:0:0:
256,192,5977,1,8,0:0:0:0:
256,192,6058,1,0,0:0:0:0:
256,192,6139,1,0,0:0:0:0:
256,192,6220,1,8,0:0:0:0:
256,192,6301,1,0,0:0:0:0:
256,192,6382,1,8,0:0:0:0:
256,192,6463,1,8,0:0:0:0:
256,192,6545,1,0,0:0:0:0:
256,192,6626,1,0,0:0:0:0:
256,192,6707,1,8,0:0:0:0:
256,192,6788,1,8,0:0:0:0:
256,192,6869,1,0,0:0:0:0:
256,192,6950,1,0,0:0:0:0:
256,192,7031,1,8,0:0:0:0:
256,192,7112,1,0,0:0:0:0:
256,192,7193,1,8,0:0:0:0:
256,192,7274,1,8,0:0:0:0:
256,192,7355,1,0,0:0:0:0:
256,192,7436,1,0,0:0:0:0:
256,192,7517,1,8,0:0:0:0:
256,192,7599,1,0,0:0:0:0:
256,192,7680,1,8,0:0:0:0:
256,192,7761,1,8,0:0:0:0:
256,192,7842,1,8,0:0:0:0:
256,192,7923,1,0,0:0:0:0:
256,192,8004,1,8,0:0:0:0:
256,192,8085,1,8,0:0:0:0:
256,192,8166,1,0,0:0:0:0:
256,192,8247,1,0,0:0:0:0:
256,192,8328,1,8,0:0:0:0:
256,192,8409,1,0,0:0:0:0:
256,192,8490,1,8,0:0:0:0:
256,192,8572,1,8,0:0:0:0:
256,192,8653,1,0,0:0:0:0:
256,192,8734,1,0,0:0:0:0:
256,192,8815,1,8,0:0:0:0:
256,192,8896,1,0,0:0:0:0:
256,192,8977,1,8,0:0:0:0:
256,192,9058,1,8,0:0:0:0:
256,192,9139,1,0,0:0:0:0:
256,192,9220,1,0,0:0:0:0:
256,192,9301,1,8,0:0:0:0:
256,192,9382,1,8,0:0:0:0:
256,192,9463,1,0,0:0:0:0:
256,192,9545,1,0,0:0:0:0:
256,192,9626,1,8,0:0:0:0:
256,192,9707,1,0,0:0:0:0:
256,192,9788,1,8,0:0:0:0:
256,192,9869,1,8,0:0:0:0:
256,192,9950,1,0,0:0:0:0:
256,192,10031,1,0,0:0:0:0:
256,192,10112,1,8,0:0:0:0:
256,192,10193,1,0,0:0:0:0:
256,192,10274,1,8,0:0:0:0:
256,192,10355,1,8,0:0:0:0:
256,192,10436,1,0,0:0:0:0:
256,192,10517,1,0,0:0:0:0:
256,192,10599,1,8,0:0:0:0:
256,192,10680,1,8,0:0:0:0:
256,192,10761,1,8,0:0:0:0:
256,192,10842,1,0,0:0:0:0:
256,192,10923,1,8,0:0:0:0:
256,192,11004,1,8,0:0:0:0:
256,192,11085,1,0,0:0:0:0:
256,192,11166,1,0,0:0:0:0:
256,192,11247,1,8,0:0:0:0:
256,192,11328,1,8,0:0:0:0:
256,192,11409,1,8,0:0:0:0:
256,192,11490,1,0,0:0:0:0:
256,192,11572,1,8,0:0:0:0:
256,192,11653,1,8,0:0:0:0:
256,192,11734,1,0,0:0:0:0:
256,192,11815,1,0,0:0:0:0:
256,192,11896,1,8,0:0:0:0:
256,192,11977,1,8,0:0:0:0:
256,192,12058,1,0,0:0:0:0:
256,192,12139,1,0,0:0:0:0:
256,192,12220,1,8,0:0:0:0:
256,192,12301,1,0,0:0:0:0:
256,192,12382,1,8,0:0:0:0:
256,192,12463,1,8,0:0:0:0:
256,192,12545,1,0,0:0:0:0:
256,192,12626,1,0,0:0:0:0:
256,192,12707,1,8,0:0:0:0:
256,192,12788,1,0,0:0:0:0:
256,192,12869,1,8,0:0:0:0:
256,192,12950,1,8,0:0:0:0:
256,192,13031,1,0,0:0:0:0:
256,192,13112,1,0,0:0:0:0:
256,192,13193,1,12,0:0:0:0:
256,192,13355,1,0,0:0:0:0:
256,192,13436,1,0,0:0:0:0:
256,192,13517,1,8,0:0:0:0:
256,192,13599,1,0,0:0:0:0:
256,192,13680,1,8,0:0:0:0:
256,192,13761,1,8,0:0:0:0:
256,192,13842,1,0,0:0:0:0:
256,192,13923,1,0,0:0:0:0:
256,192,14004,1,8,0:0:0:0:
256,192,14085,1,0,0:0:0:0:
256,192,14166,1,8,0:0:0:0:
256,192,14247,1,8,0:0:0:0:
256,192,14328,1,0,0:0:0:0:
256,192,14409,1,0,0:0:0:0:
256,192,14490,1,8,0:0:0:0:
256,192,14572,1,8,0:0:0:0:
256,192,14653,1,0,0:0:0:0:
256,192,14734,1,0,0:0:0:0:
256,192,14815,1,8,0:0:0:0:
256,192,14896,1,0,0:0:0:0:
256,192,14977,1,8,0:0:0:0:
256,192,15058,1,8,0:0:0:0:
256,192,15139,1,0,0:0:0:0:
256,192,15220,1,0,0:0:0:0:
256,192,15301,1,8,0:0:0:0:
256,192,15382,1,8,0:0:0:0:
256,192,15463,1,8,0:0:0:0:
256,192,15545,1,8,0:0:0:0:
256,192,15626,1,0,0:0:0:0:
256,192,15707,1,0,0:0:0:0:
256,192,15788,1,8,0:0:0:0:
256,192,15869,1,8,0:0:0:0:
256,192,15950,1,0,0:0:0:0:
256,192,16031,1,0,0:0:0:0:
256,192,16112,1,8,0:0:0:0:
256,192,16193,1,0,0:0:0:0:
256,192,16274,1,8,0:0:0:0:
256,192,16355,1,8,0:0:0:0:
256,192,16436,1,0,0:0:0:0:
256,192,16517,1,0,0:0:0:0:
256,192,16599,1,8,0:0:0:0:
256,192,16680,1,0,0:0:0:0:
256,192,16761,1,8,0:0:0:0:
256,192,16842,1,8,0:0:0:0:
256,192,16923,1,0,0:0:0:0:
256,192,17004,1,0,0:0:0:0:
256,192,17085,1,8,0:0:0:0:
256,192,17166,1,8,0:0:0:0:
256,192,17247,1,0,0:0:0:0:
256,192,17328,1,0,0:0:0:0:
256,192,17409,1,8,0:0:0:0:
256,192,17490,1,0,0:0:0:0:
256,192,17572,1,8,0:0:0:0:
256,192,17653,1,8,0:0:0:0:
256,192,17734,1,0,0:0:0:0:
256,192,17815,1,0,0:0:0:0:
256,192,17896,1,8,0:0:0:0:
256,192,17977,1,0,0:0:0:0:
256,192,18058,1,8,0:0:0:0:
256,192,18139,1,8,0:0:0:0:
256,192,18220,1,8,0:0:0:0:
256,192,18301,1,0,0:0:0:0:
256,192,18382,1,8,0:0:0:0:
256,192,18463,1,8,0:0:0:0:
256,192,18545,1,0,0:0:0:0:
256,192,18626,1,0,0:0:0:0:
256,192,18707,1,8,0:0:0:0:
256,192,18788,1,0,0:0:0:0:
256,192,18869,1,8,0:0:0:0:
256,192,18950,1,8,0:0:0:0:
256,192,19031,1,0,0:0:0:0:
256,192,19112,1,0,0:0:0:0:
256,192,19193,1,8,0:0:0:0:
256,192,19274,1,0,0:0:0:0:
256,192,19355,1,8,0:0:0:0:
256,192,19436,1,8,0:0:0:0:
256,192,19517,1,0,0:0:0:0:
256,192,19599,1,0,0:0:0:0:
256,192,19680,1,8,0:0:0:0:
256,192,19761,1,8,0:0:0:0:
256,192,19842,1,0,0:0:0:0:
256,192,19923,1,0,0:0:0:0:
256,192,20004,1,8,0:0:0:0:
256,192,20085,1,0,0:0:0:0:
256,192,20166,1,8,0:0:0:0:
256,192,20247,1,8,0:0:0:0:
256,192,20328,1,0,0:0:0:0:
256,192,20409,1,0,0:0:0:0:
256,192,20490,1,8,0:0:0:0:
256,192,20572,1,0,0:0:0:0:
256,192,20653,1,8,0:0:0:0:
256,192,20734,1,8,0:0:0:0:
256,192,20815,1,0,0:0:0:0:
256,192,20896,1,0,0:0:0:0:
256,192,20977,1,8,0:0:0:0:
256,192,21058,1,8,0:0:0:0:
256,192,21139,1,8,0:0:0:0:
256,192,21220,1,0,0:0:0:0:
256,192,21301,1,8,0:0:0:0:
256,192,21382,1,8,0:0:0:0:
256,192,21463,1,0,0:0:0:0:
256,192,21545,1,0,0:0:0:0:
256,192,21626,1,8,0:0:0:0:
256,192,21707,1,8,0:0:0:0:
256,192,21788,1,8,0:0:0:0:
256,192,21869,1,0,0:0:0:0:
256,192,21950,1,8,0:0:0:0:
256,192,22031,1,8,0:0:0:0:
256,192,22112,1,0,0:0:0:0:
256,192,22193,1,0,0:0:0:0:
256,192,22274,1,8,0:0:0:0:
256,192,22355,1,8,0:0:0:0:
256,192,22436,1,0,0:0:0:0:
256,192,22517,1,0,0:0:0:0:
256,192,22599,1,8,0:0:0:0:
256,192,22680,1,0,0:0:0:0:
256,192,22761,1,8,0:0:0:0:
256,192,22842,1,8,0:0:0:0:
256,192,22923,1,0,0:0:0:0:
256,192,23004,1,0,0:0:0:0:
256,192,23085,1,8,0:0:0:0:
256,192,23166,1,0,0:0:0:0:
256,192,23247,1,8,0:0:0:0:
256,192,23328,1,8,0:0:0:0:
256,192,23409,1,8,0:0:0:0:
256,192,23490,1,8,0:0:0:0:
256,192,23572,1,0,0:0:0:0:
256,192,23653,1,0,0:0:0:0:
256,192,23734,1,0,0:0:0:0:
256,192,23815,1,0,0:0:0:0:
256,192,23896,1,8,0:0:0:0:
256,192,24382,1,0,0:0:0:0:
256,192,24545,1,8,0:0:0:0:
256,192,24707,1,0,0:0:0:0:
256,192,24869,1,0,0:0:0:0:
256,192,24950,1,0,0:0:0:0:
256,192,25031,1,0,0:0:0:0:
256,192,25112,1,0,0:0:0:0:
256,192,25193,1,8,0:0:0:0:
256,192,25355,1,0,0:0:0:0:
256,192,25517,1,8,0:0:0:0:
256,192,25680,1,8,0:0:0:0:
256,192,25842,1,0,0:0:0:0:
256,192,26004,1,8,0:0:0:0:
256,192,26166,1,0,0:0:0:0:
256,192,26247,1,0,0:0:0:0:
256,192,26328,1,0,0:0:0:0:
256,192,26409,1,0,0:0:0:0:
256,192,26490,1,8,0:0:0:0:
256,192,26977,1,0,0:0:0:0:
256,192,27139,1,8,0:0:0:0:
256,192,27301,1,0,0:0:0:0:
256,192,27463,1,0,0:0:0:0:
256,192,27545,1,0,0:0:0:0:
256,192,27626,1,0,0:0:0:0:
256,192,27707,1,0,0:0:0:0:
256,192,27788,1,8,0:0:0:0:
256,192,27950,1,0,0:0:0:0:
256,192,28112,1,8,0:0:0:0:
256,192,28274,1,0,0:0:0:0:
256,192,28436,1,8,0:0:0:0:
256,192,28599,1,8,0:0:0:0:
256,192,28761,1,0,0:0:0:0:
256,192,28842,1,0,0:0:0:0:
256,192,28923,1,0,0:0:0:0:
256,192,29004,1,0,0:0:0:0:
256,192,29085,1,8,0:0:0:0:
256,192,29572,1,0,0:0:0:0:
256,192,29734,1,8,0:0:0:0:
256,192,29896,1,0,0:0:0:0:
256,192,30058,1,0,0:0:0:0:
256,192,30139,1,0,0:0:0:0:
256,192,30220,1,0,0:0:0:0:
256,192,30301,1,0,0:0:0:0:
256,192,30382,1,8,0:0:0:0:
256,192,30545,1,0,0:0:0:0:
256,192,30707,1,8,0:0:0:0:
256,192,30869,1,0,0:0:0:0:
256,192,31031,1,0,0:0:0:0:
256,192,31112,1,0,0:0:0:0:
256,192,31193,1,12,0:0:0:0:
256,192,31517,1,0,0:0:0:0:
256,192,31599,1,0,0:0:0:0:
256,192,31680,1,8,0:0:0:0:
256,192,31842,1,0,0:0:0:0:
256,192,31923,1,0,0:0:0:0:
256,192,32004,1,8,0:0:0:0:
256,192,32166,1,0,0:0:0:0:
256,192,32247,1,0,0:0:0:0:
256,192,32328,1,8,0:0:0:0:
256,192,32409,1,8,0:0:0:0:
256,192,32490,1,0,0:0:0:0:
256,192,32572,1,0,0:0:0:0:
256,192,32653,1,12,0:0:0:0:
256,192,32815,1,0,0:0:0:0:
256,192,32896,1,0,0:0:0:0:
256,192,32977,1,8,0:0:0:0:
256,192,33139,1,0,0:0:0:0:
256,192,33220,1,0,0:0:0:0:
256,192,33301,1,8,0:0:0:0:
256,192,33463,1,0,0:0:0:0:
256,192,33545,1,0,0:0:0:0:
256,192,33626,1,8,0:0:0:0:
256,192,33788,1,8,0:0:0:0:
256,192,33950,1,0,0:0:0:0:
256,192,34031,1,0,0:0:0:0:
256,192,34112,1,0,0:0:0:0:
256,192,34193,1,0,0:0:0:0:
256,192,34274,1,8,0:0:0:0:
256,192,34761,1,0,0:0:0:0:
256,192,34923,1,8,0:0:0:0:
256,192,35085,1,0,0:0:0:0:
256,192,35247,1,0,0:0:0:0:
256,192,35328,1,0,0:0:0:0:
256,192,35409,1,0,0:0:0:0:
256,192,35490,1,0,0:0:0:0:
256,192,35572,1,8,0:0:0:0:
256,192,35734,1,0,0:0:0:0:
256,192,35896,1,8,0:0:0:0:
256,192,36058,1,8,0:0:0:0:
256,192,36220,1,0,0:0:0:0:
256,192,36382,1,8,0:0:0:0:
256,192,36545,1,0,0:0:0:0:
256,192,36626,1,0,0:0:0:0:
256,192,36707,1,0,0:0:0:0:
256,192,36788,1,0,0:0:0:0:
256,192,36869,1,8,0:0:0:0:
256,192,37355,1,0,0:0:0:0:
256,192,37517,1,8,0:0:0:0:
256,192,37680,1,0,0:0:0:0:
256,192,37842,1,0,0:0:0:0:
256,192,37923,1,0,0:0:0:0:
256,192,38004,1,0,0:0:0:0:
256,192,38085,1,0,0:0:0:0:
256,192,38166,1,8,0:0:0:0:
256,192,38328,1,0,0:0:0:0:
256,192,38490,1,8,0:0:0:0:
256,192,38653,1,0,0:0:0:0:
256,192,38815,1,8,0:0:0:0:
256,192,38977,1,8,0:0:0:0:
256,192,39139,1,0,0:0:0:0:
256,192,39220,1,0,0:0:0:0:
256,192,39301,1,0,0:0:0:0:
256,192,39382,1,0,0:0:0:0:
256,192,39463,1,8,0:0:0:0:
256,192,39950,1,0,0:0:0:0:
256,192,40112,1,8,0:0:0:0:
256,192,40274,1,0,0:0:0:0:
256,192,40436,1,0,0:0:0:0:
256,192,40517,1,0,0:0:0:0:
256,192,40599,1,0,0:0:0:0:
256,192,40680,1,0,0:0:0:0:
256,192,40761,1,8,0:0:0:0:
256,192,40923,1,0,0:0:0:0:
256,192,41085,1,8,0:0:0:0:
256,192,41247,1,0,0:0:0:0:
256,192,41409,1,0,0:0:0:0:
256,192,41490,1,0,0:0:0:0:
256,192,41572,1,12,0:0:0:0:
256,192,41896,1,0,0:0:0:0:
256,192,42058,1,8,0:0:0:0:
256,192,42220,1,0,0:0:0:0:
256,192,42382,1,8,0:0:0:0:
256,192,42545,1,0,0:0:0:0:
256,192,42707,1,8,0:0:0:0:
256,192,42788,1,8,0:0:0:0:
256,192,42869,1,0,0:0:0:0:
256,192,42950,1,0,0:0:0:0:
256,192,43031,1,8,0:0:0:0:
256,192,43193,1,0,0:0:0:0:
256,192,43355,1,8,0:0:0:0:
256,192,43517,1,0,0:0:0:0:
256,192,43680,1,8,0:0:0:0:
256,192,43842,1,0,0:0:0:0:
256,192,44004,1,8,0:0:0:0:
256,192,44166,1,8,0:0:0:0:
256,192,44328,1,4,0:0:0:0:
256,192,44490,1,8,0:0:0:0:
256,192,44653,1,0,0:0:0:0:
256,192,44815,1,0,0:0:0:0:
256,192,44977,1,8,0:0:0:0:
256,192,45058,1,8,0:0:0:0:
256,192,45139,1,0,0:0:0:0:
256,192,45301,1,0,0:0:0:0:
256,192,45463,1,0,0:0:0:0:
256,192,45626,1,0,0:0:0:0:
256,192,45788,1,8,0:0:0:0:
256,192,45950,1,8,0:0:0:0:
256,192,46112,1,0,0:0:0:0:
256,192,46274,1,8,0:0:0:0:
256,192,46355,1,8,0:0:0:0:
256,192,46436,1,0,0:0:0:0:
256,192,46599,1,8,0:0:0:0:
256,192,46761,1,8,0:0:0:0:
256,192,46923,1,4,0:0:0:0:
256,192,47085,1,8,0:0:0:0:
256,192,47247,1,0,0:0:0:0:
256,192,47409,1,0,0:0:0:0:
256,192,47572,1,8,0:0:0:0:
256,192,47653,1,8,0:0:0:0:
256,192,47734,1,0,0:0:0:0:
256,192,47896,1,0,0:0:0:0:
256,192,48058,1,0,0:0:0:0:
256,192,48220,1,0,0:0:0:0:
256,192,48382,1,8,0:0:0:0:
256,192,48545,1,8,0:0:0:0:
256,192,48707,1,0,0:0:0:0:
256,192,48869,1,8,0:0:0:0:
256,192,48950,1,8,0:0:0:0:
256,192,49031,1,0,0:0:0:0:
256,192,49193,1,8,0:0:0:0:
256,192,49355,1,8,0:0:0:0:
256,192,49517,1,4,0:0:0:0:
256,192,49680,1,8,0:0:0:0:
256,192,49842,1,0,0:0:0:0:
256,192,50004,1,0,0:0:0:0:
256,192,50166,1,8,0:0:0:0:
256,192,50247,1,8,0:0:0:0:
256,192,50328,1,0,0:0:0:0:
256,192,50490,1,0,0:0:0:0:
256,192,50653,1,0,0:0:0:0:
256,192,50815,1,0,0:0:0:0:
256,192,50977,1,8,0:0:0:0:
256,192,51139,1,8,0:0:0:0:
256,192,51301,1,0,0:0:0:0:
256,192,51463,1,8,0:0:0:0:
256,192,51545,1,0,0:0:0:0:
256,192,51626,1,8,0:0:0:0:
256,192,51707,1,0,0:0:0:0:
256,192,51788,1,8,0:0:0:0:
256,192,51950,1,4,0:0:0:0:
256,192,52274,1,0,0:0:0:0:
256,192,52355,1,0,0:0:0:0:
256,192,52436,1,8,0:0:0:0:
256,192,52599,1,0,0:0:0:0:
256,192,52761,1,0,0:0:0:0:
256,192,52923,1,0,0:0:0:0:
256,192,53085,1,8,0:0:0:0:
256,192,53247,1,0,0:0:0:0:
256,192,53409,1,0,0:0:0:0:
256,192,53572,1,0,0:0:0:0:
256,192,53734,1,8,0:0:0:0:
256,192,53896,1,0,0:0:0:0:
256,192,54058,1,0,0:0:0:0:
256,192,54220,1,12,0:0:0:0:
256,192,54545,1,12,0:0:0:0:
256,192,54707,1,4,0:0:0:0:
256,192,54869,1,8,0:0:0:0:
256,192,55031,1,0,0:0:0:0:
256,192,55193,1,0,0:0:0:0:
256,192,55355,1,8,0:0:0:0:
256,192,55436,1,8,0:0:0:0:
256,192,55517,1,0,0:0:0:0:
256,192,55680,1,0,0:0:0:0:
256,192,55842,1,0,0:0:0:0:
256,192,56004,1,0,0:0:0:0:
256,192,56166,1,8,0:0:0:0:
256,192,56328,1,8,0:0:0:0:
256,192,56490,1,0,0:0:0:0:
256,192,56653,1,8,0:0:0:0:
256,192,56734,1,8,0:0:0:0:
256,192,56815,1,0,0:0:0:0:
256,192,56977,1,8,0:0:0:0:
256,192,57139,1,8,0:0:0:0:
256,192,57301,1,4,0:0:0:0:
256,192,57463,1,8,0:0:0:0:
256,192,57626,1,0,0:0:0:0:
256,192,57788,1,0,0:0:0:0:
256,192,57950,1,8,0:0:0:0:
256,192,58031,1,8,0:0:0:0:
256,192,58112,1,0,0:0:0:0:
256,192,58274,1,0,0:0:0:0:
256,192,58436,1,0,0:0:0:0:
256,192,58599,1,0,0:0:0:0:
256,192,58761,1,8,0:0:0:0:
256,192,58923,1,8,0:0:0:0:
256,192,59085,1,0,0:0:0:0:
256,192,59247,1,8,0:0:0:0:
256,192,59328,1,8,0:0:0:0:
256,192,59409,1,0,0:0:0:0:
256,192,59572,1,8,0:0:0:0:
256,192,59734,1,8,0:0:0:0:
256,192,59896,1,4,0:0:0:0:
256,192,60058,1,8,0:0:0:0:
256,192,60220,1,0,0:0:0:0:
256,192,60382,1,0,0:0:0:0:
256,192,60545,1,8,0:0:0:0:
256,192,60626,1,8,0:0:0:0:
256,192,60707,1,0,0:0:0:0:
256,192,60869,1,0,0:0:0:0:
256,192,61031,1,0,0:0:0:0:
256,192,61193,1,0,0:0:0:0:
256,192,61355,1,8,0:0:0:0:
256,192,61517,1,8,0:0:0:0:
256,192,61680,1,0,0:0:0:0:
256,192,61842,1,8,0:0:0:0:
256,192,61923,1,0,0:0:0:0:
256,192,62004,1,8,0:0:0:0:
256,192,62085,1,0,0:0:0:0:
256,192,62166,1,8,0:0:0:0:
256,192,62328,1,4,0:0:0:0:
256,192,62653,1,0,0:0:0:0:
256,192,62734,1,0,0:0:0:0:
256,192,62815,1,8,0:0:0:0:
256,192,62977,1,0,0:0:0:0:
256,192,63139,1,0,0:0:0:0:
256,192,63301,1,0,0:0:0:0:
256,192,63382,1,0,0:0:0:0:
256,192,63463,1,8,0:0:0:0:
256,192,63626,1,0,0:0:0:0:
256,192,63788,1,0,0:0:0:0:
256,192,63950,1,0,0:0:0:0:
256,192,64031,1,0,0:0:0:0:
256,192,64112,1,8,0:0:0:0:
256,192,64274,1,0,0:0:0:0:
256,192,64436,1,0,0:0:0:0:
256,192,64599,1,8,0:0:0:0:
256,192,64680,1,0,0:0:0:0:
256,192,64761,1,8,0:0:0:0:
256,192,64923,1,0,0:0:0:0:
256,192,65004,1,0,0:0:0:0:
256,192,65085,1,12,0:0:0:0:
256,192,65247,1,0,0:0:0:0:
256,192,65328,1,0,0:0:0:0:
256,192,65409,1,8,0:0:0:0:
256,192,65490,1,0,0:0:0:0:
256,192,65572,1,8,0:0:0:0:
256,192,65653,1,0,0:0:0:0:
256,192,65734,1,8,0:0:0:0:
256,192,65815,1,0,0:0:0:0:
256,192,65896,1,8,0:0:0:0:
256,192,65977,1,0,0:0:0:0:
256,192,66058,1,8,0:0:0:0:
256,192,66139,1,0,0:0:0:0:
256,192,66220,1,8,0:0:0:0:
256,192,66301,1,0,0:0:0:0:
256,192,66382,1,8,0:0:0:0:
256,192,66463,1,8,0:0:0:0:
256,192,66545,1,0,0:0:0:0:
256,192,66626,1,0,0:0:0:0:
256,192,66707,1,8,0:0:0:0:
256,192,66788,1,0,0:0:0:0:
256,192,66869,1,8,0:0:0:0:
256,192,66950,1,0,0:0:0:0:
256,192,67031,1,8,0:0:0:0:
256,192,67112,1,0,0:0:0:0:
256,192,67193,1,8,0:0:0:0:
256,192,67274,1,0,0:0:0:0:
256,192,67355,1,8,0:0:0:0:
256,192,67436,1,8,0:0:0:0:
256,192,67517,1,0,0:0:0:0:
256,192,67599,1,0,0:0:0:0:
256,192,67680,1,12,0:0:0:0:
256,192,67842,1,0,0:0:0:0:
256,192,68166,1,0,0:0:0:0:
256,192,68328,1,8,0:0:0:0:
256,192,68653,1,0,0:0:0:0:
256,192,68977,1,0,0:0:0:0:
256,192,69301,1,0,0:0:0:0:
256,192,69626,1,8,0:0:0:0:
256,192,69950,1,0,0:0:0:0:
256,192,70274,1,4,0:0:0:0:
256,192,70599,1,0,0:0:0:0:
256,192,70761,1,0,0:0:0:0:
256,192,70923,1,8,0:0:0:0:
256,192,71247,1,0,0:0:0:0:
256,192,71572,1,0,0:0:0:0:
256,192,71896,1,0,0:0:0:0:
256,192,72058,1,0,0:0:0:0:
256,192,72139,1,0,0:0:0:0:
256,192,72220,1,8,0:0:0:0:
256,192,72382,1,0,0:0:0:0:
256,192,72545,1,8,0:0:0:0:
256,192,72707,1,8,0:0:0:0:
256,192,72869,1,4,0:0:0:0:
256,192,73031,1,0,0:0:0:0:
256,192,73355,1,0,0:0:0:0:
256,192,73517,1,8,0:0:0:0:
256,192,73842,1,0,0:0:0:0:
256,192,74166,1,0,0:0:0:0:
256,192,74490,1,0,0:0:0:0:
256,192,74815,1,8,0:0:0:0:
256,192,75139,1,0,0:0:0:0:
256,192,75463,1,4,0:0:0:0:
256,192,75788,1,0,0:0:0:0:
256,192,75950,1,0,0:0:0:0:
256,192,76112,1,8,0:0:0:0:
256,192,76436,1,0,0:0:0:0:
256,192,76761,1,0,0:0:0:0:
256,192,76923,1,8,0:0:0:0:
256,192,77085,1,0,0:0:0:0:
256,192,77247,1,0,0:0:0:0:
256,192,77409,1,8,0:0:0:0:
256,192,77572,1,0,0:0:0:0:
256,192,77734,1,8,0:0:0:0:
256,192,77896,1,8,0:0:0:0:
256,192,78058,1,4,0:0:0:0:
256,192,78545,1,0,0:0:0:0:
256,192,78707,1,8,0:0:0:0:
256,192,79031,1,0,0:0:0:0:
256,192,79355,1,0,0:0:0:0:
256,192,79680,1,0,0:0:0:0:
256,192,80004,1,8,0:0:0:0:
256,192,80328,1,0,0:0:0:0:
256,192,80490,1,8,0:0:0:0:
256,192,80653,1,4,0:0:0:0:
256,192,81139,1,0,0:0:0:0:
256,192,81301,1,8,0:0:0:0:
256,192,81626,1,0,0:0:0:0:
256,192,81950,1,0,0:0:0:0:
256,192,82274,1,0,0:0:0:0:
256,192,82599,1,8,0:0:0:0:
256,192,82923,1,0,0:0:0:0:
256,192,83247,1,4,0:0:0:0:
256,192,83409,1,0,0:0:0:0:
256,192,83572,1,0,0:0:0:0:
256,192,83653,1,0,0:0:0:0:
256,192,83734,1,8,0:0:0:0:
256,192,83815,1,0,0:0:0:0:
256,192,83896,1,8,0:0:0:0:
256,192,83977,1,8,0:0:0:0:
256,192,84058,1,0,0:0:0:0:
256,192,84139,1,0,0:0:0:0:
256,192,84220,1,8,0:0:0:0:
256,192,84382,1,8,0:0:0:0:
256,192,84545,1,0,0:0:0:0:
256,192,84626,1,0,0:0:0:0:
256,192,84707,1,8,0:0:0:0:
256,192,84869,1,8,0:0:0:0:
256,192,85031,1,0,0:0:0:0:
256,192,85112,1,0,0:0:0:0:
256,192,85193,1,8,0:0:0:0:
256,192,85274,1,8,0:0:0:0:
256,192,85355,1,0,0:0:0:0:
256,192,85436,1,0,0:0:0:0:
256,192,85517,1,8,0:0:0:0:
256,192,85680,1,8,0:0:0:0:
256,192,85842,1,8,0:0:0:0:
256,192,85923,1,8,0:0:0:0:
256,192,86004,1,8,0:0:0:0:
256,192,86085,1,8,0:0:0:0:
256,192,86166,1,0,0:0:0:0:
256,192,86247,1,0,0:0:0:0:
256,192,86328,1,0,0:0:0:0:
256,192,86409,1,0,0:0:0:0:
256,192,86490,1,8,0:0:0:0:
256,192,86572,1,8,0:0:0:0:
256,192,86653,1,8,0:0:0:0:
256,192,86734,1,8,0:0:0:0:
256,192,86815,1,0,0:0:0:0:
256,192,86896,1,0,0:0:0:0:
256,192,86977,1,0,0:0:0:0:
256,192,87058,1,0,0:0:0:0:
256,192,87139,1,8,0:0:0:0:
256,192,87220,1,8,0:0:0:0:
256,192,87301,1,0,0:0:0:0:
256,192,87382,1,8,0:0:0:0:
256,192,87463,1,8,0:0:0:0:
256,192,87545,1,0,0:0:0:0:
256,192,87626,1,8,0:0:0:0:
256,192,87707,1,8,0:0:0:0:
256,192,87788,1,0,0:0:0:0:
256,192,87869,1,8,0:0:0:0:
256,192,87950,1,8,0:0:0:0:
256,192,88031,1,0,0:0:0:0:
256,192,88112,1,8,0:0:0:0:
256,192,88193,1,8,0:0:0:0:
256,192,88274,1,8,0:0:0:0:
256,192,88355,1,8,0:0:0:0:
256,192,88436,1,4,0:0:0:0:
256,192,88599,1,0,0:0:0:0:
256,192,88680,1,0,0:0:0:0:
256,192,88761,1,8,0:0:0:0:
256,192,88842,1,0,0:0:0:0:
256,192,88923,1,8,0:0:0:0:
256,192,89004,1,8,0:0:0:0:
256,192,89085,1,0,0:0:0:0:
256,192,89166,1,0,0:0:0:0:
256,192,89247,1,8,0:0:0:0:
256,192,89328,1,0,0:0:0:0:
256,192,89409,1,8,0:0:0:0:
256,192,89490,1,8,0:0:0:0:
256,192,89572,1,0,0:0:0:0:
256,192,89653,1,0,0:0:0:0:
256,192,89734,1,0,0:0:0:0:
256,192,89815,1,0,0:0:0:0:
256,192,89896,1,8,0:0:0:0:
256,192,89977,1,0,0:0:0:0:
256,192,90058,1,8,0:0:0:0:
256,192,90139,1,8,0:0:0:0:
256,192,90220,1,0,0:0:0:0:
256,192,90301,1,0,0:0:0:0:
256,192,90382,1,8,0:0:0:0:
256,192,90463,1,8,0:0:0:0:
256,192,90545,1,0,0:0:0:0:
256,192,90626,1,0,0:0:0:0:
256,192,90707,1,8,0:0:0:0:
256,192,90788,1,0,0:0:0:0:
256,192,90869,1,8,0:0:0:0:
256,192,90950,1,0,0:0:0:0:
256,192,91031,1,8,0:0:0:0:
256,192,91112,1,8,0:0:0:0:
256,192,91193,1,8,0:0:0:0:
256,192,91274,1,8,0:0:0:0:
256,192,91355,1,0,0:0:0:0:
256,192,91436,1,0,0:0:0:0:
256,192,91517,1,8,0:0:0:0:
256,192,91599,1,8,0:0:0:0:
256,192,91680,1,8,0:0:0:0:
256,192,91761,1,8,0:0:0:0:
256,192,91842,1,0,0:0:0:0:
256,192,91923,1,0,0:0:0:0:
256,192,92004,1,8,0:0:0:0:
256,192,92085,1,8,0:0:0:0:
256,192,92166,1,0,0:0:0:0:
256,192,92247,1,0,0:0:0:0:
256,192,92328,1,8,0:0:0:0:
256,192,92409,1,8,0:0:0:0:
256,192,92490,1,0,0:0:0:0:
256,192,92572,1,0,0:0:0:0:
256,192,92653,1,8,0:0:0:0:
256,192,92734,1,8,0:0:0:0:
256,192,92815,1,0,0:0:0:0:
256,192,92896,1,0,0:0:0:0:
256,192,92977,1,8,0:0:0:0:
256,192,93058,1,0,0:0:0:0:
256,192,93139,1,8,0:0:0:0:
256,192,93220,1,0,0:0:0:0:
256,192,93301,1,8,0:0:0:0:
256,192,93382,1,8,0:0:0:0:
256,192,93463,1,0,0:0:0:0:
256,192,93545,1,0,0:0:0:0:
256,192,93626,1,12,0:0:0:0:
256,192,93788,1,0,0:0:0:0:
256,192,93869,1,0,0:0:0:0:
256,192,93950,1,8,0:0:0:0:
256,192,94031,1,0,0:0:0:0:
256,192,94112,1,8,0:0:0:0:
256,192,94193,1,8,0:0:0:0:
256,192,94274,1,0,0:0:0:0:
256,192,94355,1,0,0:0:0:0:
256,192,94436,1,8,0:0:0:0:
256,192,94517,1,0,0:0:0:0:
256,192,94599,1,8,0:0:0:0:
256,192,94680,1,8,0:0:0:0:
256,192,94761,1,0,0:0:0:0:
256,192,94842,1,0,0:0:0:0:
256,192,94923,1,8,0:0:0:0:
256,192,95004,1,8,0:0:0:0:
256,192,95085,1,0,0:0:0:0:
256,192,95166,1,0,0:0:0:0:
256,192,95247,1,8,0:0:0:0:
256,192,95328,1,0,0:0:0:0:
256,192,95409,1,8,0:0:0:0:
256,192,95490,1,0,0:0:0:0:
256,192,95572,1,8,0:0:0:0:
256,192,95653,1,8,0:0:0:0:
256,192,95734,1,0,0:0:0:0:
256,192,95815,1,0,0:0:0:0:
256,192,95896,1,8,0:0:0:0:
256,192,95977,1,8,0:0:0:0:
256,192,96058,1,0,0:0:0:0:
256,192,96139,1,0,0:0:0:0:
256,192,96220,1,8,0:0:0:0:
256,192,96301,1,8,0:0:0:0:
256,192,96382,1,8,0:0:0:0:
256,192,96463,1,8,0:0:0:0:
256,192,96545,1,0,0:0:0:0:
256,192,96626,1,0,0:0:0:0:
256,192,96707,1,8,0:0:0:0:
256,192,96788,1,8,0:0:0:0:
256,192,96869,1,8,0:0:0:0:
256,192,96950,1,8,0:0:0:0:
256,192,97031,1,0,0:0:0:0:
256,192,97112,1,0,0:0:0:0:
256,192,97193,1,8,0:0:0:0:
256,192,97274,1,8,0:0:0:0:
256,192,97355,1,0,0:0:0:0:
256,192,97436,1,0,0:0:0:0:
256,192,97517,1,8,0:0:0:0:
256,192,97599,1,0,0:0:0:0:
256,192,97680,1,8,0:0:0:0:
256,192,97761,1,0,0:0:0:0:
256,192,97842,1,8,0:0:0:0:
256,192,97923,1,8,0:0:0:0:
256,192,98004,1,8,0:0:0:0:
256,192,98085,1,0,0:0:0:0:
256,192,98166,1,8,0:0:0:0:
256,192,98247,1,0,0:0:0:0:
256,192,98328,1,8,0:0:0:0:
256,192,98409,1,0,0:0:0:0:
256,192,98490,1,8,0:0:0:0:
256,192,98572,1,8,0:0:0:0:
256,192,98653,1,0,0:0:0:0:
256,192,98734,1,0,0:0:0:0:
256,192,98815,1,12,0:0:0:0:
256,192,98977,1,0,0:0:0:0:
256,192,99058,1,0,0:0:0:0:
256,192,99139,1,8,0:0:0:0:
256,192,99220,1,0,0:0:0:0:
256,192,99301,1,8,0:0:0:0:
256,192,99382,1,8,0:0:0:0:
256,192,99463,1,0,0:0:0:0:
256,192,99545,1,0,0:0:0:0:
256,192,99626,1,8,0:0:0:0:
256,192,99707,1,0,0:0:0:0:
256,192,99788,1,8,0:0:0:0:
256,192,99869,1,8,0:0:0:0:
256,192,99950,1,0,0:0:0:0:
256,192,100031,1,0,0:0:0:0:
256,192,100112,1,8,0:0:0:0:
256,192,100193,1,8,0:0:0:0:
256,192,100274,1,8,0:0:0:0:
256,192,100355,1,0,0:0:0:0:
256,192,100436,1,8,0:0:0:0:
256,192,100517,1,8,0:0:0:0:
256,192,100599,1,0,0:0:0:0:
256,192,100680,1,0,0:0:0:0:
256,192,100761,1,8,0:0:0:0:
256,192,100842,1,0,0:0:0:0:
256,192,100923,1,8,0:0:0:0:
256,192,101004,1,0,0:0:0:0:
256,192,101085,1,8,0:0:0:0:
256,192,101166,1,8,0:0:0:0:
256,192,101247,1,0,0:0:0:0:
256,192,101328,1,0,0:0:0:0:
256,192,101409,1,12,0:0:0:0:
256,192,101572,1,0,0:0:0:0:
256,192,101653,1,0,0:0:0:0:
256,192,101734,1,8,0:0:0:0:
256,192,101815,1,0,0:0:0:0:
256,192,101896,1,8,0:0:0:0:
256,192,101977,1,8,0:0:0:0:
256,192,102058,1,0,0:0:0:0:
256,192,102139,1,0,0:0:0:0:
256,192,102220,1,8,0:0:0:0:
256,192,102301,1,0,0:0:0:0:
256,192,102382,1,8,0:0:0:0:
256,192,102463,1,8,0:0:0:0:
256,192,102545,1,0,0:0:0:0:
256,192,102626,1,0,0:0:0:0:
256,192,102707,1,8,0:0:0:0:
256,192,102788,1,8,0:0:0:0:
256,192,102869,1,0,0:0:0:0:
256,192,102950,1,0,0:0:0:0:
256,192,103031,1,8,0:0:0:0:
256,192,103112,1,8,0:0:0:0:
256,192,103193,1,0,0:0:0:0:
256,192,103274,1,0,0:0:0:0:
256,192,103355,1,8,0:0:0:0:
256,192,103436,1,0,0:0:0:0:
256,192,103517,1,8,0:0:0:0:
256,192,103599,1,8,0:0:0:0:
256,192,103680,1,0,0:0:0:0:
256,192,103761,1,0,0:0:0:0:
256,192,103842,1,0,0:0:0:0:
256,192,103923,1,0,0:0:0:0:
256,192,104004,1,12,0:0:0:0:
256,192,104166,1,0,0:0:0:0:
256,192,104247,1,0,0:0:0:0:
256,192,104328,1,8,0:0:0:0:
256,192,104409,1,8,0:0:0:0:
256,192,104490,1,0,0:0:0:0:
256,192,104572,1,0,0:0:0:0:
256,192,104653,1,8,0:0:0:0:
256,192,104734,1,0,0:0:0:0:
256,192,104815,1,8,0:0:0:0:
256,192,104896,1,0,0:0:0:0:
256,192,104977,1,8,0:0:0:0:
256,192,105058,1,8,0:0:0:0:
256,192,105139,1,0,0:0:0:0:
256,192,105220,1,0,0:0:0:0:
256,192,105301,1,8,0:0:0:0:
256,192,105382,1,0,0:0:0:0:
256,192,105463,1,0,0:0:0:0:
256,192,105545,1,0,0:0:0:0:
256,192,105626,1,8,0:0:0:0:
256,192,105707,1,8,0:0:0:0:
256,192,105788,1,0,0:0:0:0:
256,192,105869,1,0,0:0:0:0:
256,192,105950,1,8,0:0:0:0:
256,192,106031,1,0,0:0:0:0:
256,192,106112,1,8,0:0:0:0:
256,192,106193,1,0,0:0:0:0:
256,192,106274,1,8,0:0:0:0:
256,192,106355,1,8,0:0:0:0:
256,192,106436,1,0,0:0:0:0:
256,192,106517,1,0,0:0:0:0:
256,192,106599,1,12,0:0:0:0:
256,192,106761,1,0,0:0:0:0:
256,192,106842,1,0,0:0:0:0:
256,192,106923,1,8,0:0:0:0:
256,192,107004,1,8,0:0:0:0:
256,192,107085,1,8,0:0:0:0:
256,192,107166,1,0,0:0:0:0:
256,192,107247,1,8,0:0:0:0:
256,192,107328,1,8,0:0:0:0:
256,192,107409,1,8,0:0:0:0:
256,192,107490,1,0,0:0:0:0:
256,192,107572,1,8,0:0:0:0:
256,192,107653,1,8,0:0:0:0:
256,192,107734,1,8,0:0:0:0:
256,192,107815,1,0,0:0:0:0:
256,192,107896,1,8,0:0:0:0:
256,192,107977,1,8,0:0:0:0:
256,192,108058,1,0,0:0:0:0:
256,192,108139,1,8,0:0:0:0:
256,192,108220,1,0,0:0:0:0:
256,192,108301,1,0,0:0:0:0:
256,192,108382,1,8,0:0:0:0:
256,192,108463,1,8,0:0:0:0:
256,192,108545,1,0,0:0:0:0:
256,192,108626,1,8,0:0:0:0:
256,192,108707,1,0,0:0:0:0:
256,192,108788,1,0,0:0:0:0:
256,192,108869,1,8,0:0:0:0:
256,192,108950,1,8,0:0:0:0:
256,192,109031,1,8,0:0:0:0:
256,192,109112,1,8,0:0:0:0:
256,192,109193,1,0,0:0:0:0:
256,192,109274,1,0,0:0:0:0:
256,192,109355,1,0,0:0:0:0:
256,192,109436,1,0,0:0:0:0:
256,192,109517,1,8,0:0:0:0:
256,192,110004,1,0,0:0:0:0:
256,192,110166,1,8,0:0:0:0:
256,192,110328,1,0,0:0:0:0:
256,192,110490,1,0,0:0:0:0:
256,192,110572,1,0,0:0:0:0:
256,192,110653,1,0,0:0:0:0:
256,192,110734,1,0,0:0:0:0:
256,192,110815,1,8,0:0:0:0:
256,192,110977,1,0,0:0:0:0:
256,192,111139,1,8,0:0:0:0:
256,192,111301,1,8,0:0:0:0:
256,192,111463,1,0,0:0:0:0:
256,192,111626,1,8,0:0:0:0:
256,192,111788,1,0,0:0:0:0:
256,192,111869,1,0,0:0:0:0:
256,192,111950,1,0,0:0:0:0:
256,192,112031,1,0,0:0:0:0:
256,192,112112,1,8,0:0:0:0:
256,192,112599,1,0,0:0:0:0:
256,192,112761,1,8,0:0:0:0:
256,192,112923,1,0,0:0:0:0:
256,192,113085,1,0,0:0:0:0:
256,192,113166,1,0,0:0:0:0:
256,192,113247,1,0,0:0:0:0:
256,192,113328,1,0,0:0:0:0:
256,192,113409,1,8,0:0:0:0:
256,192,113572,1,0,0:0:0:0:
256,192,113734,1,8,0:0:0:0:
256,192,113896,1,0,0:0:0:0:
256,192,114058,1,8,0:0:0:0:
256,192,114220,1,8,0:0:0:0:
256,192,114382,1,0,0:0:0:0:
256,192,114463,1,0,0:0:0:0:
256,192,114545,1,0,0:0:0:0:
256,192,114626,1,0,0:0:0:0:
256,192,114707,1,8,0:0:0:0:
256,192,115193,1,0,0:0:0:0:
256,192,115355,1,8,0:0:0:0:
256,192,115517,1,0,0:0:0:0:
256,192,115680,1,0,0:0:0:0:
256,192,115761,1,0,0:0:0:0:
256,192,115842,1,0,0:0:0:0:
256,192,115923,1,0,0:0:0:0:
256,192,116004,1,8,0:0:0:0:
256,192,116166,1,0,0:0:0:0:
256,192,116328,1,8,0:0:0:0:
256,192,116490,1,0,0:0:0:0:
256,192,116653,1,0,0:0:0:0:
256,192,116734,1,0,0:0:0:0:
256,192,116815,1,12,0:0:0:0:
256,192,117139,1,0,0:0:0:0:
256,192,117301,1,8,0:0:0:0:
256,192,117463,1,0,0:0:0:0:
256,192,117626,1,8,0:0:0:0:
256,192,117788,1,0,0:0:0:0:
256,192,117950,1,8,0:0:0:0:
256,192,118031,1,8,0:0:0:0:
256,192,118112,1,0,0:0:0:0:
256,192,118193,1,0,0:0:0:0:
256,192,118274,1,8,0:0:0:0:
256,192,118436,1,0,0:0:0:0:
256,192,118599,1,8,0:0:0:0:
256,192,118761,1,0,0:0:0:0:
256,192,118923,1,8,0:0:0:0:
256,192,119085,1,0,0:0:0:0:
256,192,119247,1,8,0:0:0:0:
256,192,119409,1,8,0:0:0:0:
256,192,119572,1,4,0:0:0:0:
256,192,119734,1,8,0:0:0:0:
256,192,119896,1,0,0:0:0:0:
256,192,120058,1,0,0:0:0:0:
256,192,120220,1,8,0:0:0:0:
256,192,120301,1,8,0:0:0:0:
256,192,120382,1,0,0:0:0:0:
256,192,120545,1,0,0:0:0:0:
256,192,120707,1,0,0:0:0:0:
256,192,120869,1,0,0:0:0:0:
256,192,121031,1,8,0:0:0:0:
256,192,121193,1,8,0:0:0:0:
256,192,121355,1,0,0:0:0:0:
256,192,121517,1,8,0:0:0:0:
256,192,121599,1,8,0:0:0:0:
256,192,121680,1,0,0:0:0:0:
256,192,121842,1,8,0:0:0:0:
256,192,122004,1,8,0:0:0:0:
256,192,122166,1,4,0:0:0:0:
256,192,122328,1,8,0:0:0:0:
256,192,122490,1,0,0:0:0:0:
256,192,122653,1,0,0:0:0:0:
256,192,122815,1,8,0:0:0:0:
256,192,122896,1,8,0:0:0:0:
256,192,122977,1,0,0:0:0:0:
256,192,123139,1,0,0:0:0:0:
256,192,123301,1,0,0:0:0:0:
256,192,123463,1,0,0:0:0:0:
256,192,123626,1,8,0:0:0:0:
256,192,123788,1,8,0:0:0:0:
256,192,123950,1,0,0:0:0:0:
256,192,124112,1,8,0:0:0:0:
256,192,124193,1,8,0:0:0:0:
256,192,124274,1,0,0:0:0:0:
256,192,124436,1,8,0:0:0:0:
256,192,124599,1,8,0:0:0:0:
256,192,124761,1,4,0:0:0:0:
256,192,124923,1,8,0:0:0:0:
256,192,125085,1,0,0:0:0:0:
256,192,125247,1,0,0:0:0:0:
256,192,125409,1,8,0:0:0:0:
256,192,125490,1,8,0:0:0:0:
256,192,125572,1,0,0:0:0:0:
256,192,125734,1,0,0:0:0:0:
256,192,125896,1,0,0:0:0:0:
256,192,126058,1,0,0:0:0:0:
256,192,126220,1,8,0:0:0:0:
256,192,126382,1,8,0:0:0:0:
256,192,126545,1,0,0:0:0:0:
256,192,126707,1,8,0:0:0:0:
256,192,126788,1,0,0:0:0:0:
256,192,126869,1,8,0:0:0:0:
256,192,126950,1,0,0:0:0:0:
256,192,127031,1,8,0:0:0:0:
256,192,127193,1,4,0:0:0:0:
256,192,127517,1,0,0:0:0:0:
256,192,127680,1,8,0:0:0:0:
256,192,127761,1,8,0:0:0:0:
256,192,127842,1,0,0:0:0:0:
256,192,128004,1,8,0:0:0:0:
256,192,128166,1,0,0:0:0:0:
256,192,128328,1,8,0:0:0:0:
256,192,128409,1,8,0:0:0:0:
256,192,128490,1,0,0:0:0:0:
256,192,128653,1,8,0:0:0:0:
256,192,128815,1,0,0:0:0:0:
256,192,128977,1,8,0:0:0:0:
256,192,129058,1,0,0:0:0:0:
256,192,129139,1,8,0:0:0:0:
256,192,129301,1,0,0:0:0:0:
256,192,129463,1,0,0:0:0:0:
256,192,129626,1,8,0:0:0:0:
256,192,129788,1,0,0:0:0:0:
256,192,129869,1,0,0:0:0:0:
256,192,129950,1,8,0:0:0:0:
256,192,130112,1,0,0:0:0:0:
256,192,130193,1,0,0:0:0:0:
256,192,130274,1,8,0:0:0:0:
256,192,130355,1,0,0:0:0:0:
256,192,130436,1,8,0:0:0:0:
256,192,130517,1,0,0:0:0:0:
256,192,130599,1,8,0:0:0:0:
256,192,130680,1,0,0:0:0:0:
256,192,130761,1,8,0:0:0:0:
256,192,130842,1,0,0:0:0:0:
256,192,130923,1,8,0:0:0:0:
256,192,131004,1,0,0:0:0:0:
256,192,131085,1,8,0:0:0:0:
256,192,131166,1,0,0:0:0:0:
256,192,131247,1,8,0:0:0:0:
256,192,131328,1,8,0:0:0:0:
256,192,131409,1,0,0:0:0:0:
256,192,131490,1,0,0:0:0:0:
256,192,131572,1,8,0:0:0:0:
256,192,131653,1,0,0:0:0:0:
256,192,131734,1,8,0:0:0:0:
256,192,131815,1,0,0:0:0:0:
256,192,131896,1,8,0:0:0:0:
256,192,131977,1,0,0:0:0:0:
256,192,132058,1,8,0:0:0:0:
256,192,132139,1,0,0:0:0:0:
256,192,132220,1,8,0:0:0:0:
256,192,132301,1,8,0:0:0:0:
256,192,132382,1,0,0:0:0:0:
256,192,132463,1,0,0:0:0:0:
256,192,132545,1,12,0:0:0:0:
256,192,132707,1,0,0:0:0:0:
256,192,133031,1,0,0:0:0:0:
256,192,133193,1,8,0:0:0:0:
256,192,133517,1,0,0:0:0:0:
256,192,133842,1,0,0:0:0:0:
256,192,134166,1,0,0:0:0:0:
256,192,134490,1,8,0:0:0:0:
256,192,134815,1,0,0:0:0:0:
256,192,135139,1,4,0:0:0:0:
256,192,135463,1,0,0:0:0:0:
256,192,135626,1,0,0:0:0:0:
256,192,135788,1,8,0:0:0:0:
256,192,136112,1,0,0:0:0:0:
256,192,136436,1,0,0:0:0:0:
256,192,136761,1,0,0:0:0:0:
256,192,136923,1,0,0:0:0:0:
256,192,137004,1,0,0:0:0:0:
256,192,137085,1,8,0:0:0:0:
256,192,137247,1,0,0:0:0:0:
256,192,137409,1,8,0:0:0:0:
256,192,137572,1,8,0:0:0:0:
256,192,137734,1,4,0:0:0:0:
256,192,137896,1,0,0:0:0:0:
256,192,138220,1,0,0:0:0:0:
256,192,138382,1,8,0:0:0:0:
256,192,138707,1,0,0:0:0:0:
256,192,139031,1,0,0:0:0:0:
256,192,139355,1,0,0:0:0:0:
256,192,139680,1,8,0:0:0:0:
256,192,140004,1,0,0:0:0:0:
256,192,140328,1,4,0:0:0:0:
256,192,140653,1,0,0:0:0:0:
256,192,140815,1,0,0:0:0:0:
256,192,140977,1,8,0:0:0:0:
256,192,141301,1,0,0:0:0:0:
256,192,141626,1,0,0:0:0:0:
256,192,141788,1,8,0:0:0:0:
256,192,141950,1,0,0:0:0:0:
256,192,142112,1,0,0:0:0:0:
256,192,142274,1,8,0:0:0:0:
256,192,142436,1,0,0:0:0:0:
256,192,142599,1,8,0:0:0:0:
256,192,142761,1,8,0:0:0:0:
256,192,142923,1,4,0:0:0:0:
256,192,143409,1,0,0:0:0:0:
256,192,143572,1,8,0:0:0:0:
256,192,143896,1,0,0:0:0:0:
256,192,144220,1,0,0:0:0:0:
256,192,144545,1,0,0:0:0:0:
256,192,144869,1,8,0:0:0:0:
256,192,145193,1,0,0:0:0:0:
256,192,145355,1,8,0:0:0:0:
256,192,145517,1,4,0:0:0:0:
256,192,146004,1,0,0:0:0:0:
256,192,146166,1,8,0:0:0:0:
256,192,146490,1,0,0:0:0:0:
256,192,146815,1,0,0:0:0:0:
256,192,147139,1,0,0:0:0:0:
256,192,147463,1,8,0:0:0:0:
256,192,147788,1,0,0:0:0:0:
256,192,148112,1,4,0:0:0:0:
256,192,148436,1,0,0:0:0:0:
256,192,148599,1,8,0:0:0:0:
256,192,148761,1,0,0:0:0:0:
256,192,148923,1,0,0:0:0:0:
256,192,149004,1,0,0:0:0:0:
256,192,149085,1,8,0:0:0:0:
256,192,149247,1,8,0:0:0:0:
256,192,149409,1,0,0:0:0:0:
256,192,149572,1,8,0:0:0:0:
256,192,149734,1,0,0:0:0:0:
256,192,149896,1,0,0:0:0:0:
256,192,149977,1,0,0:0:0:0:
256,192,150058,1,8,0:0:0:0:
256,192,150220,1,0,0:0:0:0:
256,192,150382,1,8,0:0:0:0:
256,192,150545,1,8,0:0:0:0:
256,192,150707,1,8,0:0:0:0:
256,192,150788,1,8,0:0:0:0:
256,192,150869,1,0,0:0:0:0:
256,192,150950,1,8,0:0:0:0:
256,192,151031,1,0,0:0:0:0:
256,192,151112,1,0,0:0:0:0:
256,192,151193,1,8,0:0:0:0:
256,192,151274,1,8,0:0:0:0:
256,192,151355,1,0,0:0:0:0:
256,192,151436,1,8,0:0:0:0:
256,192,151517,1,0,0:0:0:0:
256,192,151599,1,0,0:0:0:0:
256,192,151680,1,8,0:0:0:0:
256,192,151761,1,8,0:0:0:0:
256,192,151842,1,0,0:0:0:0:
256,192,151923,1,8,0:0:0:0:
256,192,152004,1,0,0:0:0:0:
256,192,152085,1,0,0:0:0:0:
256,192,152166,1,8,0:0:0:0:
256,192,152247,1,8,0:0:0:0:
256,192,152328,1,0,0:0:0:0:
256,192,152409,1,8,0:0:0:0:
256,192,152490,1,0,0:0:0:0:
256,192,152572,1,0,0:0:0:0:
256,192,152653,1,8,0:0:0:0:
256,192,152734,1,8,0:0:0:0:
256,192,152815,1,8,0:0:0:0:
256,192,152896,1,0,0:0:0:0:
256,192,152977,1,8,0:0:0:0:
256,192,153058,1,8,0:0:0:0:
256,192,153139,1,8,0:0:0:0:
256,192,153220,1,8,0:0:0:0:
256,192,153301,1,4,0:0:0:0:
256,192,153463,1,0,0:0:0:0:
256,192,153545,1,0,0:0:0:0:
256,192,153626,1,8,0:0:0:0:
256,192,153707,1,0,0:0:0:0:
256,192,153788,1,8,0:0:0:0:
256,192,153869,1,8,0:0:0:0:
256,192,153950,1,0,0:0:0:0:
256,192,154031,1,0,0:0:0:0:
256,192,154112,1,8,0:0:0:0:
256,192,154193,1,0,0:0:0:0:
256,192,154274,1,8,0:0:0:0:
256,192,154355,1,8,0:0:0:0:
256,192,154436,1,0,0:0:0:0:
256,192,154517,1,0,0:0:0:0:
256,192,154599,1,0,0:0:0:0:
256,192,154680,1,0,0:0:0:0:
256,192,154761,1,8,0:0:0:0:
256,192,154842,1,0,0:0:0:0:
256,192,154923,1,8,0:0:0:0:
256,192,155004,1,8,0:0:0:0:
256,192,155085,1,0,0:0:0:0:
256,192,155166,1,0,0:0:0:0:
256,192,155247,1,8,0:0:0:0:
256,192,155328,1,8,0:0:0:0:
256,192,155409,1,0,0:0:0:0:
256,192,155490,1,0,0:0:0:0:
256,192,155572,1,8,0:0:0:0:
256,192,155653,1,0,0:0:0:0:
256,192,155734,1,8,0:0:0:0:
256,192,155815,1,0,0:0:0:0:
256,192,155896,1,8,0:0:0:0:
256,192,155977,1,8,0:0:0:0:
256,192,156058,1,8,0:0:0:0:
256,192,156139,1,8,0:0:0:0:
256,192,156220,1,0,0:0:0:0:
256,192,156301,1,0,0:0:0:0:
256,192,156382,1,8,0:0:0:0:
256,192,156463,1,8,0:0:0:0:
256,192,156545,1,8,0:0:0:0:
256,192,156626,1,8,0:0:0:0:
256,192,156707,1,0,0:0:0:0:
256,192,156788,1,0,0:0:0:0:
256,192,156869,1,8,0:0:0:0:
256,192,156950,1,8,0:0:0:0:
256,192,157031,1,0,0:0:0:0:
256,192,157112,1,0,0:0:0:0:
256,192,157193,1,8,0:0:0:0:
256,192,157274,1,8,0:0:0:0:
256,192,157355,1,0,0:0:0:0:
256,192,157436,1,0,0:0:0:0:
256,192,157517,1,8,0:0:0:0:
256,192,157599,1,8,0:0:0:0:
256,192,157680,1,0,0:0:0:0:
256,192,157761,1,0,0:0:0:0:
256,192,157842,1,8,0:0:0:0:
256,192,157923,1,0,0:0:0:0:
256,192,158004,1,8,0:0:0:0:
256,192,158085,1,0,0:0:0:0:
256,192,158166,1,8,0:0:0:0:
256,192,158247,1,8,0:0:0:0:
256,192,158328,1,0,0:0:0:0:
256,192,158409,1,0,0:0:0:0:
256,192,158490,1,12,0:0:0:0:
256,192,158653,1,0,0:0:0:0:
256,192,158734,1,0,0:0:0:0:
256,192,158815,1,8,0:0:0:0:
256,192,158896,1,0,0:0:0:0:
256,192,158977,1,8,0:0:0:0:
256,192,159058,1,8,0:0:0:0:
256,192,159139,1,0,0:0:0:0:
256,192,159220,1,0,0:0:0:0:
256,192,159301,1,8,0:0:0:0:
256,192,159382,1,0,0:0:0:0:
256,192,159463,1,8,0:0:0:0:
256,192,159545,1,8,0:0:0:0:
256,192,159626,1,0,0:0:0:0:
256,192,159707,1,0,0:0:0:0:
256,192,159788,1,8,0:0:0:0:
256,192,159869,1,8,0:0:0:0:
256,192,159950,1,0,0:0:0:0:
256,192,160031,1,0,0:0:0:0:
256,192,160112,1,8,0:0:0:0:
256,192,160193,1,0,0:0:0:0:
256,192,160274,1,8,0:0:0:0:
256,192,160355,1,0,0:0:0:0:
256,192,160436,1,8,0:0:0:0:
256,192,160517,1,8,0:0:0:0:
256,192,160599,1,0,0:0:0:0:
256,192,160680,1,0,0:0:0:0:
256,192,160761,1,8,0:0:0:0:
256,192,160842,1,8,0:0:0:0:
256,192,160923,1,0,0:0:0:0:
256,192,161004,1,0,0:0:0:0:
256,192,161085,1,8,0:0:0:0:
256,192,161166,1,8,0:0:0:0:
256,192,161247,1,8,0:0:0:0:
256,192,161328,1,8,0:0:0:0:
256,192,161409,1,0,0:0:0:0:
256,192,161490,1,0,0:0:0:0:
256,192,161572,1,8,0:0:0:0:
256,192,161653,1,8,0:0:0:0:
256,192,161734,1,8,0:0:0:0:
256,192,161815,1,8,0:0:0:0:
256,192,161896,1,0,0:0:0:0:
256,192,161977,1,0,0:0:0:0:
256,192,162058,1,8,0:0:0:0:
256,192,162139,1,8,0:0:0:0:
256,192,162220,1,0,0:0:0:0:
256,192,162301,1,0,0:0:0:0:
256,192,162382,1,8,0:0:0:0:
256,192,162463,1,0,0:0:0:0:
256,192,162545,1,8,0:0:0:0:
256,192,162626,1,0,0:0:0:0:
256,192,162707,1,8,0:0:0:0:
256,192,162788,1,8,0:0:0:0:
256,192,162869,1,8,0:0:0:0:
256,192,162950,1,0,0:0:0:0:
256,192,163031,1,8,0:0:0:0:
256,192,163112,1,0,0:0:0:0:
256,192,163193,1,8,0:0:0:0:
256,192,163274,1,0,0:0:0:0:
256,192,163355,1,8,0:0:0:0:
256,192,163436,1,8,0:0:0:0:
256,192,163517,1,0,0:0:0:0:
256,192,163599,1,0,0:0:0:0:
256,192,163680,1,12,0:0:0:0:
256,192,163842,1,0,0:0:0:0:
256,192,163923,1,0,0:0:0:0:
256,192,164004,1,8,0:0:0:0:
256,192,164085,1,0,0:0:0:0:
256,192,164166,1,8,0:0:0:0:
256,192,164247,1,8,0:0:0:0:
256,192,164328,1,0,0:0:0:0:
256,192,164409,1,0,0:0:0:0:
256,192,164490,1,8,0:0:0:0:
256,192,164572,1,0,0:0:0:0:
256,192,164653,1,8,0:0:0:0:
256,192,164734,1,8,0:0:0:0:
256,192,164815,1,0,0:0:0:0:
256,192,164896,1,0,0:0:0:0:
256,192,164977,1,8,0:0:0:0:
256,192,165058,1,8,0:0:0:0:
256,192,165139,1,8,0:0:0:0:
256,192,165220,1,0,0:0:0:0:
256,192,165301,1,8,0:0:0:0:
256,192,165382,1,8,0:0:0:0:
256,192,165463,1,0,0:0:0:0:
256,192,165545,1,0,0:0:0:0:
256,192,165626,1,8,0:0:0:0:
256,192,165707,1,0,0:0:0:0:
256,192,165788,1,8,0:0:0:0:
256,192,165869,1,0,0:0:0:0:
256,192,165950,1,8,0:0:0:0:
256,192,166031,1,8,0:0:0:0:
256,192,166112,1,0,0:0:0:0:
256,192,166193,1,0,0:0:0:0:
256,192,166274,1,12,0:0:0:0:
256,192,166436,1,0,0:0:0:0:
256,192,166517,1,0,0:0:0:0:
256,192,166599,1,8,0:0:0:0:
256,192,166680,1,0,0:0:0:0:
256,192,166761,1,8,0:0:0:0:
256,192,166842,1,8,0:0:0:0:
256,192,166923,1,0,0:0:0:0:
256,192,167004,1,0,0:0:0:0:
256,192,167085,1,8,0:0:0:0:
256,192,167166,1,0,0:0:0:0:
256,192,167247,1,8,0:0:0:0:
256,192,167328,1,8,0:0:0:0:
256,192,167409,1,0,0:0:0:0:
256,192,167490,1,0,0:0:0:0:
256,192,167572,1,8,0:0:0:0:
256,192,167653,1,8,0:0:0:0:
256,192,167734,1,0,0:0:0:0:
256,192,167815,1,0,0:0:0:0:
256,192,167896,1,8,0:0:0:0:
256,192,167977,1,8,0:0:0:0:
256,192,168058,1,0,0:0:0:0:
256,192,168139,1,0,0:0:0:0:
256,192,168220,1,8,0:0:0:0:
256,192,168301,1,0,0:0:0:0:
256,192,168382,1,8,0:0:0:0:
256,192,168463,1,8,0:0:0:0:
256,192,168545,1,0,0:0:0:0:
256,192,168626,1,0,0:0:0:0:
256,192,168707,1,0,0:0:0:0:
256,192,168788,1,0,0:0:0:0:
256,192,168869,1,12,0:0:0:0:
256,192,169031,1,0,0:0:0:0:
256,192,169112,1,0,0:0:0:0:
256,192,169193,1,8,0:0:0:0:
256,192,169274,1,8,0:0:0:0:
256,192,169355,1,0,0:0:0:0:
256,192,169436,1,0,0:0:0:0:
256,192,169517,1,8,0:0:0:0:
256,192,169599,1,0,0:0:0:0:
256,192,169680,1,8,0:0:0:0:
256,192,169761,1,0,0:0:0:0:
256,192,169842,1,8,0:0:0:0:
256,192,169923,1,8,0:0:0:0:
256,192,170004,1,0,0:0:0:0:
256,192,170085,1,0,0:0:0:0:
256,192,170166,1,8,0:0:0:0:
256,192,170247,1,0,0:0:0:0:
256,192,170328,1,0,0:0:0:0:
256,192,170409,1,0,0:0:0:0:
256,192,170490,1,8,0:0:0:0:
256,192,170572,1,8,0:0:0:0:
256,192,170653,1,0,0:0:0:0:
256,192,170734,1,0,0:0:0:0:
256,192,170815,1,8,0:0:0:0:
256,192,170896,1,0,0:0:0:0:
256,192,170977,1,8,0:0:0:0:
256,192,171058,1,0,0:0:0:0:
256,192,171139,1,8,0:0:0:0:
256,192,171220,1,8,0:0:0:0:
256,192,171301,1,0,0:0:0:0:
256,192,171382,1,0,0:0:0:0:
256,192,171463,1,12,0:0:0:0:
256,192,171626,1,0,0:0:0:0:
256,192,171707,1,0,0:0:0:0:
256,192,171788,1,8,0:0:0:0:
256,192,171869,1,8,0:0:0:0:
256,192,171950,1,8,0:0:0:0:
256,192,172031,1,0,0:0:0:0:
256,192,172112,1,8,0:0:0:0:
256,192,172193,1,8,0:0:0:0:
256,192,172274,1,8,0:0:0:0:
256,192,172355,1,0,0:0:0:0:
256,192,172436,1,8,0:0:0:0:
256,192,172517,1,0,0:0:0:0:
256,192,172599,1,8,0:0:0:0:
256,192,172680,1,8,0:0:0:0:
256,192,172761,1,0,0:0:0:0:
256,192,172842,1,8,0:0:0:0:
256,192,172923,1,0,0:0:0:0:
256,192,173004,1,0,0:0:0:0:
256,192,173085,1,12,0:0:0:0:
256,192,173247,1,0,0:0:0:0:
256,192,173328,1,0,0:0:0:0:
256,192,173409,1,8,0:0:0:0:
256,192,173490,1,8,0:0:0:0:
256,192,173572,1,8,0:0:0:0:
256,192,173653,1,8,0:0:0:0:
256,192,173734,1,0,0:0:0:0:
256,192,173815,1,0,0:0:0:0:
256,192,173896,1,0,0:0:0:0:
256,192,173977,1,0,0:0:0:0:
256,192,174058,1,12,0:0:0:0:
256,192,174220,1,0,0:0:0:0:
256,192,174382,1,8,0:0:0:0:
256,192,174545,1,0,0:0:0:0:
256,192,174707,1,0,0:0:0:0:
256,192,174869,1,0,0:0:0:0:
256,192,175031,1,8,0:0:0:0:
256,192,175193,1,0,0:0:0:0:
256,192,175355,1,0,0:0:0:0:
256,192,175517,1,0,0:0:0:0:
256,192,175680,1,8,0:0:0:0:
256,192,175842,1,0,0:0:0:0:
256,192,176004,1,0,0:0:0:0:
256,192,176166,1,0,0:0:0:0:
256,192,176328,1,8,0:0:0:0:
256,192,176490,1,8,0:0:0:0:
256,192,176653,1,4,0:0:0:0:
256,192,176815,1,0,0:0:0:0:
256,192,176977,1,8,0:0:0:0:
256,192,177139,1,0,0:0:0:0:
256,192,177301,1,0,0:0:0:0:
256,192,177463,1,0,0:0:0:0:
256,192,177626,1,8,0:0:0:0:
256,192,177788,1,0,0:0:0:0:
256,192,177950,1,0,0:0:0:0:
256,192,178112,1,0,0:0:0:0:
256,192,178274,1,8,0:0:0:0:
256,192,178436,1,0,0:0:0:0:
256,192,178599,1,0,0:0:0:0:
256,192,178761,1,8,0:0:0:0:
256,192,178923,1,8,0:0:0:0:
256,192,179085,1,8,0:0:0:0:
256,192,179247,1,4,0:0:0:0:
256,192,179409,1,0,0:0:0:0:
256,192,179572,1,8,0:0:0:0:
256,192,179734,1,0,0:0:0:0:
256,192,179896,1,0,0:0:0:0:
256,192,180058,1,0,0:0:0:0:
256,192,180220,1,8,0:0:0:0:
256,192,180382,1,0,0:0:0:0:
256,192,180545,1,0,0:0:0:0:
256,192,180707,1,0,0:0:0:0:
256,192,180869,1,8,0:0:0:0:
256,192,181031,1,0,0:0:0:0:
256,192,181193,1,0,0:0:0:0:
256,192,181355,1,0,0:0:0:0:
256,192,181517,1,8,0:0:0:0:
256,192,181680,1,8,0:0:0:0:
256,192,181842,1,4,0:0:0:0:
256,192,182004,1,0,0:0:0:0:
256,192,182166,1,8,0:0:0:0:
256,192,182328,1,0,0:0:0:0:
256,192,182490,1,0,0:0:0:0:
256,192,182653,1,0,0:0:0:0:
256,192,182815,1,8,0:0:0:0:
256,192,182977,1,0,0:0:0:0:
256,192,183139,1,0,0:0:0:0:
256,192,183301,1,0,0:0:0:0:
256,192,183463,1,8,0:0:0:0:
256,192,183626,1,0,0:0:0:0:
256,192,183707,1,0,0:0:0:0:
256,192,183788,1,0,0:0:0:0:
256,192,183950,1,8,0:0:0:0:
256,192,184112,1,0,0:0:0:0:
256,192,184274,1,8,0:0:0:0:
256,192,184436,1,4,0:0:0:0:
256,192,184599,1,0,0:0:0:0:
256,192,184761,1,8,0:0:0:0:
256,192,184923,1,0,0:0:0:0:
256,192,185085,1,0,0:0:0:0:
256,192,185247,1,0,0:0:0:0:
256,192,185409,1,8,0:0:0:0:
256,192,185572,1,0,0:0:0:0:
256,192,185734,1,0,0:0:0:0:
256,192,185896,1,0,0:0:0:0:
256,192,186058,1,8,0:0:0:0:
256,192,186220,1,0,0:0:0:0:
256,192,186382,1,0,0:0:0:0:
256,192,186545,1,0,0:0:0:0:
256,192,186707,1,8,0:0:0:0:
256,192,186869,1,8,0:0:0:0:
256,192,187031,1,4,0:0:0:0:
256,192,187193,1,0,0:0:0:0:
256,192,187355,1,8,0:0:0:0:
256,192,187517,1,0,0:0:0:0:
256,192,187680,1,0,0:0:0:0:
256,192,187842,1,0,0:0:0:0:
256,192,188004,1,8,0:0:0:0:
256,192,188166,1,0,0:0:0:0:
256,192,188328,1,0,0:0:0:0:
256,192,188490,1,0,0:0:0:0:
256,192,188653,1,8,0:0:0:0:
256,192,188815,1,0,0:0:0:0:
256,192,188977,1,0,0:0:0:0:
256,192,189139,1,8,0:0:0:0:
256,192,189301,1,8,0:0:0:0:
256,192,189463,1,0,0:0:0:0:
256,192,189626,1,8,0:0:0:0:
256,192,189707,1,8,0:0:0:0:
256,192,189788,1,8,0:0:0:0:
256,192,189869,1,0,0:0:0:0:
256,192,189950,1,8,0:0:0:0:
256,192,190031,1,8,0:0:0:0:
256,192,190112,1,0,0:0:0:0:
256,192,190193,1,0,0:0:0:0:
256,192,190274,1,8,0:0:0:0:
256,192,190355,1,0,0:0:0:0:
256,192,190436,1,8,0:0:0:0:
256,192,190517,1,8,0:0:0:0:
256,192,190599,1,0,0:0:0:0:
256,192,190680,1,0,0:0:0:0:
256,192,190761,1,8,0:0:0:0:
256,192,190842,1,0,0:0:0:0:
256,192,190923,1,8,0:0:0:0:
256,192,191004,1,8,0:0:0:0:
256,192,191085,1,8,0:0:0:0:
256,192,191166,1,0,0:0:0:0:
256,192,191247,1,8,0:0:0:0:
256,192,191328,1,8,0:0:0:0:
256,192,191409,1,0,0:0:0:0:
256,192,191490,1,0,0:0:0:0:
256,192,191572,1,8,0:0:0:0:
256,192,191626,1,0,0:0:0:0:
256,192,191680,1,0,0:0:0:0:
256,192,191734,1,8,0:0:0:0:
256,192,191815,1,0,0:0:0:0:
256,192,191896,1,8,0:0:0:0:
256,192,191977,1,8,0:0:0:0:
256,192,192058,1,0,0:0:0:0:
256,192,192139,1,0,0:0:0:0:
256,192,192220,1,12,0:0:0:0:
256,192,192382,1,0,0:0:0:0:
256,192,192463,1,0,0:0:0:0:
256,192,192545,1,8,0:0:0:0:
256,192,192626,1,8,0:0:0:0:
256,192,192707,1,0,0:0:0:0:
256,192,192788,1,8,0:0:0:0:
256,192,192869,1,0,0:0:0:0:
256,192,192950,1,0,0:0:0:0:
256,192,193031,1,8,0:0:0:0:
256,192,193112,1,0,0:0:0:0:
256,192,193193,1,8,0:0:0:0:
256,192,193274,1,8,0:0:0:0:
256,192,193355,1,0,0:0:0:0:
256,192,193436,1,0,0:0:0:0:
256,192,193517,1,8,0:0:0:0:
256,192,193680,1,0,0:0:0:0:
256,192,193761,1,0,0:0:0:0:
256,192,193842,1,8,0:0:0:0:
256,192,193923,1,0,0:0:0:0:
256,192,194004,1,8,0:0:0:0:
256,192,194085,1,8,0:0:0:0:
256,192,194166,1,0,0:0:0:0:
256,192,194247,1,0,0:0:0:0:
256,192,194328,1,8,0:0:0:0:
256,192,194409,1,0,0:0:0:0:
256,192,194490,1,8,0:0:0:0:
256,192,194572,1,8,0:0:0:0:
256,192,194653,1,0,0:0:0:0:
256,192,194734,1,0,0:0:0:0:
256,192,194815,1,12,0:0:0:0:
256,192,194977,1,0,0:0:0:0:
256,192,195058,1,0,0:0:0:0:
256,192,195139,1,8,0:0:0:0:
256,192,195220,1,8,0:0:0:0:
256,192,195301,1,0,0:0:0:0:
256,192,195355,1,0,0:0:0:0:
256,192,195409,1,0,0:0:0:0:
256,192,195463,1,8,0:0:0:0:
256,192,195545,1,8,0:0:0:0:
256,192,195626,1,0,0:0:0:0:
256,192,195707,1,0,0:0:0:0:
256,192,195788,1,8,0:0:0:0:
256,192,195869,1,8,0:0:0:0:
256,192,195950,1,8,0:0:0:0:
256,192,196031,1,0,0:0:0:0:
256,192,196112,1,8,0:0:0:0:
256,192,196193,1,0,0:0:0:0:
256,192,196274,1,8,0:0:0:0:
256,192,196355,1,8,0:0:0:0:
256,192,196436,1,0,0:0:0:0:
256,192,196517,1,0,0:0:0:0:
256,192,196599,1,8,0:0:0:0:
256,192,196680,1,0,0:0:0:0:
256,192,196761,1,8,0:0:0:0:
256,192,196842,1,8,0:0:0:0:
256,192,196923,1,8,0:0:0:0:
256,192,197004,1,0,0:0:0:0:
256,192,197085,1,8,0:0:0:0:
256,192,197166,1,8,0:0:0:0:
256,192,197247,1,0,0:0:0:0:
256,192,197328,1,0,0:0:0:0:
256,192,197409,1,12,0:0:0:0:
256,192,200004,1,4,0:0:0:0:
256,192,202599,1,12,0:0:0:0:
256,192,205193,1,4,0:0:0:0:
256,192,206490,1,12,0:0:0:0:
256,192,207788,1,4,0:0:0:0:
256,192,208923,1,0,0:0:0:0:
256,192,209004,1,0,0:0:0:0:
256,192,209085,1,8,0:0:0:0:
256,192,209572,1,0,0:0:0:0:
256,192,210058,1,8,0:0:0:0:
256,192,210382,1,4,0:0:0:0:
256,192,211572,1,0,0:0:0:0:
256,192,211626,1,0,0:0:0:0:
256,192,211680,1,8,0:0:0:0:
256,192,212166,1,0,0:0:0:0:
256,192,212220,1,0,0:0:0:0:
256,192,212274,1,0,0:0:0:0:
256,192,212328,1,0,0:0:0:0:
256,192,212653,1,8,0:0:0:0:
256,192,212977,1,4,0:0:0:0:
256,192,213301,1,0,0:0:0:0:
256,192,213626,1,8,0:0:0:0:
256,192,213950,1,0,0:0:0:0:
256,192,214274,1,0,0:0:0:0:
256,192,214436,1,8,0:0:0:0:
256,192,214599,1,0,0:0:0:0:
256,192,214923,1,8,0:0:0:0:
256,192,215247,1,0,0:0:0:0:
256,192,215572,1,0,0:0:0:0:
256,192,215734,1,8,0:0:0:0:
256,192,215896,1,0,0:0:0:0:
256,192,216058,1,0,0:0:0:0:
256,192,216220,1,8,0:0:0:0:
256,192,216545,1,0,0:0:0:0:
256,192,216869,1,0,0:0:0:0:
256,192,217031,1,8,0:0:0:0:
256,192,217193,1,0,0:0:0:0:
256,192,217517,1,8,0:0:0:0:
256,192,217842,1,0,0:0:0:0:
256,192,218166,1,8,0:0:0:0:
256,192,218328,1,0,0:0:0:0:
256,192,218490,1,0,0:0:0:0:
256,192,218653,1,0,0:0:0:0:
256,192,218734,1,0,0:0:0:0:
256,192,218815,1,8,0:0:0:0:
256,192,218977,1,0,0:0:0:0:
256,192,219139,1,8,0:0:0:0:
256,192,219301,1,0,0:0:0:0:
256,192,219463,1,0,0:0:0:0:
256,192,219626,1,8,0:0:0:0:
256,192,219788,1,8,0:0:0:0:
256,192,219950,1,0,0:0:0:0:
256,192,220031,1,0,0:0:0:0:
256,192,220112,1,8,0:0:0:0:
256,192,220274,1,0,0:0:0:0:
256,192,220436,1,0,0:0:0:0:
256,192,220599,1,0,0:0:0:0:
256,192,220761,1,8,0:0:0:0:
256,192,220842,1,8,0:0:0:0:
256,192,220923,1,8,0:0:0:0:
256,192,221004,1,0,0:0:0:0:
256,192,221085,1,0,0:0:0:0:
256,192,221166,1,0,0:0:0:0:
256,192,221247,1,8,0:0:0:0:
256,192,221328,1,8,0:0:0:0:
256,192,221409,1,8,0:0:0:0:
256,192,221490,1,0,0:0:0:0:
256,192,221572,1,0,0:0:0:0:
256,192,221653,1,0,0:0:0:0:
256,192,221734,1,8,0:0:0:0:
256,192,221815,1,8,0:0:0:0:
256,192,221896,1,0,0:0:0:0:
256,192,221977,1,0,0:0:0:0:
256,192,222058,1,8,0:0:0:0:
256,192,222099,1,8,0:0:0:0:
256,192,222707,1,8,0:0:0:0:
256,192,222788,1,0,0:0:0:0:
256,192,222869,1,8,0:0:0:0:
256,192,222950,1,0,0:0:0:0:
256,192,223031,1,8,0:0:0:0:
256,192,223112,1,8,0:0:0:0:
256,192,223193,1,0,0:0:0:0:
256,192,223274,1,0,0:0:0:0:
256,192,223355,1,12,0:0:0:0:
256,192,223517,1,0,0:0:0:0:
256,192,223599,1,0,0:0:0:0:
256,192,223680,1,8,0:0:0:0:
256,192,223761,1,0,0:0:0:0:
256,192,223842,1,8,0:0:0:0:
256,192,223923,1,8,0:0:0:0:
256,192,224004,1,0,0:0:0:0:
256,192,224085,1,0,0:0:0:0:
256,192,224166,1,8,0:0:0:0:
256,192,224247,1,0,0:0:0:0:
256,192,224328,1,8,0:0:0:0:
256,192,224409,1,8,0:0:0:0:
256,192,224490,1,0,0:0:0:0:
256,192,224572,1,0,0:0:0:0:
256,192,224653,1,0,0:0:0:0:
256,192,224734,1,0,0:0:0:0:
256,192,224815,1,8,0:0:0:0:
256,192,224896,1,0,0:0:0:0:
256,192,224977,1,8,0:0:0:0:
256,192,225058,1,8,0:0:0:0:
256,192,225139,1,0,0:0:0:0:
256,192,225220,1,0,0:0:0:0:
256,192,225301,1,8,0:0:0:0:
256,192,225382,1,8,0:0:0:0:
256,192,225463,1,0,0:0:0:0:
256,192,225545,1,0,0:0:0:0:
256,192,225626,1,8,0:0:0:0:
256,192,225707,1,0,0:0:0:0:
256,192,225788,1,8,0:0:0:0:
256,192,225869,1,0,0:0:0:0:
256,192,225950,1,8,0:0:0:0:
256,192,226031,1,8,0:0:0:0:
256,192,226112,1,8,0:0:0:0:
256,192,226193,1,8,0:0:0:0:
256,192,226274,1,0,0:0:0:0:
256,192,226355,1,0,0:0:0:0:
256,192,226436,1,8,0:0:0:0:
256,192,226517,1,8,0:0:0:0:
256,192,226599,1,8,0:0:0:0:
256,192,226680,1,8,0:0:0:0:
256,192,226761,1,0,0:0:0:0:
256,192,226842,1,0,0:0:0:0:
256,192,226923,1,8,0:0:0:0:
256,192,227004,1,8,0:0:0:0:
256,192,227085,1,0,0:0:0:0:
256,192,227166,1,0,0:0:0:0:
256,192,227247,1,8,0:0:0:0:
256,192,227328,1,8,0:0:0:0:
256,192,227409,1,0,0:0:0:0:
256,192,227490,1,0,0:0:0:0:
256,192,227572,1,8,0:0:0:0:
256,192,227653,1,8,0:0:0:0:
256,192,227734,1,0,0:0:0:0:
256,192,227815,1,0,0:0:0:0:
256,192,227896,1,8,0:0:0:0:
256,192,227977,1,0,0:0:0:0:
256,192,228058,1,8,0:0:0:0:
256,192,228139,1,0,0:0:0:0:
256,192,228220,1,8,0:0:0:0:
256,192,228301,1,8,0:0:0:0:
256,192,228382,1,0,0:0:0:0:
256,192,228463,1,0,0:0:0:0:
256,192,228545,1,12,0:0:0:0:
256,192,228707,1,0,0:0:0:0:
256,192,228788,1,0,0:0:0:0:
256,192,228869,1,8,0:0:0:0:
256,192,228950,1,0,0:0:0:0:
256,192,229031,1,8,0:0:0:0:
256,192,229112,1,8,0:0:0:0:
256,192,229193,1,0,0:0:0:0:
256,192,229274,1,0,0:0:0:0:
256,192,229355,1,8,0:0:0:0:
256,192,229436,1,0,0:0:0:0:
256,192,229517,1,8,0:0:0:0:
256,192,229599,1,8,0:0:0:0:
256,192,229680,1,0,0:0:0:0:
256,192,229761,1,0,0:0:0:0:
256,192,229842,1,8,0:0:0:0:
256,192,229923,1,8,0:0:0:0:
256,192,230004,1,0,0:0:0:0:
256,192,230085,1,0,0:0:0:0:
256,192,230166,1,8,0:0:0:0:
256,192,230247,1,0,0:0:0:0:
256,192,230328,1,8,0:0:0:0:
256,192,230409,1,0,0:0:0:0:
256,192,230490,1,8,0:0:0:0:
256,192,230572,1,8,0:0:0:0:
256,192,230653,1,0,0:0:0:0:
256,192,230734,1,0,0:0:0:0:
256,192,230815,1,8,0:0:0:0:
256,192,230896,1,8,0:0:0:0:
256,192,230977,1,0,0:0:0:0:
256,192,231058,1,0,0:0:0:0:
256,192,231139,1,8,0:0:0:0:
256,192,231220,1,8,0:0:0:0:
256,192,231301,1,8,0:0:0:0:
256,192,231382,1,8,0:0:0:0:
256,192,231463,1,0,0:0:0:0:
256,192,231545,1,0,0:0:0:0:
256,192,231626,1,8,0:0:0:0:
256,192,231707,1,8,0:0:0:0:
256,192,231788,1,8,0:0:0:0:
256,192,231869,1,8,0:0:0:0:
256,192,231950,1,0,0:0:0:0:
256,192,232031,1,0,0:0:0:0:
256,192,232112,1,8,0:0:0:0:
256,192,232193,1,8,0:0:0:0:
256,192,232274,1,0,0:0:0:0:
256,192,232355,1,0,0:0:0:0:
256,192,232436,1,8,0:0:0:0:
256,192,232517,1,0,0:0:0:0:
256,192,232599,1,8,0:0:0:0:
256,192,232680,1,0,0:0:0:0:
256,192,232761,1,8,0:0:0:0:
256,192,232842,1,8,0:0:0:0:
256,192,232923,1,8,0:0:0:0:
256,192,233004,1,0,0:0:0:0:
256,192,233085,1,8,0:0:0:0:
256,192,233166,1,0,0:0:0:0:
256,192,233247,1,8,0:0:0:0:
256,192,233328,1,0,0:0:0:0:
256,192,233409,1,8,0:0:0:0:
256,192,233490,1,8,0:0:0:0:
256,192,233572,1,0,0:0:0:0:
256,192,233653,1,0,0:0:0:0:
256,192,233734,1,12,0:0:0:0:
256,192,233896,1,0,0:0:0:0:
256,192,233977,1,0,0:0:0:0:
256,192,234058,1,8,0:0:0:0:
256,192,234139,1,0,0:0:0:0:
256,192,234220,1,8,0:0:0:0:
256,192,234301,1,8,0:0:0:0:
256,192,234382,1,0,0:0:0:0:
256,192,234463,1,0,0:0:0:0:
256,192,234545,1,8,0:0:0:0:
256,192,234626,1,0,0:0:0:0:
256,192,234707,1,8,0:0:0:0:
256,192,234788,1,8,0:0:0:0:
256,192,234869,1,0,0:0:0:0:
256,192,234950,1,0,0:0:0:0:
256,192,235031,1,8,0:0:0:0:
256,192,235112,1,8,0:0:0:0:
256,192,235193,1,8,0:0:0:0:
256,192,235274,1,0,0:0:0:0:
256,192,235355,1,8,0:0:0:0:
256,192,235436,1,8,0:0:0:0:
256,192,235517,1,0,0:0:0:0:
256,192,235599,1,0,0:0:0:0:
256,192,235680,1,8,0:0:0:0:
256,192,235761,1,0,0:0:0:0:
256,192,235842,1,8,0:0:0:0:
256,192,235923,1,0,0:0:0:0:
256,192,236004,1,8,0:0:0:0:
256,192,236085,1,8,0:0:0:0:
256,192,236166,1,0,0:0:0:0:
256,192,236247,1,0,0:0:0:0:
256,192,236328,1,12,0:0:0:0:
256,192,236490,1,0,0:0:0:0:
256,192,236572,1,0,0:0:0:0:
256,192,236653,1,8,0:0:0:0:
256,192,236734,1,0,0:0:0:0:
256,192,236815,1,8,0:0:0:0:
256,192,236896,1,8,0:0:0:0:
256,192,236977,1,0,0:0:0:0:
256,192,237058,1,0,0:0:0:0:
256,192,237139,1,8,0:0:0:0:
256,192,237220,1,0,0:0:0:0:
256,192,237301,1,8,0:0:0:0:
256,192,237382,1,8,0:0:0:0:
256,192,237463,1,0,0:0:0:0:
256,192,237545,1,0,0:0:0:0:
256,192,237626,1,8,0:0:0:0:
256,192,237707,1,8,0:0:0:0:
256,192,237788,1,0,0:0:0:0:
256,192,237869,1,0,0:0:0:0:
256,192,237950,1,8,0:0:0:0:
256,192,238031,1,8,0:0:0:0:
256,192,238112,1,0,0:0:0:0:
256,192,238193,1,0,0:0:0:0:
256,192,238274,1,8,0:0:0:0:
256,192,238355,1,0,0:0:0:0:
256,192,238436,1,8,0:0:0:0:
256,192,238517,1,8,0:0:0:0:
256,192,238599,1,0,0:0:0:0:
256,192,238680,1,0,0:0:0:0:
256,192,238761,1,0,0:0:0:0:
256,192,238842,1,0,0:0:0:0:
256,192,238923,1,12,0:0:0:0:
256,192,239085,1,0,0:0:0:0:
256,192,239166,1,0,0:0:0:0:
256,192,239247,1,8,0:0:0:0:
256,192,239328,1,8,0:0:0:0:
256,192,239409,1,0,0:0:0:0:
256,192,239490,1,0,0:0:0:0:
256,192,239572,1,8,0:0:0:0:
256,192,239653,1,0,0:0:0:0:
256,192,239734,1,8,0:0:0:0:
256,192,239815,1,0,0:0:0:0:
256,192,239896,1,8,0:0:0:0:
256,192,239977,1,8,0:0:0:0:
256,192,240058,1,0,0:0:0:0:
256,192,240139,1,0,0:0:0:0:
256,192,240220,1,8,0:0:0:0:
256,192,240301,1,0,0:0:0:0:
256,192,240382,1,0,0:0:0:0:
256,192,240463,1,0,0:0:0:0:
256,192,240545,1,8,0:0:0:0:
256,192,240626,1,8,0:0:0:0:
256,192,240707,1,0,0:0:0:0:
256,192,240788,1,0,0:0:0:0:
256,192,240869,1,8,0:0:0:0:
256,192,240950,1,0,0:0:0:0:
256,192,241031,1,8,0:0:0:0:
256,192,241112,1,0,0:0:0:0:
256,192,241193,1,8,0:0:0:0:
256,192,241274,1,8,0:0:0:0:
256,192,241355,1,0,0:0:0:0:
256,192,241436,1,0,0:0:0:0:
256,192,241517,1,8,0:0:0:0:
256,192,241599,1,8,0:0:0:0:
256,192,241680,1,0,0:0:0:0:
256,192,241761,1,8,0:0:0:0:
256,192,241842,1,0,0:0:0:0:
256,192,241923,1,0,0:0:0:0:
256,192,242004,1,8,0:0:0:0:
256,192,242085,1,0,0:0:0:0:
256,192,242166,1,8,0:0:0:0:
256,192,242247,1,8,0:0:0:0:
256,192,242328,1,0,0:0:0:0:
256,192,242409,1,8,0:0:0:0:
256,192,242490,1,0,0:0:0:0:
256,192,242572,1,0,0:0:0:0:
256,192,242653,1,8,0:0:0:0:
256,192,242734,1,0,0:0:0:0:
256,192,242815,1,8,0:0:0:0:
256,192,242896,1,8,0:0:0:0:
256,192,242977,1,0,0:0:0:0:
256,192,243058,1,8,0:0:0:0:
256,192,243139,1,0,0:0:0:0:
256,192,243220,1,0,0:0:0:0:
256,192,243301,1,8,0:0:0:0:
256,192,243382,1,0,0:0:0:0:
256,192,243463,1,8,0:0:0:0:
256,192,243626,1,0,0:0:0:0:
256,192,243707,1,0,0:0:0:0:
256,192,243788,1,0,0:0:0:0:
256,192,243869,1,0,0:0:0:0:
256,192,243950,1,0,0:0:0:0:
256,192,244031,1,0,0:0:0:0:
256,192,244112,1,12,0:0:0:0:
256,192,244274,1,0,0:0:0:0:
256,192,244355,1,0,0:0:0:0:
256,192,244436,1,8,0:0:0:0:
256,192,244517,1,0,0:0:0:0:
256,192,244599,1,8,0:0:0:0:
256,192,244680,1,8,0:0:0:0:
256,192,244761,1,0,0:0:0:0:
256,192,244842,1,0,0:0:0:0:
256,192,244923,1,8,0:0:0:0:
256,192,245004,1,0,0:0:0:0:
256,192,245085,1,8,0:0:0:0:
256,192,245166,1,8,0:0:0:0:
256,192,245247,1,0,0:0:0:0:
256,192,245328,1,0,0:0:0:0:
256,192,245409,1,0,0:0:0:0:
256,192,245490,1,0,0:0:0:0:
256,192,245572,1,8,0:0:0:0:
256,192,245653,1,0,0:0:0:0:
256,192,245734,1,8,0:0:0:0:
256,192,245815,1,8,0:0:0:0:
256,192,245896,1,0,0:0:0:0:
256,192,245977,1,0,0:0:0:0:
256,192,246058,1,8,0:0:0:0:
256,192,246139,1,8,0:0:0:0:
256,192,246220,1,0,0:0:0:0:
256,192,246301,1,0,0:0:0:0:
256,192,246382,1,8,0:0:0:0:
256,192,246463,1,0,0:0:0:0:
256,192,246545,1,8,0:0:0:0:
256,192,246626,1,0,0:0:0:0:
256,192,246707,1,8,0:0:0:0:
256,192,246788,1,8,0:0:0:0:
256,192,246869,1,8,0:0:0:0:
256,192,246950,1,8,0:0:0:0:
256,192,247031,1,0,0:0:0:0:
256,192,247112,1,0,0:0:0:0:
256,192,247193,1,8,0:0:0:0:
256,192,247274,1,8,0:0:0:0:
256,192,247355,1,8,0:0:0:0:
256,192,247436,1,8,0:0:0:0:
256,192,247517,1,0,0:0:0:0:
256,192,247599,1,0,0:0:0:0:
256,192,247680,1,8,0:0:0:0:
256,192,247761,1,8,0:0:0:0:
256,192,247842,1,0,0:0:0:0:
256,192,247923,1,0,0:0:0:0:
256,192,248004,1,8,0:0:0:0:
256,192,248085,1,8,0:0:0:0:
256,192,248166,1,0,0:0:0:0:
256,192,248247,1,0,0:0:0:0:
256,192,248328,1,8,0:0:0:0:
256,192,248409,1,8,0:0:0:0:
256,192,248490,1,0,0:0:0:0:
256,192,248572,1,0,0:0:0:0:
256,192,248653,1,8,0:0:0:0:
256,192,248734,1,0,0:0:0:0:
256,192,248815,1,8,0:0:0:0:
256,192,248896,1,0,0:0:0:0:
256,192,248977,1,8,0:0:0:0:
256,192,249058,1,8,0:0:0:0:
256,192,249139,1,0,0:0:0:0:
256,192,249220,1,0,0:0:0:0:
256,192,249301,1,12,0:0:0:0:
256,192,249463,1,0,0:0:0:0:
256,192,249545,1,0,0:0:0:0:
256,192,249626,1,8,0:0:0:0:
256,192,249707,1,0,0:0:0:0:
256,192,249788,1,8,0:0:0:0:
256,192,249869,1,8,0:0:0:0:
256,192,249950,1,0,0:0:0:0:
256,192,250031,1,0,0:0:0:0:
256,192,250112,1,8,0:0:0:0:
256,192,250193,1,0,0:0:0:0:
256,192,250274,1,8,0:0:0:0:
256,192,250355,1,8,0:0:0:0:
256,192,250436,1,0,0:0:0:0:
256,192,250517,1,0,0:0:0:0:
256,192,250599,1,8,0:0:0:0:
256,192,250680,1,8,0:0:0:0:
256,192,250761,1,0,0:0:0:0:
256,192,250842,1,0,0:0:0:0:
256,192,250923,1,8,0:0:0:0:
256,192,251004,1,0,0:0:0:0:
256,192,251085,1,8,0:0:0:0:
256,192,251166,1,0,0:0:0:0:
256,192,251247,1,8,0:0:0:0:
256,192,251328,1,8,0:0:0:0:
256,192,251409,1,0,0:0:0:0:
256,192,251490,1,0,0:0:0:0:
256,192,251572,1,8,0:0:0:0:
256,192,251653,1,8,0:0:0:0:
256,192,251734,1,0,0:0:0:0:
256,192,251815,1,0,0:0:0:0:
256,192,251896,1,8,0:0:0:0:
256,192,251977,1,8,0:0:0:0:
256,192,252058,1,8,0:0:0:0:
256,192,252139,1,8,0:0:0:0:
256,192,252220,1,0,0:0:0:0:
256,192,252301,1,0,0:0:0:0:
256,192,252382,1,8,0:0:0:0:
256,192,252463,1,8,0:0:0:0:
256,192,252545,1,8,0:0:0:0:
256,192,252626,1,8,0:0:0:0:
256,192,252707,1,0,0:0:0:0:
256,192,252788,1,0,0:0:0:0:
256,192,252869,1,8,0:0:0:0:
256,192,252950,1,8,0:0:0:0:
256,192,253031,1,0,0:0:0:0:
256,192,253112,1,0,0:0:0:0:
256,192,253193,1,8,0:0:0:0:
256,192,253274,1,0,0:0:0:0:
256,192,253355,1,8,0:0:0:0:
256,192,253436,1,0,0:0:0:0:
256,192,253517,1,8,0:0:0:0:
256,192,253599,1,8,0:0:0:0:
256,192,253680,1,8,0:0:0:0:
256,192,253761,1,0,0:0:0:0:
256,192,253842,1,8,0:0:0:0:
256,192,253923,1,0,0:0:0:0:
256,192,254004,1,8,0:0:0:0:
256,192,254085,1,0,0:0:0:0:
256,192,254166,1,8,0:0:0:0:
256,192,254247,1,8,0:0:0:0:
256,192,254328,1,0,0:0:0:0:
256,192,254409,1,0,0:0:0:0:
256,192,254490,1,12,0:0:0:0:
256,192,254653,1,0,0:0:0:0:
256,192,254734,1,0,0:0:0:0:
256,192,254815,1,8,0:0:0:0:
256,192,254896,1,0,0:0:0:0:
256,192,254977,1,8,0:0:0:0:
256,192,255058,1,8,0:0:0:0:
256,192,255139,1,0,0:0:0:0:
256,192,255220,1,0,0:0:0:0:
256,192,255301,1,8,0:0:0:0:
256,192,255382,1,0,0:0:0:0:
256,192,255463,1,8,0:0:0:0:
256,192,255545,1,8,0:0:0:0:
256,192,255626,1,0,0:0:0:0:
256,192,255707,1,0,0:0:0:0:
256,192,255788,1,8,0:0:0:0:
256,192,255869,1,8,0:0:0:0:
256,192,255950,1,8,0:0:0:0:
256,192,256031,1,0,0:0:0:0:
256,192,256112,1,8,0:0:0:0:
256,192,256193,1,8,0:0:0:0:
256,192,256274,1,0,0:0:0:0:
256,192,256355,1,0,0:0:0:0:
256,192,256436,1,8,0:0:0:0:
256,192,256517,1,0,0:0:0:0:
256,192,256599,1,8,0:0:0:0:
256,192,256680,1,0,0:0:0:0:
256,192,256761,1,8,0:0:0:0:
256,192,256842,1,8,0:0:0:0:
256,192,256923,1,0,0:0:0:0:
256,192,257004,1,0,0:0:0:0:
256,192,257085,1,12,0:0:0:0:
256,192,257247,1,0,0:0:0:0:
256,192,257328,1,0,0:0:0:0:
256,192,257409,1,8,0:0:0:0:
256,192,257490,1,0,0:0:0:0:
256,192,257572,1,8,0:0:0:0:
256,192,257653,1,8,0:0:0:0:
256,192,257734,1,0,0:0:0:0:
256,192,257815,1,0,0:0:0:0:
256,192,257896,1,8,0:0:0:0:
256,192,257977,1,0,0:0:0:0:
256,192,258058,1,8,0:0:0:0:
256,192,258139,1,8,0:0:0:0:
256,192,258220,1,0,0:0:0:0:
256,192,258301,1,0,0:0:0:0:
256,192,258382,1,8,0:0:0:0:
256,192,258463,1,8,0:0:0:0:
256,192,258545,1,0,0:0:0:0:
256,192,258626,1,0,0:0:0:0:
256,192,258707,1,8,0:0:0:0:
256,192,258788,1,8,0:0:0:0:
256,192,258869,1,0,0:0:0:0:
256,192,258950,1,0,0:0:0:0:
256,192,259031,1,8,0:0:0:0:
256,192,259112,1,0,0:0:0:0:
256,192,259193,1,8,0:0:0:0:
256,192,259274,1,8,0:0:0:0:
256,192,259355,1,0,0:0:0:0:
256,192,259436,1,0,0:0:0:0:
256,192,259517,1,0,0:0:0:0:
256,192,259599,1,0,0:0:0:0:
256,192,259680,1,12,0:0:0:0:
256,192,259842,1,0,0:0:0:0:
256,192,259923,1,0,0:0:0:0:
256,192,260004,1,8,0:0:0:0:
256,192,260085,1,8,0:0:0:0:
256,192,260166,1,0,0:0:0:0:
256,192,260247,1,0,0:0:0:0:
256,192,260328,1,8,0:0:0:0:
256,192,260409,1,0,0:0:0:0:
256,192,260490,1,8,0:0:0:0:
256,192,260572,1,8,0:0:0:0:
256,192,260653,1,0,0:0:0:0:
256,192,260734,1,0,0:0:0:0:
256,192,260815,1,8,0:0:0:0:
256,192,260896,1,0,0:0:0:0:
256,192,260977,1,8,0:0:0:0:
256,192,261058,1,8,0:0:0:0:
256,192,261139,1,0,0:0:0:0:
256,192,261220,1,0,0:0:0:0:
256,192,261301,1,8,0:0:0:0:
256,192,261382,1,8,0:0:0:0:
256,192,261463,1,0,0:0:0:0:
256,192,261545,1,0,0:0:0:0:
256,192,261626,1,8,0:0:0:0:
256,192,261707,1,0,0:0:0:0:
256,192,261788,1,8,0:0:0:0:
256,192,261869,1,8,0:0:0:0:
256,192,261950,1,0,0:0:0:0:
256,192,262031,1,0,0:0:0:0:
256,192,262112,1,8,0:0:0:0:
256,192,262193,1,0,0:0:0:0:
256,192,262274,1,8,0:0:0:0:
256,192,262355,1,8,0:0:0:0:
256,192,262436,1,0,0:0:0:0:
256,192,262517,1,0,0:0:0:0:
256,192,262599,1,8,0:0:0:0:
256,192,262680,1,8,0:0:0:0:
256,192,262761,1,0,0:0:0:0:
256,192,262842,1,0,0:0:0:0:
256,192,262923,1,8,0:0:0:0:
256,192,263004,1,0,0:0:0:0:
256,192,263085,1,8,0:0:0:0:
256,192,263166,1,8,0:0:0:0:
256,192,263247,1,0,0:0:0:0:
256,192,263328,1,0,0:0:0:0:
256,192,263409,1,8,0:0:0:0:
256,192,263490,1,0,0:0:0:0:
256,192,263572,1,8,0:0:0:0:
256,192,263653,1,8,0:0:0:0:
256,192,263734,1,0,0:0:0:0:
256,192,263815,1,0,0:0:0:0:
256,192,263896,1,8,0:0:0:0:
256,192,263977,1,8,0:0:0:0:
256,192,264058,1,0,0:0:0:0:
256,192,264139,1,0,0:0:0:0:
256,192,264220,1,8,0:0:0:0:
256,192,264301,1,8,0:0:0:0:
256,192,264382,1,8,0:0:0:0:
256,192,264463,1,0,0:0:0:0:
256,192,264545,1,8,0:0:0:0:
256,192,264626,1,8,0:0:0:0:
256,192,264707,1,0,0:0:0:0:
256,192,264788,1,0,0:0:0:0:
256,192,264869,1,12,0:0:0:0:
256,192,265031,1,0,0:0:0:0:
256,192,265112,1,0,0:0:0:0:
256,192,265193,1,8,0:0:0:0:
256,192,265274,1,8,0:0:0:0:
256,192,265355,1,0,0:0:0:0:
256,192,265436,1,8,0:0:0:0:
256,192,265517,1,0,0:0:0:0:
256,192,265599,1,0,0:0:0:0:
256,192,265680,1,8,0:0:0:0:
256,192,265761,1,0,0:0:0:0:
256,192,265842,1,8,0:0:0:0:
256,192,265923,1,8,0:0:0:0:
256,192,266004,1,0,0:0:0:0:
256,192,266085,1,0,0:0:0:0:
256,192,266166,1,8,0:0:0:0:
256,192,266247,1,8,0:0:0:0:
256,192,266328,1,0,0:0:0:0:
256,192,266409,1,0,0:0:0:0:
256,192,266490,1,8,0:0:0:0:
256,192,266572,1,8,0:0:0:0:
256,192,266653,1,0,0:0:0:0:
256,192,266734,1,8,0:0:0:0:
256,192,266815,1,0,0:0:0:0:
256,192,266896,1,0,0:0:0:0:
256,192,266977,1,8,0:0:0:0:
256,192,267058,1,0,0:0:0:0:
256,192,267139,1,8,0:0:0:0:
256,192,267220,1,8,0:0:0:0:
256,192,267301,1,0,0:0:0:0:
256,192,267382,1,0,0:0:0:0:
256,192,267463,1,12,0:0:0:0:
256,192,267626,1,8,0:0:0:0:
256,192,267707,1,0,0:0:0:0:
256,192,267788,1,8,0:0:0:0:
256,192,267869,1,8,0:0:0:0:
256,192,267950,1,0,0:0:0:0:
256,192,268031,1,8,0:0:0:0:
256,192,268112,1,8,0:0:0:0:
256,192,268193,1,0,0:0:0:0:
256,192,268274,1,8,0:0:0:0:
256,192,268355,1,0,0:0:0:0:
256,192,268436,1,8,0:0:0:0:
256,192,268517,1,8,0:0:0:0:
256,192,268599,1,0,0:0:0:0:
256,192,268680,1,0,0:0:0:0:
256,192,268761,1,8,0:0:0:0:
256,192,268842,1,0,0:0:0:0:
256,192,268923,1,8,0:0:0:0:
256,192,269004,1,0,0:0:0:0:
256,192,269085,1,8,0:0:0:0:
256,192,269166,1,8,0:0:0:0:
256,192,269247,1,8,0:0:0:0:
256,192,269328,1,0,0:0:0:0:
256,192,269409,1,8,0:0:0:0:
256,192,269490,1,8,0:0:0:0:
256,192,269572,1,0,0:0:0:0:
256,192,269626,1,0,0:0:0:0:
256,192,269680,1,0,0:0:0:0:
256,192,269734,1,8,0:0:0:0:
256,192,269896,1,0,0:0:0:0:
256,192,269977,1,0,0:0:0:0:
256,192,270058,1,12,0:0:0:0:
256,192,270220,1,0,0:0:0:0:
256,192,270301,1,0,0:0:0:0:
256,192,270382,1,8,0:0:0:0:
256,192,270463,1,0,0:0:0:0:
256,192,270545,1,8,0:0:0:0:
256,192,270626,1,8,0:0:0:0:
256,192,270707,1,0,0:0:0:0:
256,192,270788,1,0,0:0:0:0:
256,192,270869,1,8,0:0:0:0:
256,192,270950,1,0,0:0:0:0:
256,192,271031,1,8,0:0:0:0:
256,192,271112,1,8,0:0:0:0:
256,192,271193,1,0,0:0:0:0:
256,192,271274,1,0,0:0:0:0:
256,192,271355,1,8,0:0:0:0:
256,192,271436,1,8,0:0:0:0:
256,192,271517,1,0,0:0:0:0:
256,192,271599,1,0,0:0:0:0:
256,192,271680,1,8,0:0:0:0:
256,192,271761,1,0,0:0:0:0:
256,192,271842,1,8,0:0:0:0:
256,192,271923,1,8,0:0:0:0:
256,192,272004,1,0,0:0:0:0:
256,192,272085,1,0,0:0:0:0:
256,192,272166,1,8,0:0:0:0:
256,192,272247,1,8,0:0:0:0:
256,192,272328,1,8,0:0:0:0:
256,192,272409,1,8,0:0:0:0:
256,192,272490,1,0,0:0:0:0:
256,192,272572,1,0,0:0:0:0:
256,192,272653,1,8,0:0:0:0:
256,192,272734,1,8,0:0:0:0:
256,192,272815,1,0,0:0:0:0:
256,192,272896,1,0,0:0:0:0:
256,192,272977,1,8,0:0:0:0:
256,192,273058,1,0,0:0:0:0:
256,192,273139,1,8,0:0:0:0:
256,192,273220,1,8,0:0:0:0:
256,192,273301,1,0,0:0:0:0:
256,192,273382,1,0,0:0:0:0:
256,192,273463,1,8,0:0:0:0:
256,192,273545,1,0,0:0:0:0:
256,192,273626,1,8,0:0:0:0:
256,192,273707,1,8,0:0:0:0:
256,192,273788,1,0,0:0:0:0:
256,192,273869,1,0,0:0:0:0:
256,192,273950,1,8,0:0:0:0:
256,192,274031,1,8,0:0:0:0:
256,192,274112,1,0,0:0:0:0:
256,192,274193,1,0,0:0:0:0:
256,192,274274,1,8,0:0:0:0:
256,192,274355,1,0,0:0:0:0:
256,192,274436,1,8,0:0:0:0:
256,192,274517,1,8,0:0:0:0:
256,192,274599,1,0,0:0:0:0:
256,192,274680,1,0,0:0:0:0:
256,192,274761,1,8,0:0:0:0:
256,192,274842,1,0,0:0:0:0:
256,192,274923,1,8,0:0:0:0:
256,192,275004,1,8,0:0:0:0:
256,192,275085,1,8,0:0:0:0:
256,192,275166,1,0,0:0:0:0:
256,192,275247,1,8,0:0:0:0:
256,192,275328,1,8,0:0:0:0:
256,192,275409,1,0,0:0:0:0:
256,192,275490,1,0,0:0:0:0:
256,192,275572,1,8,0:0:0:0:
256,192,275653,1,0,0:0:0:0:
256,192,275734,1,8,0:0:0:0:
256,192,275815,1,8,0:0:0:0:
256,192,275896,1,0,0:0:0:0:
256,192,275977,1,0,0:0:0:0:
256,192,276058,1,8,0:0:0:0:
256,192,276139,1,0,0:0:0:0:
256,192,276220,1,8,0:0:0:0:
256,192,276301,1,8,0:0:0:0:
256,192,276382,1,0,0:0:0:0:
256,192,276463,1,0,0:0:0:0:
256,192,276545,1,8,0:0:0:0:
256,192,276626,1,8,0:0:0:0:
256,192,276707,1,0,0:0:0:0:
256,192,276788,1,0,0:0:0:0:
256,192,276869,1,8,0:0:0:0:
256,192,276950,1,0,0:0:0:0:
256,192,277031,1,8,0:0:0:0:
256,192,277112,1,8,0:0:0:0:
256,192,277193,1,0,0:0:0:0:
256,192,277274,1,0,0:0:0:0:
256,192,277355,1,8,0:0:0:0:
256,192,277436,1,0,0:0:0:0:
256,192,277517,1,8,0:0:0:0:
256,192,277599,1,8,0:0:0:0:
256,192,277680,1,0,0:0:0:0:
256,192,277761,1,0,0:0:0:0:
256,192,277842,1,8,0:0:0:0:
256,192,277923,1,8,0:0:0:0:
256,192,278004,1,8,0:0:0:0:
256,192,278085,1,0,0:0:0:0:
256,192,278166,1,8,0:0:0:0:
256,192,278247,1,8,0:0:0:0:
256,192,278328,1,0,0:0:0:0:
256,192,278409,1,0,0:0:0:0:
256,192,278490,1,8,0:0:0:0:
256,192,278572,1,8,0:0:0:0:
256,192,278653,1,8,0:0:0:0:
256,192,278734,1,0,0:0:0:0:
256,192,278815,1,8,0:0:0:0:
256,192,278896,1,8,0:0:0:0:
256,192,278977,1,0,0:0:0:0:
256,192,279058,1,0,0:0:0:0:
256,192,279139,1,8,0:0:0:0:
256,192,279220,1,8,0:0:0:0:
256,192,279301,1,0,0:0:0:0:
256,192,279382,1,0,0:0:0:0:
256,192,279463,1,8,0:0:0:0:
256,192,279545,1,0,0:0:0:0:
256,192,279626,1,8,0:0:0:0:
256,192,279707,1,8,0:0:0:0:
256,192,279788,1,0,0:0:0:0:
256,192,279869,1,0,0:0:0:0:
256,192,279950,1,8,0:0:0:0:
256,192,280031,1,0,0:0:0:0:
256,192,280112,1,8,0:0:0:0:
256,192,280193,1,8,0:0:0:0:
256,192,280274,1,0,0:0:0:0:
256,192,280355,1,0,0:0:0:0:
256,192,280436,1,12,0:0:0:0:
256,192,280599,1,0,0:0:0:0:
256,192,280680,1,0,0:0:0:0:
256,192,280761,1,8,0:0:0:0:
256,192,280842,1,0,0:0:0:0:
256,192,280923,1,8,0:0:0:0:
256,192,281004,1,8,0:0:0:0:
256,192,281085,1,0,0:0:0:0:
256,192,281166,1,0,0:0:0:0:
256,192,281247,1,8,0:0:0:0:
256,192,281328,1,0,0:0:0:0:
256,192,281409,1,8,0:0:0:0:
256,192,281490,1,8,0:0:0:0:
256,192,281572,1,0,0:0:0:0:
256,192,281653,1,0,0:0:0:0:
256,192,281734,1,8,0:0:0:0:
256,192,281815,1,8,0:0:0:0:
256,192,281896,1,0,0:0:0:0:
256,192,281977,1,0,0:0:0:0:
256,192,282058,1,8,0:0:0:0:
256,192,282139,1,0,0:0:0:0:
256,192,282220,1,8,0:0:0:0:
256,192,282301,1,8,0:0:0:0:
256,192,282382,1,0,0:0:0:0:
256,192,282463,1,0,0:0:0:0:
256,192,282545,1,8,0:0:0:0:
256,192,282626,1,8,0:0:0:0:
256,192,282707,1,8,0:0:0:0:
256,192,282788,1,8,0:0:0:0:
256,192,282869,1,0,0:0:0:0:
256,192,282950,1,0,0:0:0:0:
256,192,283031,1,8,0:0:0:0:
256,192,283112,1,8,0:0:0:0:
256,192,283193,1,0,0:0:0:0:
256,192,283274,1,0,0:0:0:0:
256,192,283355,1,8,0:0:0:0:
256,192,283436,1,0,0:0:0:0:
256,192,283517,1,8,0:0:0:0:
256,192,283599,1,8,0:0:0:0:
256,192,283680,1,0,0:0:0:0:
256,192,283761,1,0,0:0:0:0:
256,192,283842,1,8,0:0:0:0:
256,192,283923,1,0,0:0:0:0:
256,192,284004,1,8,0:0:0:0:
256,192,284085,1,8,0:0:0:0:
256,192,284166,1,0,0:0:0:0:
256,192,284247,1,0,0:0:0:0:
256,192,284328,1,8,0:0:0:0:
256,192,284409,1,8,0:0:0:0:
256,192,284490,1,0,0:0:0:0:
256,192,284572,1,0,0:0:0:0:
256,192,284653,1,8,0:0:0:0:
256,192,284734,1,0,0:0:0:0:
256,192,284815,1,8,0:0:0:0:
256,192,284896,1,8,0:0:0:0:
256,192,284977,1,0,0:0:0:0:
256,192,285058,1,0,0:0:0:0:
256,192,285139,1,8,0:0:0:0:
256,192,285220,1,0,0:0:0:0:
256,192,285301,1,8,0:0:0:0:
256,192,285382,1,8,0:0:0:0:
256,192,285463,1,8,0:0:0:0:
256,192,285545,1,0,0:0:0:0:
256,192,285626,1,8,0:0:0:0:
256,192,285707,1,8,0:0:0:0:
256,192,285788,1,0,0:0:0:0:
256,192,285869,1,0,0:0:0:0:
256,192,285950,1,8,0:0:0:0:
256,192,286031,1,0,0:0:0:0:
256,192,286112,1,8,0:0:0:0:
256,192,286193,1,8,0:0:0:0:
256,192,286274,1,0,0:0:0:0:
256,192,286355,1,0,0:0:0:0:
256,192,286436,1,8,0:0:0:0:
256,192,286517,1,0,0:0:0:0:
256,192,286599,1,8,0:0:0:0:
256,192,286680,1,8,0:0:0:0:
256,192,286761,1,0,0:0:0:0:
256,192,286842,1,0,0:0:0:0:
256,192,286923,1,8,0:0:0:0:
256,192,287004,1,8,0:0:0:0:
256,192,287085,1,0,0:0:0:0:
256,192,287166,1,0,0:0:0:0:
256,192,287247,1,8,0:0:0:0:
256,192,287328,1,0,0:0:0:0:
256,192,287409,1,8,0:0:0:0:
256,192,287490,1,8,0:0:0:0:
256,192,287572,1,0,0:0:0:0:
256,192,287653,1,0,0:0:0:0:
256,192,287734,1,8,0:0:0:0:
256,192,287815,1,0,0:0:0:0:
256,192,287896,1,8,0:0:0:0:
256,192,287977,1,8,0:0:0:0:
256,192,288058,1,0,0:0:0:0:
256,192,288139,1,0,0:0:0:0:
256,192,288220,1,8,0:0:0:0:
256,192,288301,1,8,0:0:0:0:
256,192,288382,1,8,0:0:0:0:
256,192,288463,1,0,0:0:0:0:
256,192,288545,1,8,0:0:0:0:
256,192,288626,1,8,0:0:0:0:
256,192,288707,1,0,0:0:0:0:
256,192,288788,1,0,0:0:0:0:
256,192,288869,1,8,0:0:0:0:
256,192,288950,1,8,0:0:0:0:
256,192,289031,1,8,0:0:0:0:
256,192,289112,1,0,0:0:0:0:
256,192,289193,1,8,0:0:0:0:
256,192,289274,1,8,0:0:0:0:
256,192,289355,1,0,0:0:0:0:
256,192,289436,1,0,0:0:0:0:
256,192,289517,1,8,0:0:0:0:
256,192,289599,1,8,0:0:0:0:
256,192,289680,1,0,0:0:0:0:
256,192,289761,1,0,0:0:0:0:
256,192,289842,1,8,0:0:0:0:
256,192,289923,1,0,0:0:0:0:
256,192,290004,1,8,0:0:0:0:
256,192,290085,1,8,0:0:0:0:
256,192,290166,1,0,0:0:0:0:
256,192,290247,1,0,0:0:0:0:
256,192,290328,1,8,0:0:0:0:
256,192,290409,1,0,0:0:0:0:
256,192,290490,1,8,0:0:0:0:
256,192,290572,1,8,0:0:0:0:
256,192,290653,1,8,0:0:0:0:
256,192,290734,1,8,0:0:0:0:
256,192,290815,1,4,0:0:0:0:
256,192,290977,12,0,300707,0:0:0:0:
256,192,300869,12,0,302490,0:0:0:0:
