osu file format v14

[General]
AudioFilename: audio.mp3
AudioLeadIn: 0
PreviewTime: -1
Countdown: 1
SampleSet: Normal
StackLeniency: 0.4
Mode: 0
LetterboxInBreaks: 0
WidescreenStoryboard: 0

[Editor]
Bookmarks: 247139
DistanceSpacing: 1.3
BeatDivisor: 4
GridSize: 4
TimelineZoom: 3.099999

[Metadata]
Title:DESIRE
TitleUnicode:DESIRE
Artist:GYZE
ArtistUnicode:GYZE
Creator:Peptidasen
Version:FRUSTRATION
Source:
Tags:
BeatmapID:1764554
BeatmapSetID:843394

[Difficulty]
HPDrainRate:6
CircleSize:4
OverallDifficulty:9
ApproachRate:9.4
SliderMultiplier:2
SliderTickRate:1

[Events]
//Background and Video events
0,0,"26782356_800_800.jpg",0,0
//Break Periods
//Storyboard Layer 0 (Background)
//Storyboard Layer 1 (Fail)
//Storyboard Layer 2 (Pass)
//Storyboard Layer 3 (Foreground)
//Storyboard Sound Samples

[TimingPoints]
746,327.868852459016,4,1,0,57,1,0
1073,-133.333333333333,4,1,0,57,0,0
3185,-66.6666666666667,4,1,0,57,0,0
3517,-133.333333333333,4,1,0,57,0,0
5971,-66.6666666666667,4,1,0,57,0,0
6299,-133.333333333333,4,1,0,57,0,0
8591,-66.6666666666667,4,1,0,57,0,0
8922,-100,4,1,0,57,0,0
11401,327.868852459016,4,1,0,57,1,0
20562,-166.666666666667,4,1,0,57,0,0
21873,-133.333333333333,4,1,0,57,0,1
29742,-100,4,1,0,57,0,1
31729,-250,4,1,0,57,0,1
32385,-100,4,1,0,57,0,0
37611,-100,4,1,0,57,0,0
38430,-166.666666666667,4,1,0,57,0,0
39906,-100,4,1,0,57,0,0
41052,-166.666666666667,4,1,0,57,0,0
42529,-100,4,1,0,57,0,0
43676,-166.666666666667,4,1,0,57,0,0
45152,-100,4,1,0,57,0,0
46299,-166.666666666667,4,1,0,57,0,0
48103,-100,4,1,0,57,0,0
48922,-166.666666666667,4,1,0,57,0,0
50398,-100,4,1,0,57,0,0
50889,-166.666666666667,4,1,0,57,0,0
53021,-100,4,1,0,57,0,0
53512,-166.666666666667,4,1,0,57,0,0
55644,-100,4,1,0,57,0,0
56053,-166.666666666667,4,1,0,57,0,0
58594,-121.951219512195,4,1,0,57,0,1
66791,-90.9090909090909,4,1,0,57,0,1
69086,-121.951219512195,4,1,0,57,0,1
78267,-81.3008130081301,4,1,0,57,0,1
79578,-100,4,1,0,57,0,0
95326,-100,4,1,0,57,0,0
99260,-83.3333333333333,4,1,0,57,0,0
99916,-125,4,1,0,57,0,0
100572,-100,4,1,0,57,0,0
145162,-200,4,1,0,57,0,0
147785,-100,4,1,0,57,0,0
167457,-66.6666666666667,4,1,0,57,0,1
168768,-100,4,1,0,57,0,1
178604,-117.647058823529,4,1,0,57,0,1
179260,-100,4,1,0,57,0,1
183850,-66.6666666666667,4,1,0,57,0,1
184506,-100,4,1,0,57,0,1
185818,-111.111111111111,4,1,0,57,0,1
186473,-125,4,1,0,57,0,1
187129,-142.857142857143,4,1,0,57,0,1
187457,-125,4,1,0,57,0,1
187785,-100,4,1,0,57,0,1
188440,-76.9230769230769,4,1,0,57,0,1
189752,-100,4,1,0,57,0,0
205490,-58.8235294117647,4,1,0,57,0,1
206145,-62.5,4,1,0,57,0,1
206801,-66.6666666666667,4,1,0,57,0,1
207457,-71.4285714285714,4,1,0,57,0,1
208113,-76.9230769230769,4,1,0,57,0,1
208768,-83.3333333333333,4,1,0,57,0,1
209424,-100,4,1,0,57,0,1
210745,-100,4,1,0,57,0,0
213359,-133.333333333333,4,1,0,57,0,0
220162,-100,4,1,0,57,0,0
239598,-166.666666666667,4,1,0,57,0,0
241893,-100,4,1,0,57,0,0
242221,-100,4,1,0,57,0,1
251401,-83.3333333333333,4,1,0,57,0,1
252713,-100,4,1,0,57,0,0
263205,-200,4,1,0,57,0,0

[HitObjects]
293,308,582,5,0,0:0:0:0:
293,308,746,2,0,L|293:198,1,100
184,187,1073,1,0,0:0:0:0:
183,336,1237,1,0,0:0:0:0:
184,187,1401,1,0,0:0:0:0:
272,294,1565,6,0,P|328:314|369:302,1,75.0000028610231
341,313,1893,2,0,P|389:278|401:236,1,75.0000028610231,0|0,3:0|3:0,3:0:0:0:
395,265,2221,2,0,P|395:204|370:170,1,75.0000028610231
389,192,2549,2,0,P|339:157|296:159,1,75.0000028610231,0|0,3:0|3:0,3:0:0:0:
328,58,2877,1,0,0:0:0:0:
211,41,3041,5,0,0:0:0:0:
211,41,3123,1,0,0:0:0:0:
211,41,3205,2,0,P|206:128|144:181,1,150.000005722046
7,132,3532,1,0,0:0:0:0:
165,171,3696,1,0,0:0:0:0:
7,227,3860,1,0,0:0:0:0:
165,171,4024,1,0,0:0:0:0:
7,132,4188,6,0,L|80:81,1,75.0000028610231
68,89,4516,2,0,L|149:52,1,75.0000028610231
136,58,4844,2,0,L|222:38,1,75.0000028610231
209,41,5172,2,0,L|297:37,1,75.0000028610231
362,75,5500,5,0,0:0:0:0:
393,161,5664,5,0,0:0:0:0:
376,198,5746,1,0,0:0:0:0:
354,228,5828,1,0,0:0:0:0:
325,254,5909,1,0,0:0:0:0:
292,277,5991,2,0,P|218:309|135:318,1,150.000005722046
155,151,6319,5,0,0:0:0:0:
149,318,6483,1,0,0:0:0:0:
155,151,6647,1,0,0:0:0:0:
80,263,6811,6,0,B|58:233|58:233|53:184,1,75.0000028610231
54,195,7139,2,0,B|51:157|51:157|74:114,1,75.0000028610231,0|0,0:0|3:0,0:0:0:0:
69,124,7467,2,0,B|87:91|87:91|130:67,1,75.0000028610231,0|0,0:0|3:0,0:0:0:0:
120,72,7795,2,0,B|153:54|153:54|202:57,1,75.0000028610231,0|0,0:0|3:0,0:0:0:0:
190,57,8123,2,0,B|227:60|227:60|266:89,1,75.0000028610231,0|0,0:0|3:0,0:0:0:0:
342,162,8450,5,0,0:0:0:0:
342,162,8532,1,0,0:0:0:0:
342,162,8614,2,0,P|331:251|280:323,1,150.000005722046
119,65,8942,5,0,0:0:0:0:
235,255,9106,1,0,0:0:0:0:
59,165,9270,1,0,0:0:0:0:
231,58,9434,1,0,0:0:0:0:
164,340,9598,5,0,0:0:0:0:
350,228,9762,1,0,0:0:0:0:
141,108,9926,1,0,0:0:0:0:
235,255,10090,1,0,0:0:0:0:
271,140,10254,5,0,0:0:0:0:
303,103,10335,1,0,0:0:0:0:
351,104,10417,1,0,0:0:0:0:
382,142,10499,1,0,0:0:0:0:
374,189,10581,1,0,0:0:0:0:
336,221,10663,1,0,0:0:0:0:
288,231,10745,1,0,0:0:0:0:
240,216,10827,5,0,0:0:0:0:
207,180,10909,1,0,0:0:0:0:
200,130,10990,1,0,0:0:0:0:
220,85,11072,1,0,0:0:0:0:
260,56,11154,1,0,0:0:0:0:
309,52,11236,1,0,0:0:0:0:
220,297,11401,6,0,P|161:257|132:126,1,200
311,136,11893,1,0,0:0:0:0:
127,136,12057,1,0,0:0:0:0:
392,135,12221,1,0,0:0:0:0:
208,136,12385,2,0,L|319:136,1,100
356,60,12713,6,0,L|150:60,1,200
40,136,13205,1,0,0:0:0:0:
234,140,13369,1,0,0:0:0:0:
36,224,13532,1,0,0:0:0:0:
234,231,13696,2,0,B|274:280|274:280|331:280,1,100
402,330,14024,6,0,B|408:281|380:243|380:243|399:219|399:219|383:185|383:185|391:154|377:134,1,200
262,44,14516,1,0,0:0:0:0:
270,255,14680,1,0,0:0:0:0:
90,148,14844,1,0,0:0:0:0:
262,44,15008,2,0,L|378:44,1,100
447,50,15339,6,0,B|460:93|456:109|440:128|440:128|463:161|463:161|448:206|401:227,1,200
236,220,15828,1,0,0:0:0:0:
344,50,15991,1,0,0:0:0:0:
438,217,16155,1,0,0:0:0:0:
236,220,16319,2,0,B|195:183|195:183|195:120,1,100
222,50,16647,6,0,P|170:51|100:181,1,200
97,353,17139,1,0,0:0:0:0:
96,164,17303,1,0,0:0:0:0:
97,353,17467,1,0,0:0:0:0:
96,164,17631,2,0,L|200:164,1,100
221,293,17959,6,0,B|274:273|298:298|298:298|328:268|328:268|359:284|399:229,1,200
505,59,18453,1,0,0:0:0:0:
264,59,18617,1,0,0:0:0:0:
392,239,18781,1,0,0:0:0:0:
364,59,18945,2,0,L|251:59,1,100
153,59,19273,6,0,P|89:73|23:193,1,200
169,314,19762,1,0,0:0:0:0:
256,34,19926,1,0,0:0:0:0:
345,316,20090,1,0,0:0:0:0:
256,34,20254,1,0,0:0:0:0:
256,235,20418,1,0,0:0:0:0:
367,134,20582,6,0,B|358:102|332:92|332:92|327:64|327:64|289:55|254:29|254:29|222:57|182:67|182:66|182:66|176:96|176:96|151:108|142:145,1,329.9999899292
157,255,21893,5,0,0:0:0:0:
182,281,21974,1,0,0:0:0:0:
218,291,22056,1,0,0:0:0:0:
253,280,22138,1,0,0:0:0:0:
277,252,22220,1,0,0:0:0:0:
284,216,22302,1,0,0:0:0:0:
269,182,22384,5,0,0:0:0:0:
263,145,22466,1,0,0:0:0:0:
274,109,22548,1,0,0:0:0:0:
299,82,22630,1,0,0:0:0:0:
333,68,22712,1,0,0:0:0:0:
370,70,22794,1,0,0:0:0:0:
403,89,22876,5,0,0:0:0:0:
423,120,22958,1,0,0:0:0:0:
429,157,23041,1,0,0:0:0:0:
421,193,23122,1,0,0:0:0:0:
400,225,23205,5,0,0:0:0:0:
398,187,23286,1,0,0:0:0:0:
379,156,23368,1,0,0:0:0:0:
346,138,23450,1,0,0:0:0:0:
309,138,23532,1,0,0:0:0:0:
277,156,23614,1,0,0:0:0:0:
257,187,23696,1,0,0:0:0:0:
255,222,23777,1,0,0:0:0:0:
266,253,23860,6,0,L|297:297,3,37.5000014305115
180,324,24187,2,0,L|149:368,3,37.5000014305115
262,229,24515,5,0,2:0:0:0:
286,202,24596,1,0,2:0:0:0:
321,190,24678,1,0,2:0:0:0:
358,198,24760,1,0,2:0:0:0:
390,220,24844,5,0,0:0:0:0:
407,252,24925,1,0,0:0:0:0:
407,289,25007,1,0,0:0:0:0:
388,321,25089,1,0,0:0:0:0:
356,340,25171,1,0,0:0:0:0:
319,341,25253,1,0,0:0:0:0:
286,324,25335,5,0,0:0:0:0:
252,307,25417,1,0,0:0:0:0:
215,305,25499,1,0,0:0:0:0:
180,318,25581,1,0,0:0:0:0:
145,329,25663,1,0,0:0:0:0:
108,321,25745,1,0,0:0:0:0:
81,296,25827,5,0,0:0:0:0:
70,261,25909,1,0,0:0:0:0:
77,225,25991,1,0,0:0:0:0:
102,197,26073,1,0,0:0:0:0:
137,185,26155,1,0,0:0:0:0:
165,162,26236,1,0,0:0:0:0:
179,127,26318,1,0,0:0:0:0:
173,90,26400,1,0,0:0:0:0:
159,58,26483,6,0,L|204:43,3,37.5000014305115
293,120,26811,2,0,L|334:146,3,37.5000014305115
406,195,27139,5,0,0:0:0:0:
432,220,27220,1,0,0:0:0:0:
437,256,27302,1,0,0:0:0:0:
418,287,27384,1,0,0:0:0:0:
383,298,27466,1,0,0:0:0:0:
349,285,27548,1,0,0:0:0:0:
331,252,27630,5,0,0:0:0:0:
343,217,27712,1,0,0:0:0:0:
370,192,27795,1,0,0:0:0:0:
392,162,27876,1,0,0:0:0:0:
397,126,27958,1,0,0:0:0:0:
381,92,28040,1,0,0:0:0:0:
350,72,28122,5,0,0:0:0:0:
314,71,28204,1,0,0:0:0:0:
281,89,28286,1,0,0:0:0:0:
256,116,28367,1,0,0:0:0:0:
222,131,28449,1,0,0:0:0:0:
185,130,28531,1,0,0:0:0:0:
151,113,28614,5,0,0:0:0:0:
115,105,28695,1,0,0:0:0:0:
81,118,28777,1,0,0:0:0:0:
60,149,28859,1,0,0:0:0:0:
60,186,28941,1,0,0:0:0:0:
82,216,29023,1,0,0:0:0:0:
109,246,29106,6,0,L|128:284,3,37.5000014305115
249,268,29434,2,0,L|203:257,3,37.5000014305115
325,282,29762,5,0,0:0:0:0:
370,266,29843,1,0,0:0:0:0:
387,221,29925,1,0,0:0:0:0:
362,180,30007,1,0,0:0:0:0:
314,174,30089,1,0,0:0:0:0:
265,171,30171,1,0,0:0:0:0:
229,137,30253,5,0,0:0:0:0:
223,89,30335,1,0,0:0:0:0:
248,47,30417,1,0,0:0:0:0:
295,31,30499,1,0,0:0:0:0:
341,48,30582,1,0,0:0:0:0:
373,85,30663,1,0,0:0:0:0:
381,134,30745,5,0,0:0:0:0:
361,180,30827,1,0,0:0:0:0:
321,208,30909,1,0,0:0:0:0:
279,217,30991,1,0,0:0:0:0:
242,210,31073,5,0,3:0:0:0:
223,268,31154,1,0,3:0:0:0:
180,311,31236,1,0,3:0:0:0:
120,325,31318,1,0,3:0:0:0:
62,307,31400,1,0,3:0:0:0:
20,262,31482,1,0,3:0:0:0:
8,202,31564,1,0,3:0:0:0:
26,144,31646,1,0,3:0:0:0:
71,104,31729,1,0,0:0:0:0:
89,95,31810,5,0,0:0:0:0:
108,89,31892,1,0,0:0:0:0:
127,85,31974,1,0,0:0:0:0:
147,82,32056,1,0,0:0:0:0:
167,82,32138,1,0,0:0:0:0:
187,83,32220,1,0,0:0:0:0:
207,87,32302,1,0,0:0:0:0:
226,92,32384,1,0,0:0:0:0:
256,192,32549,12,0,35008,0:0:0:0:
148,239,37631,6,0,P|131:181|160:129,2,100
403,242,38123,1,0,0:0:0:0:
254,62,38287,1,0,0:0:0:0:
256,335,38450,2,0,L|256:268,1,59.9999981689454
254,62,38778,1,0,0:0:0:0:
369,162,39106,5,0,0:0:0:0:
125,164,39270,1,0,0:0:0:0:
409,235,39434,1,0,0:0:0:0:
107,235,39598,1,0,0:0:0:0:
369,162,39762,1,0,0:0:0:0:
125,164,39926,2,0,B|187:80|301:97,1,200
302,306,40418,5,0,0:0:0:0:
298,78,40582,2,0,L|298:196,1,100
105,79,40909,1,0,0:0:0:0:
298,78,41073,2,0,L|381:78,1,59.9999981689454
105,79,41401,1,0,0:0:0:0:
289,290,41729,5,0,0:0:0:0:
105,183,41893,1,0,0:0:0:0:
298,78,42057,1,0,0:0:0:0:
132,312,42221,5,0,0:0:0:0:
395,129,42385,1,0,0:0:0:0:
200,26,42549,2,0,B|154:47|154:47|141:71|141:71|110:69|110:69|92:90|92:90|66:80|66:80|3:96,1,200,0|0,3:0|3:0,3:0:0:0:
53,318,43041,6,0,B|105:322|105:322|163:309,2,100
100,120,43532,1,0,0:0:0:0:
255,313,43696,2,0,L|322:313,1,59.9999981689454
305,114,44024,1,0,0:0:0:0:
126,252,44352,5,0,0:0:0:0:
194,27,44516,1,0,0:0:0:0:
263,252,44680,1,0,0:0:0:0:
88,113,44844,1,0,0:0:0:0:
305,114,45008,1,0,0:0:0:0:
88,113,45172,2,0,B|90:222|160:300,1,200
437,295,45664,5,0,0:0:0:0:
157,297,45828,1,0,0:0:0:0:
291,101,45991,1,0,0:0:0:0:
296,338,46155,1,0,0:0:0:0:
433,112,46319,6,0,L|433:191,1,59.9999981689454
189,218,46647,5,0,0:0:0:0:
189,218,46729,1,0,0:0:0:0:
189,218,46811,2,0,L|270:219,1,59.9999981689454
60,213,47139,1,0,0:0:0:0:
254,306,47303,1,0,0:0:0:0:
257,37,47467,5,0,0:0:0:0:
254,306,47631,1,0,0:0:0:0:
413,36,47795,1,0,0:0:0:0:
101,38,47959,1,0,0:0:0:0:
257,193,48123,6,0,L|366:193,2,100
78,192,48614,1,0,0:0:0:0:
257,107,48778,1,0,0:0:0:0:
78,192,48942,2,0,L|78:259,1,59.9999981689454
257,193,49270,1,0,0:0:0:0:
256,335,49598,5,0,0:0:0:0:
390,192,49762,1,0,0:0:0:0:
122,192,49926,1,0,0:0:0:0:
438,263,50090,1,0,0:0:0:0:
74,263,50254,1,0,0:0:0:0:
344,277,50418,2,0,B|345:238|330:215|330:215|324:195|324:195|342:156|342:156|305:134|298:98,1,200
68,115,50909,5,0,0:0:0:0:
312,116,51073,1,0,0:0:0:0:
68,115,51237,2,0,L|67:196,1,59.9999981689454
312,116,51565,2,0,L|312:42,1,59.9999981689454
69,35,51893,1,0,0:0:0:0:
314,36,52221,5,0,0:0:0:0:
98,133,52385,1,0,0:0:0:0:
286,209,52549,1,0,0:0:0:0:
183,38,52713,1,0,0:0:0:0:
286,209,52877,1,0,0:0:0:0:
183,38,53041,2,0,L|294:222,1,200
75,116,53532,5,0,0:0:0:0:
74,298,53696,1,0,0:0:0:0:
153,116,53860,1,0,0:0:0:0:
74,298,54024,1,0,0:0:0:0:
153,116,54188,2,0,L|152:192,1,59.9999981689454
294,301,54516,1,0,0:0:0:0:
289,42,54844,5,0,0:0:0:0:
431,160,55008,1,0,0:0:0:0:
289,42,55172,1,0,0:0:0:0:
291,226,55336,1,0,0:0:0:0:
289,42,55500,1,0,0:0:0:0:
112,164,55664,2,0,P|65:209|82:343,1,200
291,226,56155,5,0,0:0:0:0:
114,225,56319,1,0,0:0:0:0:
374,227,56483,1,0,0:0:0:0:
194,78,56647,1,0,0:0:0:0:
199,314,56811,6,0,L|199:235,1,59.9999981689454
194,78,57139,5,0,0:0:0:0:
194,78,57221,1,0,0:0:0:0:
194,78,57303,2,0,L|261:78,1,59.9999981689454
256,290,57631,5,0,0:0:0:0:
404,93,57795,1,0,0:0:0:0:
108,93,57959,1,0,0:0:0:0:
176,348,58123,5,0,0:0:0:0:
255,23,58287,1,0,0:0:0:0:
330,348,58450,1,0,0:0:0:0:
210,215,58614,5,0,0:0:0:0:
176,192,58695,1,0,0:0:0:0:
161,155,58777,1,0,0:0:0:0:
171,115,58859,1,0,0:0:0:0:
201,89,58941,1,0,0:0:0:0:
241,85,59023,1,0,0:0:0:0:
276,105,59105,5,0,0:0:0:0:
310,128,59187,1,0,0:0:0:0:
350,136,59269,1,0,0:0:0:0:
390,128,59352,1,0,0:0:0:0:
428,115,59433,1,0,0:0:0:0:
467,126,59515,1,0,0:0:0:0:
492,158,59597,5,0,0:0:0:0:
495,198,59679,1,0,0:0:0:0:
475,233,59761,1,0,0:0:0:0:
438,249,59843,1,0,0:0:0:0:
398,242,59925,1,0,0:0:0:0:
361,225,60007,1,0,0:0:0:0:
321,227,60089,5,0,0:0:0:0:
285,246,60171,1,0,0:0:0:0:
261,279,60253,1,0,0:0:0:0:
234,309,60335,1,0,0:0:0:0:
196,323,60417,1,0,0:0:0:0:
156,316,60499,1,0,0:0:0:0:
116,304,60582,6,0,L|129:266,3,41.0000006256104
213,195,60909,2,0,L|151:165,3,41.0000006256104
285,104,61237,5,0,0:0:0:0:
315,77,61318,1,0,0:0:0:0:
355,71,61400,1,0,0:0:0:0:
391,88,61482,1,0,0:0:0:0:
412,123,61564,1,0,0:0:0:0:
411,163,61646,1,0,0:0:0:0:
388,196,61729,5,0,0:0:0:0:
355,221,61810,1,0,0:0:0:0:
316,233,61892,1,0,0:0:0:0:
276,230,61974,1,0,0:0:0:0:
238,213,62056,1,0,0:0:0:0:
209,185,62139,1,0,0:0:0:0:
178,159,62220,5,0,0:0:0:0:
137,154,62302,1,0,0:0:0:0:
101,171,62384,1,0,0:0:0:0:
78,205,62466,1,0,0:0:0:0:
77,245,62548,1,0,0:0:0:0:
97,281,62630,1,0,0:0:0:0:
132,300,62712,5,0,0:0:0:0:
173,305,62794,1,0,0:0:0:0:
212,293,62876,1,0,0:0:0:0:
244,268,62958,1,0,0:0:0:0:
263,232,63040,1,0,0:0:0:0:
266,191,63122,1,0,0:0:0:0:
263,150,63205,6,0,L|313:97,3,41.0000006256104
378,201,63532,2,0,L|428:160,3,41.0000006256104
430,295,63860,5,0,0:0:0:0:
413,332,63941,1,0,0:0:0:0:
382,358,64023,1,0,0:0:0:0:
342,367,64105,1,0,0:0:0:0:
303,357,64187,1,0,0:0:0:0:
272,331,64269,1,0,0:0:0:0:
256,293,64352,5,0,0:0:0:0:
258,252,64433,1,0,0:0:0:0:
279,217,64515,1,0,0:0:0:0:
314,197,64597,1,0,0:0:0:0:
355,196,64679,1,0,0:0:0:0:
395,198,64761,1,0,0:0:0:0:
425,171,64843,5,0,0:0:0:0:
427,131,64925,1,0,0:0:0:0:
401,101,65007,1,0,0:0:0:0:
362,97,65089,1,0,0:0:0:0:
331,122,65171,5,0,0:0:0:0:
321,83,65253,1,0,0:0:0:0:
293,54,65335,1,0,0:0:0:0:
254,43,65417,1,0,0:0:0:0:
215,53,65499,1,0,0:0:0:0:
186,81,65581,1,0,0:0:0:0:
175,120,65663,1,0,0:0:0:0:
186,159,65745,1,0,0:0:0:0:
202,200,65828,6,0,L|148:234,3,41.0000006256104
301,237,66155,2,0,L|281:284,3,41.0000006256104
389,262,66483,5,0,0:0:0:0:
426,246,66564,1,0,0:0:0:0:
441,210,66646,1,0,0:0:0:0:
426,173,66728,1,0,0:0:0:0:
390,144,66811,5,0,0:0:0:0:
383,90,66892,1,0,0:0:0:0:
343,54,66974,1,0,0:0:0:0:
289,55,67057,1,0,0:0:0:0:
250,91,67139,1,0,0:0:0:0:
207,123,67220,1,0,0:0:0:0:
154,113,67302,1,0,0:0:0:0:
127,67,67384,1,0,0:0:0:0:
105,17,67467,6,0,L|44:43,3,55.0000016784668
102,176,67795,2,0,L|41:150,3,55.0000016784668
144,251,68123,5,0,0:0:0:0:
167,299,68204,1,0,0:0:0:0:
218,315,68286,1,0,0:0:0:0:
264,288,68368,1,0,0:0:0:0:
276,236,68450,1,0,0:0:0:0:
258,185,68531,1,0,0:0:0:0:
214,153,68614,5,0,0:0:0:0:
168,126,68695,1,0,0:0:0:0:
158,74,68777,1,0,0:0:0:0:
190,31,68859,1,0,0:0:0:0:
243,27,68941,1,0,0:0:0:0:
282,70,69023,1,0,0:0:0:0:
300,123,69106,5,0,0:0:0:0:
340,118,69187,1,0,0:0:0:0:
369,90,69269,1,0,0:0:0:0:
374,50,69351,1,0,0:0:0:0:
353,15,69433,1,0,0:0:0:0:
315,1,69515,1,0,0:0:0:0:
277,12,69597,5,0,0:0:0:0:
242,33,69679,1,0,0:0:0:0:
216,65,69761,1,0,0:0:0:0:
203,104,69843,1,0,0:0:0:0:
205,144,69925,1,0,0:0:0:0:
221,182,70007,1,0,0:0:0:0:
250,211,70090,5,0,0:0:0:0:
287,228,70171,1,0,0:0:0:0:
327,232,70253,1,0,0:0:0:0:
366,220,70335,1,0,0:0:0:0:
405,209,70417,1,0,0:0:0:0:
444,220,70499,1,0,0:0:0:0:
472,250,70581,5,0,0:0:0:0:
480,290,70663,1,0,0:0:0:0:
465,328,70745,1,0,0:0:0:0:
433,352,70827,1,0,0:0:0:0:
393,357,70909,1,0,0:0:0:0:
356,339,70991,1,0,0:0:0:0:
325,313,71073,6,0,L|262:342,3,41.0000006256104
256,227,71401,2,0,L|293:207,3,41.0000006256104
197,135,71729,5,0,0:0:0:0:
187,95,71810,1,0,0:0:0:0:
201,58,71892,1,0,0:0:0:0:
235,36,71974,1,0,0:0:0:0:
275,37,72056,1,0,0:0:0:0:
307,61,72138,1,0,0:0:0:0:
319,100,72221,5,0,0:0:0:0:
321,141,72302,1,0,0:0:0:0:
306,179,72384,1,0,0:0:0:0:
278,208,72466,1,0,0:0:0:0:
241,224,72548,1,0,0:0:0:0:
200,224,72630,1,0,0:0:0:0:
163,209,72712,5,0,0:0:0:0:
134,180,72794,1,0,0:0:0:0:
119,142,72877,1,0,0:0:0:0:
131,103,72958,1,0,0:0:0:0:
165,82,73040,1,0,0:0:0:0:
204,89,73122,1,0,0:0:0:0:
229,120,73204,5,0,0:0:0:0:
235,160,73286,1,0,0:0:0:0:
227,200,73368,1,0,0:0:0:0:
207,236,73450,1,0,0:0:0:0:
209,273,73531,1,0,0:0:0:0:
230,304,73613,1,0,0:0:0:0:
265,317,73696,6,0,L|306:285,3,41.0000006256104
378,190,74024,2,0,L|337:222,3,41.0000006256104
401,96,74352,5,0,0:0:0:0:
386,57,74433,1,0,0:0:0:0:
356,31,74515,1,0,0:0:0:0:
316,21,74597,1,0,0:0:0:0:
277,32,74679,1,0,0:0:0:0:
247,59,74761,1,0,0:0:0:0:
234,97,74843,5,0,0:0:0:0:
223,135,74925,1,0,0:0:0:0:
189,157,75007,1,0,0:0:0:0:
150,149,75089,1,0,0:0:0:0:
126,117,75172,1,0,0:0:0:0:
102,85,75253,1,0,0:0:0:0:
63,80,75335,5,0,0:0:0:0:
31,105,75417,1,0,0:0:0:0:
27,145,75499,1,0,0:0:0:0:
45,181,75581,1,0,0:0:0:0:
72,213,75663,1,0,0:0:0:0:
105,237,75745,1,0,0:0:0:0:
142,253,75827,5,0,0:0:0:0:
183,260,75909,1,0,0:0:0:0:
223,257,75991,1,0,0:0:0:0:
262,244,76073,1,0,0:0:0:0:
297,223,76155,1,0,0:0:0:0:
327,195,76237,1,0,0:0:0:0:
359,165,76319,6,0,L|377:223,3,41.0000006256104
365,318,76647,2,0,L|347:260,3,41.0000006256104
272,312,76975,5,0,0:0:0:0:
231,313,77056,1,0,0:0:0:0:
198,290,77138,1,0,0:0:0:0:
184,252,77220,1,0,0:0:0:0:
196,214,77302,1,0,0:0:0:0:
229,190,77385,1,0,0:0:0:0:
259,163,77466,5,0,0:0:0:0:
270,124,77548,1,0,0:0:0:0:
258,86,77630,1,0,0:0:0:0:
227,60,77712,1,0,0:0:0:0:
187,56,77794,1,0,0:0:0:0:
151,74,77876,1,0,0:0:0:0:
128,108,77958,5,0,0:0:0:0:
126,148,78040,1,0,0:0:0:0:
144,184,78122,1,0,0:0:0:0:
178,207,78204,1,0,0:0:0:0:
218,209,78286,5,0,0:0:0:0:
227,268,78367,1,0,0:0:0:0:
279,297,78449,1,0,0:0:0:0:
334,275,78531,1,0,0:0:0:0:
350,218,78613,1,0,0:0:0:0:
315,170,78696,1,0,0:0:0:0:
290,115,78777,5,0,0:0:0:0:
317,63,78859,1,0,0:0:0:0:
376,51,78941,1,0,0:0:0:0:
421,90,79024,1,0,0:0:0:0:
437,148,79105,1,0,0:0:0:0:
424,208,79187,1,0,0:0:0:0:
384,254,79269,5,0,0:0:0:0:
327,276,79351,1,0,0:0:0:0:
267,269,79433,1,0,0:0:0:0:
217,234,79515,1,0,0:0:0:0:
242,72,79598,6,0,B|292:84|292:84|350:70,1,100
451,70,79926,1,0,0:0:0:0:
153,171,80090,2,0,L|152:279,1,100
369,170,80418,1,0,0:0:0:0:
72,169,80582,6,0,L|72:57,1,100
370,64,80909,1,0,0:0:0:0:
153,71,81073,2,0,L|153:183,1,100
459,173,81401,5,0,0:0:0:0:
166,259,81565,1,0,0:0:0:0:
461,257,81729,1,0,0:0:0:0:
165,171,81893,1,0,0:0:0:0:
459,89,82057,1,0,0:0:0:0:
172,88,82221,6,0,P|118:104|86:138,1,100
89,305,82549,1,0,0:0:0:0:
169,12,82713,2,0,P|223:28|255:62,1,100
252,247,83041,1,0,0:0:0:0:
421,34,83205,6,0,L|421:137,1,100
421,335,83532,1,0,0:0:0:0:
421,34,83696,2,0,L|288:34,1,100
86,124,84024,5,0,0:0:0:0:
352,191,84188,1,0,0:0:0:0:
86,260,84352,1,0,0:0:0:0:
232,52,84516,1,0,0:0:0:0:
232,334,84680,1,0,0:0:0:0:
232,52,84844,6,0,B|293:52|293:52|351:73,1,100
236,246,85172,1,0,0:0:0:0:
138,48,85336,2,0,L|138:167,1,100
49,331,85664,1,0,0:0:0:0:
332,334,85828,6,0,L|219:334,1,100
327,130,86155,1,0,0:0:0:0:
52,239,86319,2,0,L|52:121,1,100
327,130,86647,5,0,0:0:0:0:
118,128,86811,1,0,0:0:0:0:
371,54,86975,1,0,0:0:0:0:
98,51,87139,1,0,0:0:0:0:
230,235,87303,1,0,0:0:0:0:
260,134,87467,5,0,3:0:0:0:
268,90,87549,1,0,3:0:0:0:
278,45,87631,2,0,L|176:25,1,100,0|0,3:0|3:0,3:0:0:0:
368,152,87959,1,0,0:0:0:0:
44,192,88123,1,0,0:0:0:0:
368,236,88287,1,0,0:0:0:0:
252,64,88450,5,0,0:0:0:0:
116,324,88614,1,0,0:0:0:0:
163,19,88778,1,0,0:0:0:0:
216,320,88942,1,0,0:0:0:0:
76,64,89106,1,0,0:0:0:0:
232,120,89270,5,0,0:0:0:0:
264,136,89352,1,0,0:0:0:0:
296,152,89434,2,0,B|352:169|352:169|409:143,1,100
449,74,89762,2,0,B|392:56|392:56|335:82,1,100
80,100,90090,6,0,L|80:212,1,100
80,336,90418,1,0,0:0:0:0:
80,100,90582,2,0,L|204:100,2,100
196,20,91073,6,0,P|248:52|268:116,1,100
268,296,91401,1,0,0:0:0:0:
176,104,91565,2,0,P|124:72|104:8,1,100
108,244,91893,1,0,0:0:0:0:
196,24,92057,5,0,0:0:0:0:
416,72,92221,1,0,0:0:0:0:
200,120,92385,1,0,0:0:0:0:
416,172,92549,1,0,0:0:0:0:
200,220,92713,6,0,P|144:232|72:204,1,100
104,52,93041,1,0,0:0:0:0:
103,222,93205,6,0,L|103:346,2,100
104,52,93696,2,0,B|160:40|160:40|220:52,1,100
440,52,94024,1,0,0:0:0:0:
201,48,94188,2,0,P|217:124|253:148,1,100
444,136,94516,5,0,0:0:0:0:
188,276,94680,1,0,0:0:0:0:
360,84,94844,1,0,0:0:0:0:
464,232,95008,1,0,0:0:0:0:
188,276,95172,1,0,0:0:0:0:
456,92,95336,5,0,0:0:0:0:
428,48,95418,1,0,0:0:0:0:
380,40,95500,1,0,0:0:0:0:
336,64,95582,1,0,0:0:0:0:
321,107,95664,1,0,0:0:0:0:
320,156,95746,1,0,0:0:0:0:
284,188,95828,5,0,0:0:0:0:
236,188,95909,1,0,0:0:0:0:
198,162,95991,1,0,0:0:0:0:
172,120,96073,1,0,0:0:0:0:
128,100,96155,1,0,0:0:0:0:
76,108,96237,1,0,0:0:0:0:
40,140,96319,5,0,0:0:0:0:
28,188,96401,1,0,0:0:0:0:
44,236,96483,1,0,0:0:0:0:
84,264,96565,1,0,0:0:0:0:
130,270,96647,1,0,0:0:0:0:
180,260,96729,1,0,0:0:0:0:
208,220,96811,5,0,0:0:0:0:
208,172,96893,1,0,0:0:0:0:
180,132,96975,1,0,0:0:0:0:
136,120,97057,1,0,0:0:0:0:
88,140,97139,1,0,0:0:0:0:
64,180,97221,1,0,0:0:0:0:
72,232,97303,5,0,0:0:0:0:
96,276,97385,1,0,0:0:0:0:
140,296,97467,1,0,0:0:0:0:
188,292,97549,1,0,0:0:0:0:
232,264,97631,1,0,0:0:0:0:
248,216,97713,1,0,0:0:0:0:
242,169,97795,5,0,0:0:0:0:
240,120,97877,1,0,0:0:0:0:
272,76,97959,1,0,0:0:0:0:
312,56,98041,1,0,0:0:0:0:
364,68,98123,1,0,0:0:0:0:
400,96,98205,1,0,0:0:0:0:
408,149,98287,5,0,0:0:0:0:
388,196,98369,1,0,0:0:0:0:
348,216,98450,1,0,0:0:0:0:
300,204,98532,1,0,0:0:0:0:
260,182,98614,6,0,L|204:202,3,50
86,206,98942,2,0,L|142:186,3,50
132,296,99270,5,0,0:0:0:0:
176,336,99352,1,0,0:0:0:0:
236,324,99434,1,0,0:0:0:0:
268,276,99516,1,0,0:0:0:0:
248,220,99598,1,0,0:0:0:0:
232,164,99680,1,0,0:0:0:0:
268,120,99762,1,0,0:0:0:0:
324,120,99844,1,0,0:0:0:0:
359,165,99926,5,0,0:0:0:0:
384,192,100008,1,0,0:0:0:0:
424,204,100090,1,0,0:0:0:0:
464,196,100172,1,0,0:0:0:0:
488,164,100254,1,0,0:0:0:0:
496,124,100336,1,0,0:0:0:0:
480,92,100418,1,0,0:0:0:0:
448,64,100500,1,0,0:0:0:0:
256,64,100582,5,0,0:0:0:0:
256,224,100746,1,0,0:0:0:0:
256,16,100909,1,0,0:0:0:0:
336,224,101073,2,0,L|336:336,1,100
336,68,101401,5,0,0:0:0:0:
336,324,101565,1,0,0:0:0:0:
336,68,101729,2,0,B|280:68|280:68|224:84,1,100
72,160,102057,1,0,0:0:0:0:
264,164,102221,1,0,0:0:0:0:
72,160,102385,1,0,0:0:0:0:
88,264,102549,5,0,0:0:0:0:
148,264,102631,1,0,0:0:0:0:
208,264,102713,1,0,0:0:0:0:
336,264,102877,2,0,L|452:264,1,100
336,52,103205,5,0,0:0:0:0:
156,96,103369,1,0,0:0:0:0:
336,156,103532,1,0,0:0:0:0:
156,96,103696,2,0,P|100:128|76:176,1,100
336,156,104024,5,0,0:0:0:0:
85,44,104188,1,0,0:0:0:0:
336,156,104352,2,0,P|392:144|448:164,1,100
336,324,104680,1,0,0:0:0:0:
256,192,104844,1,0,0:0:0:0:
176,324,105008,1,0,0:0:0:0:
256,192,105172,5,0,0:0:0:0:
256,132,105254,1,0,0:0:0:0:
256,72,105336,1,0,0:0:0:0:
156,72,105500,2,0,L|156:184,1,100
76,316,105828,5,0,0:0:0:0:
256,316,105991,1,0,0:0:0:0:
40,244,106155,1,0,0:0:0:0:
304,244,106319,2,0,L|304:136,1,100
76,144,106647,5,0,0:0:0:0:
304,144,106811,1,0,0:0:0:0:
76,144,106975,2,0,L|76:32,1,100
304,44,107303,1,0,0:0:0:0:
76,44,107467,1,0,0:0:0:0:
304,44,107631,1,0,0:0:0:0:
188,144,107795,5,0,0:0:0:0:
147,187,107877,1,0,0:0:0:0:
106,231,107959,1,0,0:0:0:0:
188,144,108123,2,0,L|188:32,1,100
380,48,108450,6,0,B|380:164|380:164|332:248,1,200
244,332,108942,2,0,B|244:216|244:216|292:132,1,200
40,300,109434,5,0,0:0:0:0:
282,170,109598,1,0,0:0:0:0:
49,22,109762,1,0,0:0:0:0:
244,252,109926,5,0,0:0:0:0:
44,128,110090,1,0,0:0:0:0:
240,32,110254,2,0,L|356:32,1,100
244,252,110582,5,0,0:0:0:0:
240,32,110746,1,0,0:0:0:0:
240,328,110909,1,0,0:0:0:0:
392,84,111073,5,0,0:0:0:0:
120,192,111237,1,0,0:0:0:0:
392,300,111401,1,0,0:0:0:0:
392,84,111565,2,0,L|280:84,1,100
108,80,111893,5,0,0:0:0:0:
392,84,112057,1,0,0:0:0:0:
108,80,112221,2,0,B|88:132|88:132|112:192,1,100
392,172,112549,1,0,0:0:0:0:
104,173,112713,1,0,0:0:0:0:
328,172,112877,1,0,0:0:0:0:
164,221,113041,5,0,0:0:0:0:
121,263,113123,1,0,0:0:0:0:
79,305,113205,1,0,0:0:0:0:
328,272,113369,2,0,L|328:164,1,100
148,40,113696,5,0,0:0:0:0:
64,252,113860,1,0,0:0:0:0:
272,204,114024,1,0,0:0:0:0:
64,36,114188,2,0,L|64:148,1,100
320,140,114516,5,0,0:0:0:0:
64,252,114680,1,0,0:0:0:0:
332,60,114844,2,0,P|392:92|400:144,1,100
408,320,115172,1,0,0:0:0:0:
184,264,115336,1,0,0:0:0:0:
408,200,115500,1,0,0:0:0:0:
256,160,115664,5,0,0:0:0:0:
196,160,115746,1,0,0:0:0:0:
136,160,115828,1,0,0:0:0:0:
136,48,115991,2,0,P|191:35|248:56,1,100
428,52,116319,5,0,0:0:0:0:
432,276,116483,1,0,0:0:0:0:
336,80,116647,1,0,0:0:0:0:
432,200,116811,2,0,B|376:216|376:216|352:272,1,100
116,252,117139,5,0,0:0:0:0:
359,254,117303,1,0,0:0:0:0:
116,252,117467,2,0,L|116:144,1,100
308,104,117795,1,0,0:0:0:0:
48,100,117959,1,0,0:0:0:0:
256,32,118123,1,0,0:0:0:0:
48,180,118287,5,0,0:0:0:0:
48,240,118369,1,0,0:0:0:0:
48,300,118450,1,0,0:0:0:0:
256,300,118614,2,0,L|256:192,1,100
292,40,118942,6,0,B|344:80|352:132|352:132|396:152|396:152|420:200,1,200
352,248,119434,2,0,B|328:208|328:208|284:200|264:176|264:176|272:136|224:92,1,200
160,320,119926,1,0,0:0:0:0:
100,56,120090,1,0,0:0:0:0:
60,320,120254,1,0,0:0:0:0:
16,100,120418,5,0,0:0:0:0:
300,100,120582,1,0,0:0:0:0:
100,136,120746,2,0,L|100:236,1,100
456,236,121073,1,0,0:0:0:0:
174,235,121237,2,0,L|66:235,1,100
256,192,121565,5,0,0:0:0:0:
196,56,124024,5,0,0:0:0:0:
240,100,124106,1,0,0:0:0:0:
284,144,124188,1,0,0:0:0:0:
196,152,124680,5,0,0:0:0:0:
152,196,124762,1,0,0:0:0:0:
108,240,124844,1,0,0:0:0:0:
196,240,125336,5,0,0:0:0:0:
240,264,125418,1,0,0:0:0:0:
292,264,125500,1,0,0:0:0:0:
332,244,125582,1,0,0:0:0:0:
356,200,125664,1,0,0:0:0:0:
360,152,125746,1,0,0:0:0:0:
338,107,125828,5,0,0:0:0:0:
336,60,125909,1,0,0:0:0:0:
372,24,125991,1,0,0:0:0:0:
416,32,126073,1,0,0:0:0:0:
452,60,126155,1,0,0:0:0:0:
192,64,126811,5,0,0:0:0:0:
192,124,126893,1,0,0:0:0:0:
192,184,126975,1,0,0:0:0:0:
192,244,127057,1,0,0:0:0:0:
192,304,127139,1,0,0:0:0:0:
352,268,127467,6,0,L|352:156,1,100
348,88,127959,1,0,0:0:0:0:
348,88,128287,1,0,0:0:0:0:
348,88,128614,1,0,0:0:0:0:
256,88,128778,5,0,0:0:0:0:
256,88,129106,1,0,0:0:0:0:
208,204,129434,6,0,L|260:248,4,50
392,180,130090,6,0,P|372:124|324:92,1,100
204,100,130582,1,0,0:0:0:0:
204,100,130909,1,0,0:0:0:0:
204,100,131237,1,0,0:0:0:0:
72,96,131401,5,0,0:0:0:0:
72,96,131729,1,0,0:0:0:0:
108,284,132057,5,0,0:0:0:0:
165,266,132139,1,0,0:0:0:0:
222,248,132221,1,0,0:0:0:0:
280,231,132303,1,0,0:0:0:0:
337,213,132385,1,0,0:0:0:0:
340,68,132713,6,0,L|220:68,1,100
116,68,133205,1,0,0:0:0:0:
116,68,133532,1,0,0:0:0:0:
116,68,133860,1,0,0:0:0:0:
116,232,134024,5,0,0:0:0:0:
116,232,134352,1,0,0:0:0:0:
192,88,134680,5,0,0:0:0:0:
249,106,134762,1,0,0:0:0:0:
306,124,134844,1,0,0:0:0:0:
364,141,134926,1,0,0:0:0:0:
421,159,135008,1,0,0:0:0:0:
428,292,135336,6,0,P|352:304|296:280,1,100
228,300,135828,1,0,0:0:0:0:
84,296,135991,5,0,0:0:0:0:
108,241,136073,1,0,0:0:0:0:
133,187,136155,1,0,0:0:0:0:
157,131,136237,1,0,0:0:0:0:
182,77,136319,1,0,0:0:0:0:
380,80,136647,6,0,L|380:200,1,100
380,180,137139,1,0,0:0:0:0:
376,296,137303,5,0,3:0:0:0:
315,296,137385,1,0,3:0:0:0:
255,295,137467,1,0,3:0:0:0:
196,295,137549,1,0,3:0:0:0:
136,295,137631,1,0,3:0:0:0:
108,136,137959,6,0,B|152:172|152:172|208:172,1,100
288,172,138450,1,0,0:0:0:0:
288,172,138778,1,0,0:0:0:0:
288,172,139106,1,0,0:0:0:0:
56,172,139270,5,0,0:0:0:0:
56,172,139598,1,0,0:0:0:0:
232,80,139926,5,0,3:0:0:0:
195,127,140008,1,0,3:0:0:0:
158,174,140090,1,0,3:0:0:0:
121,221,140172,1,0,3:0:0:0:
84,269,140254,1,0,3:0:0:0:
248,272,140582,6,0,P|312:248|344:208,1,100
368,128,141073,1,0,0:0:0:0:
368,128,141401,1,0,0:0:0:0:
368,128,141729,1,0,0:0:0:0:
168,312,141893,5,0,0:0:0:0:
168,312,142221,1,0,0:0:0:0:
364,304,142549,6,0,L|364:232,4,50
108,296,143205,6,0,P|76:252|104:196,1,100
108,120,143696,1,0,0:0:0:0:
108,120,144024,1,0,0:0:0:0:
108,120,144352,1,0,0:0:0:0:
464,320,144516,5,0,0:0:0:0:
464,320,144844,1,0,0:0:0:0:
312,284,145172,6,0,B|313:249|338:217|338:217|303:201|294:176|294:144|294:144|265:150|256:153|246:150|217:141|217:141|214:172|198:201|170:214|170:214|198:242|192:290,1,400
116,108,147139,5,0,0:0:0:0:
116,108,147303,1,0,0:0:0:0:
116,108,147467,1,0,0:0:0:0:
116,108,147631,1,0,0:0:0:0:
112,244,147795,6,0,L|224:244,1,100
384,352,148123,2,0,L|384:244,1,100
216,56,148450,2,0,L|328:56,1,100
488,164,148778,2,0,L|488:56,1,100
308,46,149106,5,0,0:0:0:0:
246,239,149270,1,0,0:0:0:0:
201,40,149434,1,0,0:0:0:0:
139,233,149598,1,0,0:0:0:0:
68,100,149762,6,0,P|48:148|72:200,1,100
260,192,150090,2,0,P|280:240|256:292,1,100
24,308,150418,2,0,P|72:328|124:304,1,100
344,312,150746,2,0,P|296:332|244:308,1,100
394,106,151073,5,0,0:0:0:0:
296,232,151237,1,0,0:0:0:0:
347,29,151401,1,0,0:0:0:0:
363,291,151565,1,0,0:0:0:0:
272,48,151729,6,0,P|296:100|308:172,1,100
240,328,152057,2,0,P|216:276|204:204,1,100
136,32,152385,2,0,L|44:120,1,100
305,141,152713,2,0,L|377:210,1,100
86,251,153041,5,0,0:0:0:0:
255,192,153205,1,0,0:0:0:0:
122,71,153368,1,0,0:0:0:0:
86,251,153532,1,0,0:0:0:0:
396,80,153696,6,0,L|396:184,1,100
256,316,154024,1,0,0:0:0:0:
184,104,154188,1,0,0:0:0:0:
116,316,154352,1,0,0:0:0:0:
184,48,154516,1,0,0:0:0:0:
256,316,154680,2,0,L|392:316,1,100
353,53,155008,5,0,0:0:0:0:
355,241,155172,1,0,0:0:0:0:
217,52,155336,1,0,0:0:0:0:
483,55,155500,1,0,0:0:0:0:
100,96,155664,6,0,P|72:148|124:288,1,200
184,104,156155,1,0,0:0:0:0:
220,288,156319,1,0,0:0:0:0:
264,104,156483,1,0,0:0:0:0:
304,292,156647,6,0,P|308:228|424:140,1,200
444,240,157139,1,0,0:0:0:0:
324,40,157303,1,0,0:0:0:0:
224,248,157467,1,0,0:0:0:0:
152,40,157631,6,0,B|68:112|68:112|68:212,1,200
320,200,158123,1,0,0:0:0:0:
68,201,158287,1,0,0:0:0:0:
320,200,158450,1,0,0:0:0:0:
68,201,158614,6,0,P|140:208|192:340,1,200
200,76,159106,1,0,0:0:0:0:
198,311,159270,1,0,0:0:0:0:
280,76,159434,1,0,0:0:0:0:
280,312,159598,6,0,L|496:312,1,200
368,72,160090,1,0,0:0:0:0:
232,244,160254,1,0,0:0:0:0:
192,36,160418,1,0,0:0:0:0:
88,224,160582,6,0,B|125:264|125:264|139:297|139:297|164:286|164:286|188:312|212:332|252:340,1,200
456,192,161073,1,0,0:0:0:0:
156,192,161237,1,0,0:0:0:0:
384,192,161401,1,0,0:0:0:0:
80,192,161565,6,0,P|100:136|164:128,1,100
384,112,161893,1,0,0:0:0:0:
168,200,162057,1,0,0:0:0:0:
460,168,162221,1,0,0:0:0:0:
160,284,162385,1,0,0:0:0:0:
456,252,162549,5,0,0:0:0:0:
196,128,162713,1,0,0:0:0:0:
356,336,162877,1,0,0:0:0:0:
464,108,163041,1,0,0:0:0:0:
156,324,163205,5,0,0:0:0:0:
400,68,163369,1,0,0:0:0:0:
256,192,163532,5,0,0:0:0:0:
256,192,165664,5,0,0:0:0:0:
256,192,165991,1,0,0:0:0:0:
256,192,166319,5,0,0:0:0:0:
256,76,166483,5,0,0:0:0:0:
300,52,166565,1,0,0:0:0:0:
352,44,166647,1,0,0:0:0:0:
400,56,166729,1,0,0:0:0:0:
440,84,166811,1,0,0:0:0:0:
468,124,166893,1,0,0:0:0:0:
484,172,166975,5,0,0:0:0:0:
476,220,167057,1,0,0:0:0:0:
456,264,167139,1,0,0:0:0:0:
420,300,167221,1,0,0:0:0:0:
372,320,167303,1,0,0:0:0:0:
320,324,167385,1,0,0:0:0:0:
277,306,167467,5,0,0:0:0:0:
236,244,167549,1,0,0:0:0:0:
248,176,167631,1,0,0:0:0:0:
312,136,167713,1,0,0:0:0:0:
379,156,167795,1,0,0:0:0:0:
448,148,167877,1,0,0:0:0:0:
472,80,167959,5,0,0:0:0:0:
424,32,168041,1,0,0:0:0:0:
352,44,168123,1,0,0:0:0:0:
296,92,168205,1,0,0:0:0:0:
228,88,168287,1,0,0:0:0:0:
156,80,168369,1,0,0:0:0:0:
103,132,168450,5,0,0:0:0:0:
112,204,168532,1,0,0:0:0:0:
172,248,168614,1,0,0:0:0:0:
244,240,168696,1,0,0:0:0:0:
316,208,168778,1,0,0:0:0:0:
268,192,168860,5,0,0:0:0:0:
220,216,168942,1,0,0:0:0:0:
204,256,169024,1,0,0:0:0:0:
212,304,169106,1,0,0:0:0:0:
248,336,169188,1,0,0:0:0:0:
300,336,169270,1,0,0:0:0:0:
348,320,169352,1,0,0:0:0:0:
382,284,169434,6,0,L|410:224,3,50
232,214,169762,2,0,L|204:274,3,50
80,176,170090,5,0,0:0:0:0:
48,136,170172,1,0,0:0:0:0:
40,88,170254,1,0,0:0:0:0:
60,44,170336,1,0,0:0:0:0:
100,16,170418,1,0,0:0:0:0:
148,12,170500,1,0,0:0:0:0:
192,32,170582,5,0,0:0:0:0:
220,76,170664,1,0,0:0:0:0:
218,125,170746,1,0,0:0:0:0:
224,176,170828,1,0,0:0:0:0:
264,200,170909,1,0,0:0:0:0:
312,192,170991,1,0,0:0:0:0:
335,149,171073,5,0,0:0:0:0:
364,112,171155,1,0,0:0:0:0:
416,104,171237,1,0,0:0:0:0:
448,136,171319,1,0,0:0:0:0:
449,185,171401,5,0,0:0:0:0:
468,140,171483,1,0,0:0:0:0:
456,88,171565,1,0,0:0:0:0:
424,48,171647,1,0,0:0:0:0:
380,32,171729,1,0,0:0:0:0:
328,36,171811,1,0,0:0:0:0:
288,64,171893,1,0,0:0:0:0:
264,108,171975,1,0,0:0:0:0:
253,155,172057,6,0,L|274:215,3,50
381,264,172385,2,0,L|385:200,3,50
312,312,172713,5,0,0:0:0:0:
264,324,172795,1,0,0:0:0:0:
220,300,172877,1,0,0:0:0:0:
216,252,172959,1,0,0:0:0:0:
249,218,173041,1,0,0:0:0:0:
288,184,173123,1,0,0:0:0:0:
296,136,173205,5,0,0:0:0:0:
280,88,173287,1,0,0:0:0:0:
240,56,173369,1,0,0:0:0:0:
196,52,173450,1,0,0:0:0:0:
148,68,173532,1,0,0:0:0:0:
120,112,173614,1,0,0:0:0:0:
120,164,173696,5,0,0:0:0:0:
152,200,173778,1,0,0:0:0:0:
200,204,173860,1,0,0:0:0:0:
240,176,173942,1,0,0:0:0:0:
248,124,174024,5,0,0:0:0:0:
252,172,174106,1,0,0:0:0:0:
280,216,174188,1,0,0:0:0:0:
324,236,174270,1,0,0:0:0:0:
372,236,174352,1,0,0:0:0:0:
416,212,174434,1,0,0:0:0:0:
440,168,174516,1,0,0:0:0:0:
440,116,174598,1,0,0:0:0:0:
410,80,174680,6,0,L|386:24,3,50
231,83,175008,2,0,L|255:27,3,50
112,124,175336,5,0,0:0:0:0:
96,172,175418,1,0,0:0:0:0:
104,220,175500,1,0,0:0:0:0:
132,260,175582,1,0,0:0:0:0:
176,284,175664,1,0,0:0:0:0:
228,280,175746,1,0,0:0:0:0:
272,260,175828,5,0,0:0:0:0:
300,220,175909,1,0,0:0:0:0:
306,169,175991,1,0,0:0:0:0:
324,124,176073,1,0,0:0:0:0:
368,108,176155,1,0,0:0:0:0:
412,128,176237,1,0,0:0:0:0:
428,171,176319,5,0,0:0:0:0:
420,224,176401,1,0,0:0:0:0:
388,256,176483,1,0,0:0:0:0:
340,272,176565,1,0,0:0:0:0:
296,260,176647,5,0,0:0:0:0:
284,304,176729,1,0,0:0:0:0:
248,336,176811,1,0,0:0:0:0:
200,344,176893,1,0,0:0:0:0:
156,324,176975,1,0,0:0:0:0:
132,284,177057,1,0,0:0:0:0:
136,232,177139,1,0,0:0:0:0:
164,192,177221,1,0,0:0:0:0:
204,162,177303,6,0,L|248:122,3,50
56,58,177631,2,0,L|100:18,3,50
122,109,177959,2,0,L|78:149,3,50
68,228,178287,2,0,L|112:268,3,50
192,312,178614,5,0,0:0:0:0:
232,328,178696,1,0,0:0:0:0:
268,316,178778,1,0,0:0:0:0:
288,280,178860,1,0,0:0:0:0:
274,238,178942,1,0,0:0:0:0:
256,200,179024,1,0,0:0:0:0:
268,164,179106,5,0,0:0:0:0:
308,144,179188,1,0,0:0:0:0:
352,136,179270,1,0,0:0:0:0:
400,148,179352,1,0,0:0:0:0:
436,180,179434,1,0,0:0:0:0:
448,228,179516,1,0,0:0:0:0:
432,276,179598,5,0,0:0:0:0:
392,304,179680,1,0,0:0:0:0:
344,308,179762,1,0,0:0:0:0:
300,288,179844,1,0,0:0:0:0:
274,245,179926,1,0,0:0:0:0:
256,200,180008,1,0,0:0:0:0:
212,188,180090,5,0,0:0:0:0:
172,216,180172,1,0,0:0:0:0:
170,263,180254,1,0,0:0:0:0:
156,312,180336,1,0,0:0:0:0:
120,344,180418,1,0,0:0:0:0:
72,352,180500,1,0,0:0:0:0:
24,336,180582,5,0,0:0:0:0:
0,296,180664,1,0,0:0:0:0:
0,244,180746,1,0,0:0:0:0:
16,204,180828,1,0,0:0:0:0:
49,169,180909,5,0,0:0:0:0:
92,146,180991,1,0,0:0:0:0:
141,147,181073,1,0,0:0:0:0:
185,172,181155,1,0,0:0:0:0:
225,199,181237,6,0,L|290:174,3,50
281,31,181565,2,0,L|257:87,3,50
344,136,181893,5,0,0:0:0:0:
396,136,181975,1,0,0:0:0:0:
436,160,182057,1,0,0:0:0:0:
456,208,182139,1,0,0:0:0:0:
448,256,182221,1,0,0:0:0:0:
420,296,182303,1,0,0:0:0:0:
372,312,182385,5,0,0:0:0:0:
328,300,182467,1,0,0:0:0:0:
284,260,182549,1,0,0:0:0:0:
272,212,182631,1,0,0:0:0:0:
289,169,182713,1,0,0:0:0:0:
316,124,182795,1,0,0:0:0:0:
308,80,182877,5,0,0:0:0:0:
272,40,182959,1,0,0:0:0:0:
224,32,183041,1,0,0:0:0:0:
184,56,183123,1,0,0:0:0:0:
160,99,183205,1,0,0:0:0:0:
172,148,183287,1,0,0:0:0:0:
216,176,183369,5,0,0:0:0:0:
264,172,183450,1,0,0:0:0:0:
296,136,183532,1,0,0:0:0:0:
336,112,183614,1,0,0:0:0:0:
384,124,183696,1,0,0:0:0:0:
408,164,183778,1,0,0:0:0:0:
389,208,183860,5,0,0:0:0:0:
324,228,183942,1,0,0:0:0:0:
288,172,184024,1,0,0:0:0:0:
308,100,184106,1,0,0:0:0:0:
368,60,184188,1,0,0:0:0:0:
440,72,184270,1,0,0:0:0:0:
488,128,184352,1,0,0:0:0:0:
488,200,184434,1,0,0:0:0:0:
453,266,184516,6,0,L|389:282,3,50
304,272,184844,2,0,L|240:256,3,50
160,336,185172,2,0,L|224:320,3,50
120,204,185500,2,0,L|168:216,3,50
256,192,185828,5,0,0:0:0:0:
236,152,185909,1,0,0:0:0:0:
236,108,185991,1,0,0:0:0:0:
252,68,186073,1,0,0:0:0:0:
292,40,186155,1,0,0:0:0:0:
332,36,186237,1,0,0:0:0:0:
376,48,186319,5,0,0:0:0:0:
408,80,186401,1,0,0:0:0:0:
419,124,186483,1,0,0:0:0:0:
416,164,186565,1,0,0:0:0:0:
392,192,186647,1,0,0:0:0:0:
352,200,186729,1,0,0:0:0:0:
317,187,186811,5,0,0:0:0:0:
280,180,186893,1,0,0:0:0:0:
244,192,186975,1,0,0:0:0:0:
224,224,187057,1,0,0:0:0:0:
223,264,187139,5,0,0:0:0:0:
212,232,187221,1,0,0:0:0:0:
180,216,187303,1,0,0:0:0:0:
148,224,187385,1,0,0:0:0:0:
123,248,187467,5,0,0:0:0:0:
96,276,187549,1,0,0:0:0:0:
56,268,187631,1,0,0:0:0:0:
36,232,187713,1,0,0:0:0:0:
51,198,187795,5,0,0:0:0:0:
96,172,187877,1,0,0:0:0:0:
144,168,187959,1,0,0:0:0:0:
188,192,188041,1,0,0:0:0:0:
212,232,188123,1,0,0:0:0:0:
256,260,188205,1,0,0:0:0:0:
308,252,188287,1,0,0:0:0:0:
340,216,188369,1,0,0:0:0:0:
346,169,188450,5,0,0:0:0:0:
324,108,188532,1,0,0:0:0:0:
280,60,188614,1,0,0:0:0:0:
220,36,188696,1,0,0:0:0:0:
156,36,188778,1,0,0:0:0:0:
96,64,188860,1,0,0:0:0:0:
52,112,188942,5,0,0:0:0:0:
32,172,189024,1,0,0:0:0:0:
40,236,189106,1,0,0:0:0:0:
72,292,189188,1,0,0:0:0:0:
124,332,189270,1,0,0:0:0:0:
184,348,189352,1,0,0:0:0:0:
245,338,189434,5,0,0:0:0:0:
296,296,189516,1,0,0:0:0:0:
304,232,189598,1,0,0:0:0:0:
264,184,189680,1,0,0:0:0:0:
195,176,189762,6,0,P|211:116|347:76,1,200
488,64,190254,1,0,0:0:0:0:
412,292,190418,1,0,0:0:0:0:
408,64,190582,1,0,0:0:0:0:
336,260,190746,1,0,0:0:0:0:
336,104,190909,1,0,0:0:0:0:
336,336,191073,2,0,L|224:336,1,100
60,336,191401,5,0,0:0:0:0:
60,92,191565,1,0,0:0:0:0:
140,280,191729,1,0,0:0:0:0:
136,48,191893,1,0,0:0:0:0:
212,232,192057,1,0,0:0:0:0:
208,8,192221,1,0,0:0:0:0:
272,184,192385,5,0,0:0:0:0:
328,184,192467,1,0,0:0:0:0:
384,184,192549,1,0,0:0:0:0:
440,184,192631,1,0,0:0:0:0:
496,184,192713,1,0,0:0:0:0:
400,316,192877,5,0,0:0:0:0:
340,92,193041,1,0,0:0:0:0:
188,240,193205,1,0,0:0:0:0:
340,92,193369,1,0,0:0:0:0:
264,332,193532,1,0,0:0:0:0:
340,92,193696,2,0,B|284:104|284:104|224:88,1,100
88,256,194024,5,0,0:0:0:0:
156,68,194188,1,0,0:0:0:0:
180,224,194352,1,0,0:0:0:0:
252,48,194516,1,0,0:0:0:0:
316,224,194680,1,0,0:0:0:0:
336,84,194844,1,0,0:0:0:0:
440,264,195008,5,0,0:0:0:0:
440,208,195090,1,0,0:0:0:0:
440,152,195172,1,0,0:0:0:0:
440,96,195254,1,0,0:0:0:0:
440,40,195336,1,0,0:0:0:0:
144,36,195500,5,0,0:0:0:0:
364,36,195664,1,0,0:0:0:0:
144,36,195828,1,0,0:0:0:0:
368,112,195991,1,0,0:0:0:0:
76,112,196155,1,0,0:0:0:0:
368,112,196319,2,0,L|368:224,1,100
116,208,196647,5,0,0:0:0:0:
368,212,196811,1,0,0:0:0:0:
240,336,196975,1,0,0:0:0:0:
240,88,197139,1,0,0:0:0:0:
112,336,197303,1,0,0:0:0:0:
368,336,197467,1,0,0:0:0:0:
176,176,197631,5,0,0:0:0:0:
352,80,197795,1,0,0:0:0:0:
352,80,197959,1,0,0:0:0:0:
104,80,198123,5,0,0:0:0:0:
328,232,198287,1,0,0:0:0:0:
328,232,198450,1,0,0:0:0:0:
192,28,198614,5,0,0:0:0:0:
192,320,198778,2,0,L|192:216,1,100
276,60,199106,2,0,L|276:172,1,100
317,317,199434,5,0,0:0:0:0:
269,333,199516,1,0,0:0:0:0:
221,329,199598,1,0,0:0:0:0:
177,305,199680,1,0,0:0:0:0:
141,269,199762,1,0,0:0:0:0:
129,221,199844,5,0,0:0:0:0:
133,173,199926,1,0,0:0:0:0:
153,129,200008,1,0,0:0:0:0:
193,97,200090,1,0,0:0:0:0:
239,81,200172,1,0,0:0:0:0:
288,80,200254,6,0,P|352:120|408:244,1,200
96,232,200746,1,0,0:0:0:0:
406,228,200909,1,0,0:0:0:0:
136,160,201073,1,0,0:0:0:0:
360,300,201237,1,0,0:0:0:0:
208,112,201401,1,0,0:0:0:0:
280,336,201565,6,0,L|160:336,1,100
128,112,201893,1,0,0:0:0:0:
164,272,202057,1,0,0:0:0:0:
200,40,202221,1,0,0:0:0:0:
104,208,202385,1,0,0:0:0:0:
100,32,202549,1,0,0:0:0:0:
208,208,202713,1,0,0:0:0:0:
292,52,202877,5,0,3:0:0:0:
340,80,202959,1,0,3:0:0:0:
388,109,203041,1,0,3:0:0:0:
436,138,203123,1,0,3:0:0:0:
484,167,203205,1,0,3:0:0:0:
240,344,203369,5,0,0:0:0:0:
316,140,203532,1,0,0:0:0:0:
148,316,203696,1,0,0:0:0:0:
236,108,203860,1,0,0:0:0:0:
64,280,204024,1,0,0:0:0:0:
152,72,204188,6,0,L|40:72,1,100
328,72,204516,1,0,0:0:0:0:
52,72,204680,1,0,0:0:0:0:
388,140,204844,1,0,0:0:0:0:
96,144,205008,1,0,0:0:0:0:
328,72,205172,1,0,0:0:0:0:
160,208,205336,1,0,0:0:0:0:
252,64,205500,5,0,0:0:0:0:
332,96,205582,1,0,0:0:0:0:
376,168,205664,1,0,0:0:0:0:
368,248,205746,1,0,0:0:0:0:
316,312,205828,5,0,0:0:0:0:
236,332,205909,1,0,0:0:0:0:
156,300,205991,1,0,0:0:0:0:
112,232,206073,1,0,0:0:0:0:
119,146,206155,5,0,0:0:0:0:
168,80,206237,1,0,0:0:0:0:
240,56,206319,1,0,0:0:0:0:
316,80,206401,1,0,0:0:0:0:
368,144,206483,1,0,0:0:0:0:
372,224,206565,5,0,0:0:0:0:
332,288,206647,1,0,0:0:0:0:
260,320,206729,1,0,0:0:0:0:
184,304,206811,1,0,0:0:0:0:
144,240,206893,5,0,0:0:0:0:
180,180,206975,1,0,0:0:0:0:
252,176,207057,1,0,0:0:0:0:
287,241,207139,1,0,0:0:0:0:
328,304,207221,5,0,0:0:0:0:
400,300,207303,1,0,0:0:0:0:
432,236,207385,1,0,0:0:0:0:
392,168,207467,1,0,0:0:0:0:
328,140,207549,5,0,0:0:0:0:
280,188,207631,1,0,0:0:0:0:
232,236,207713,1,0,0:0:0:0:
172,222,207795,1,0,0:0:0:0:
128,168,207877,5,0,0:0:0:0:
144,100,207959,1,0,0:0:0:0:
200,64,208041,1,0,0:0:0:0:
264,80,208123,1,0,0:0:0:0:
308,128,208205,5,0,0:0:0:0:
320,192,208287,1,0,0:0:0:0:
292,252,208369,1,0,0:0:0:0:
240,288,208450,1,0,0:0:0:0:
180,292,208532,5,0,0:0:0:0:
124,260,208614,1,0,0:0:0:0:
92,204,208696,1,0,0:0:0:0:
95,139,208778,1,0,0:0:0:0:
136,100,208860,5,0,0:0:0:0:
196,104,208942,1,0,0:0:0:0:
236,148,209024,1,0,0:0:0:0:
232,208,209106,1,0,0:0:0:0:
248,260,209188,1,0,0:0:0:0:
300,288,209270,1,0,0:0:0:0:
356,268,209352,1,0,0:0:0:0:
381,213,209434,6,0,L|449:221,3,50
280,78,209762,2,0,L|212:70,3,50
100,64,210090,5,0,0:0:0:0:
92,112,210172,1,0,0:0:0:0:
108,160,210254,1,0,0:0:0:0:
136,200,210336,1,0,0:0:0:0:
180,220,210418,1,0,0:0:0:0:
228,224,210500,1,0,0:0:0:0:
276,208,210582,1,0,0:0:0:0:
312,174,210664,1,0,0:0:0:0:
216,96,210746,6,0,P|272:64|408:116,1,200
412,216,211237,1,0,0:0:0:0:
376,256,211319,1,0,0:0:0:0:
324,272,211401,1,0,0:0:0:0:
272,272,211483,1,0,0:0:0:0:
224,248,211565,1,0,0:0:0:0:
176,160,211729,5,0,0:0:0:0:
84,64,211893,5,0,0:0:0:0:
84,120,211975,1,0,0:0:0:0:
84,176,212057,1,0,0:0:0:0:
84,232,212139,1,0,0:0:0:0:
84,288,212221,1,0,0:0:0:0:
212,288,212385,6,0,L|212:236,4,50
328,340,212877,5,0,0:0:0:0:
348,287,212959,1,0,0:0:0:0:
368,235,213041,1,0,0:0:0:0:
388,183,213123,1,0,0:0:0:0:
408,130,213205,1,0,0:0:0:0:
280,112,213369,5,0,0:0:0:0:
244,100,213450,1,0,0:0:0:0:
216,120,213532,1,0,0:0:0:0:
216,160,213614,1,0,0:0:0:0:
243,180,213696,1,0,0:0:0:0:
272,208,213778,1,0,0:0:0:0:
284,240,213860,5,0,0:0:0:0:
276,276,213942,1,0,0:0:0:0:
248,304,214024,1,0,0:0:0:0:
212,312,214106,1,0,0:0:0:0:
176,300,214188,1,0,0:0:0:0:
152,272,214270,1,0,0:0:0:0:
146,236,214352,5,0,0:0:0:0:
160,200,214434,1,0,0:0:0:0:
192,184,214516,1,0,0:0:0:0:
220,200,214598,1,0,0:0:0:0:
229,237,214680,1,0,0:0:0:0:
360,240,214844,5,0,0:0:0:0:
344,184,214926,1,0,0:0:0:0:
324,132,215008,1,0,0:0:0:0:
304,80,215090,1,0,0:0:0:0:
276,32,215172,1,0,0:0:0:0:
184,36,215336,6,0,L|140:36,4,37.5000014305115
92,104,215828,5,0,0:0:0:0:
92,160,215909,1,0,0:0:0:0:
92,216,215991,1,0,0:0:0:0:
92,268,216073,5,0,0:0:0:0:
112,296,216155,1,0,0:0:0:0:
144,304,216237,1,0,0:0:0:0:
172,283,216319,1,0,0:0:0:0:
196,256,216401,1,0,0:0:0:0:
232,248,216483,1,0,0:0:0:0:
264,272,216565,5,0,0:0:0:0:
272,305,216647,1,0,0:0:0:0:
288,340,216729,1,0,0:0:0:0:
324,348,216811,1,0,0:0:0:0:
356,328,216893,1,0,0:0:0:0:
361,293,216975,1,0,0:0:0:0:
352,256,217057,5,0,0:0:0:0:
328,228,217139,1,0,0:0:0:0:
292,216,217221,1,0,0:0:0:0:
256,222,217303,1,0,0:0:0:0:
116,160,217467,5,0,0:0:0:0:
167,137,217549,1,0,0:0:0:0:
218,114,217631,1,0,0:0:0:0:
269,91,217713,1,0,0:0:0:0:
320,68,217795,1,0,0:0:0:0:
288,224,217959,6,0,L|356:224,4,37.5000014305115
116,308,218450,5,0,0:0:0:0:
116,252,218532,1,0,0:0:0:0:
115,195,218614,1,0,0:0:0:0:
144,168,218696,5,0,0:0:0:0:
168,144,218778,1,0,0:0:0:0:
196,120,218860,1,0,0:0:0:0:
224,92,218942,1,0,0:0:0:0:
252,68,219024,1,0,0:0:0:0:
280,42,219106,1,0,0:0:0:0:
308,68,219188,5,0,0:0:0:0:
336,96,219270,1,0,0:0:0:0:
360,120,219352,1,0,0:0:0:0:
384,148,219434,1,0,0:0:0:0:
412,176,219516,1,0,0:0:0:0:
440,200,219598,1,0,0:0:0:0:
464,228,219680,1,0,0:0:0:0:
396,292,219762,6,0,L|340:292,4,37.5000014305115
236,292,220172,5,0,0:0:0:0:
192,272,220254,1,0,0:0:0:0:
164,232,220336,1,0,0:0:0:0:
156,180,220418,1,0,0:0:0:0:
172,136,220500,1,0,0:0:0:0:
212,104,220582,1,0,0:0:0:0:
256,92,220664,5,0,0:0:0:0:
308,104,220746,1,0,0:0:0:0:
344,140,220828,1,0,0:0:0:0:
356,187,220909,1,0,0:0:0:0:
340,236,220991,1,0,0:0:0:0:
292,252,221073,1,0,0:0:0:0:
249,231,221155,1,0,0:0:0:0:
216,197,221237,6,0,P|193:118|305:46,1,200
428,68,221729,5,0,0:0:0:0:
428,68,221811,1,0,0:0:0:0:
428,68,221893,2,0,L|429:177,1,100
421,263,222221,1,0,0:0:0:0:
344,262,222385,5,0,0:0:0:0:
344,262,222713,1,0,0:0:0:0:
344,262,223041,2,0,B|334:214|364:189|364:189|341:182|331:160|331:160|348:125|357:113|357:113|339:57,1,200
146,142,223532,2,0,B|99:186|99:186|99:234,1,100
97,310,223860,1,0,0:0:0:0:
300,280,224352,5,0,0:0:0:0:
300,280,224434,1,0,0:0:0:0:
300,280,224516,2,0,P|334:229|334:173,1,100
338,105,224844,1,0,0:0:0:0:
270,55,225008,5,0,0:0:0:0:
270,55,225336,1,0,0:0:0:0:
270,55,225664,2,0,P|157:95|111:175,1,200
133,248,226319,5,0,0:0:0:0:
133,248,226401,1,0,0:0:0:0:
133,248,226483,2,0,L|253:249,1,100
226,329,226975,5,0,0:0:0:0:
226,329,227057,1,0,0:0:0:0:
226,329,227139,2,0,L|346:330,1,100
417,327,227467,1,0,0:0:0:0:
416,242,227631,5,0,0:0:0:0:
416,242,227959,1,0,0:0:0:0:
416,242,228287,2,0,B|412:187|412:187|377:104,1,100
341,73,228778,1,0,0:0:0:0:
256,192,229106,5,0,0:0:0:0:
256,192,230418,5,0,0:0:0:0:
116,44,231729,5,0,0:0:0:0:
208,300,231893,1,0,0:0:0:0:
264,44,232057,1,0,0:0:0:0:
351,303,232221,2,0,P|407:271|423:215,1,100
424,84,232549,5,0,0:0:0:0:
421,240,232713,1,0,0:0:0:0:
424,84,232877,2,0,P|348:40|216:36,1,200
96,140,233369,2,0,L|300:140,1,200
295,139,233860,1,0,0:0:0:0:
76,344,234352,5,0,0:0:0:0:
344,216,234516,1,0,0:0:0:0:
28,268,234680,1,0,0:0:0:0:
284,160,234844,2,0,P|356:136|396:156,1,100
408,312,235172,5,0,0:0:0:0:
404,48,235336,1,0,0:0:0:0:
408,312,235500,2,0,B|304:328|304:328|204:304,1,200
108,228,235991,2,0,B|212:212|212:212|312:236,1,200
304,234,236483,1,0,0:0:0:0:
360,64,236975,5,0,0:0:0:0:
211,263,237139,1,0,0:0:0:0:
139,54,237303,1,0,0:0:0:0:
392,144,237467,2,0,P|432:188|452:236,1,100
168,224,237795,5,0,0:0:0:0:
448,224,237959,1,0,0:0:0:0:
168,224,238123,2,0,B|196:156|192:120|192:120|244:116|244:116|256:72|256:68,1,200
340,80,238614,2,0,B|324:148|305:177|264:192|264:192|284:212|284:212|260:268,1,200
272,239,239106,1,0,0:0:0:0:
204,288,239598,5,0,0:0:0:0:
221,264,239680,1,0,0:0:0:0:
222,236,239762,1,0,0:0:0:0:
208,209,239844,1,0,0:0:0:0:
180,194,239926,1,0,0:0:0:0:
152,198,240008,1,0,0:0:0:0:
128,216,240090,5,0,0:0:0:0:
146,193,240172,1,0,0:0:0:0:
152,164,240254,1,0,0:0:0:0:
145,135,240336,1,0,0:0:0:0:
124,112,240418,1,0,0:0:0:0:
97,101,240500,1,0,0:0:0:0:
67,103,240582,5,0,0:0:0:0:
60,131,240664,1,0,0:0:0:0:
66,158,240746,1,0,0:0:0:0:
88,179,240828,1,0,0:0:0:0:
118,182,240909,5,0,0:0:0:0:
103,206,240991,1,0,0:0:0:0:
101,236,241073,1,0,0:0:0:0:
118,263,241155,1,0,0:0:0:0:
145,272,241237,1,0,0:0:0:0:
172,269,241319,1,0,0:0:0:0:
195,249,241401,5,0,0:0:0:0:
194,278,241483,1,0,0:0:0:0:
208,308,241565,1,0,0:0:0:0:
235,318,241647,1,0,0:0:0:0:
263,316,241729,1,0,0:0:0:0:
286,296,241811,1,0,0:0:0:0:
290,260,241893,6,0,L|339:230,3,50
362,160,242221,5,0,0:0:0:0:
360,112,242303,1,0,0:0:0:0:
319,82,242385,1,0,0:0:0:0:
274,93,242467,1,0,0:0:0:0:
251,136,242549,1,0,0:0:0:0:
234,181,242631,1,0,0:0:0:0:
188,197,242713,5,0,0:0:0:0:
144,175,242795,1,0,0:0:0:0:
134,127,242877,1,0,0:0:0:0:
121,80,242959,1,0,0:0:0:0:
74,65,243041,1,0,0:0:0:0:
35,90,243123,1,0,0:0:0:0:
32,140,243205,5,0,0:0:0:0:
60,184,243287,1,0,0:0:0:0:
105,202,243369,1,0,0:0:0:0:
151,195,243450,1,0,0:0:0:0:
187,161,243532,1,0,0:0:0:0:
220,123,243614,1,0,0:0:0:0:
267,108,243696,5,0,0:0:0:0:
316,120,243778,1,0,0:0:0:0:
350,151,243860,1,0,0:0:0:0:
364,201,243942,1,0,0:0:0:0:
352,249,244024,1,0,0:0:0:0:
316,282,244106,1,0,0:0:0:0:
267,293,244188,5,0,0:0:0:0:
219,277,244270,1,0,0:0:0:0:
188,239,244352,1,0,0:0:0:0:
165,194,244434,1,0,0:0:0:0:
161,144,244516,1,0,0:0:0:0:
177,98,244598,1,0,0:0:0:0:
210,59,244680,5,0,0:0:0:0:
255,34,244762,1,0,0:0:0:0:
305,26,244844,1,0,0:0:0:0:
354,38,244926,1,0,0:0:0:0:
394,68,245008,1,0,0:0:0:0:
420,108,245090,1,0,0:0:0:0:
429,157,245172,5,0,0:0:0:0:
417,205,245254,1,0,0:0:0:0:
377,226,245336,1,0,0:0:0:0:
333,214,245418,1,0,0:0:0:0:
312,168,245500,1,0,0:0:0:0:
293,123,245582,1,0,0:0:0:0:
249,98,245664,5,0,0:0:0:0:
199,97,245746,1,0,0:0:0:0:
155,120,245828,1,0,0:0:0:0:
133,162,245909,1,0,0:0:0:0:
135,213,245991,1,0,0:0:0:0:
161,253,246073,1,0,0:0:0:0:
203,275,246155,6,0,L|203:204,3,50
315,152,246483,2,0,L|315:223,3,50
377,320,246811,2,0,L|377:249,3,50
467,213,247139,2,0,L|467:284,3,50
410,155,247467,5,0,0:0:0:0:
388,111,247549,1,0,0:0:0:0:
346,88,247631,1,0,0:0:0:0:
297,95,247713,1,0,0:0:0:0:
261,129,247795,1,0,0:0:0:0:
254,178,247877,1,0,0:0:0:0:
277,221,247959,5,0,0:0:0:0:
294,271,248041,1,0,0:0:0:0:
284,317,248123,1,0,0:0:0:0:
249,349,248205,1,0,0:0:0:0:
200,359,248287,1,0,0:0:0:0:
155,341,248369,1,0,0:0:0:0:
124,301,248450,5,0,0:0:0:0:
118,251,248532,1,0,0:0:0:0:
158,219,248614,1,0,0:0:0:0:
197,186,248696,1,0,0:0:0:0:
195,137,248778,1,0,0:0:0:0:
157,110,248860,1,0,0:0:0:0:
109,126,248942,5,0,0:0:0:0:
63,125,249024,1,0,0:0:0:0:
36,88,249106,1,0,0:0:0:0:
55,46,249188,1,0,0:0:0:0:
103,42,249270,1,0,0:0:0:0:
154,51,249352,1,0,0:0:0:0:
206,41,249434,5,0,0:0:0:0:
253,24,249516,1,0,0:0:0:0:
303,27,249598,1,0,0:0:0:0:
348,46,249680,1,0,0:0:0:0:
381,83,249762,1,0,0:0:0:0:
394,130,249844,1,0,0:0:0:0:
377,176,249926,5,0,0:0:0:0:
335,202,250008,1,0,0:0:0:0:
285,196,250090,1,0,0:0:0:0:
250,163,250172,1,0,0:0:0:0:
219,124,250254,1,0,0:0:0:0:
172,109,250336,1,0,0:0:0:0:
125,120,250418,5,0,0:0:0:0:
92,158,250500,1,0,0:0:0:0:
86,208,250582,1,0,0:0:0:0:
108,253,250664,1,0,0:0:0:0:
149,276,250746,1,0,0:0:0:0:
200,271,250828,1,0,0:0:0:0:
240,243,250909,5,0,0:0:0:0:
258,197,250991,1,0,0:0:0:0:
250,149,251073,1,0,0:0:0:0:
217,109,251155,1,0,0:0:0:0:
170,94,251237,1,0,0:0:0:0:
123,105,251319,1,0,0:0:0:0:
85,141,251401,5,0,0:0:0:0:
86,202,251483,1,0,0:0:0:0:
129,240,251565,1,0,0:0:0:0:
188,233,251647,1,0,0:0:0:0:
219,185,251729,1,0,0:0:0:0:
242,131,251811,1,0,0:0:0:0:
297,114,251893,5,0,0:0:0:0:
351,144,251975,1,0,0:0:0:0:
358,201,252057,1,0,0:0:0:0:
333,253,252139,1,0,0:0:0:0:
277,282,252221,1,0,0:0:0:0:
220,274,252303,1,0,0:0:0:0:
177,234,252385,5,0,0:0:0:0:
165,178,252467,1,0,0:0:0:0:
186,120,252549,1,0,0:0:0:0:
234,89,252631,1,0,0:0:0:0:
291,68,252713,5,0,0:0:0:0:
454,133,252877,1,0,0:0:0:0:
454,133,253041,1,0,0:0:0:0:
213,152,253205,5,0,0:0:0:0:
454,55,253369,1,0,0:0:0:0:
454,55,253533,1,0,0:0:0:0:
212,239,253696,5,0,0:0:0:0:
452,242,253860,2,0,L|452:133,1,100
213,148,254188,5,0,0:0:0:0:
452,142,254352,2,0,P|412:77|366:59,1,100
214,57,254680,5,0,0:0:0:0:
214,57,254844,1,0,0:0:0:0:
213,148,255008,5,0,0:0:0:0:
213,148,255172,1,0,0:0:0:0:
214,240,255336,6,0,L|316:240,2,100
417,160,255828,2,0,L|315:160,2,100
316,84,256319,5,0,0:0:0:0:
254,25,256483,1,0,0:0:0:0:
241,104,256647,1,0,0:0:0:0:
92,201,256811,5,0,0:0:0:0:
154,142,256975,1,0,0:0:0:0:
167,221,257139,1,0,0:0:0:0:
299,260,257303,5,0,0:0:0:0:
299,260,257467,1,0,0:0:0:0:
432,262,257631,5,0,0:0:0:0:
432,262,257795,1,0,0:0:0:0:
346,138,257959,5,0,0:0:0:0:
156,137,258123,1,0,0:0:0:0:
346,138,258287,1,0,0:0:0:0:
153,234,258450,5,0,0:0:0:0:
348,38,258614,1,0,0:0:0:0:
153,234,258778,1,0,0:0:0:0:
157,46,258942,6,0,P|99:58|68:115,1,100
74,87,259270,1,0,0:0:0:0:
311,102,259434,6,0,L|311:212,1,100
311,202,259762,1,0,0:0:0:0:
187,305,259926,6,0,L|187:195,1,100
106,224,260254,2,0,L|106:114,1,100
192,76,260582,5,0,0:0:0:0:
240,63,260664,1,0,0:0:0:0:
286,81,260746,1,0,0:0:0:0:
316,118,260828,1,0,0:0:0:0:
322,168,260909,1,0,0:0:0:0:
299,211,260991,1,0,0:0:0:0:
253,234,261073,5,0,0:0:0:0:
205,231,261155,1,0,0:0:0:0:
165,199,261237,1,0,0:0:0:0:
122,179,261319,1,0,0:0:0:0:
79,198,261401,1,0,0:0:0:0:
65,244,261483,1,0,0:0:0:0:
90,285,261565,5,0,0:0:0:0:
137,303,261647,1,0,0:0:0:0:
183,284,261729,1,0,0:0:0:0:
182,238,261811,2,0,L|195:179,1,50
231,84,262057,5,0,0:0:0:0:
280,73,262139,1,0,0:0:0:0:
322,93,262221,1,0,0:0:0:0:
350,136,262303,1,0,0:0:0:0:
345,184,262385,1,0,0:0:0:0:
311,220,262467,2,0,L|270:274,1,50
310,324,262713,5,0,0:0:0:0:
361,316,262795,1,0,0:0:0:0:
398,286,262877,1,0,0:0:0:0:
412,238,262959,1,0,0:0:0:0:
397,191,263041,1,0,0:0:0:0:
365,160,263123,1,0,0:0:0:0:
265,116,263532,5,0,0:0:0:0:
170,117,264024,1,0,0:0:0:0:
81,118,264516,1,0,0:0:0:0:
81,118,265008,2,0,B|66:146|94:164|94:164|81:189|81:189|94:204|103:223|106:267,1,150
188,266,265664,1,0,0:0:0:0:
357,268,266155,5,0,0:0:0:0:
359,182,266647,1,0,0:0:0:0:
360,100,267139,1,0,0:0:0:0:
360,100,267631,2,0,B|314:59|291:58|291:58|276:80|276:80|242:83|220:75,1,150
236,175,268287,1,0,0:0:0:0:
132,285,268778,5,0,0:0:0:0:
85,209,269270,1,0,0:0:0:0:
179,211,269762,1,0,0:0:0:0:
179,211,270254,2,0,L|299:109,1,150
356,57,270909,1,0,0:0:0:0:
256,192,271401,5,0,0:0:0:0:
256,192,271893,1,0,0:0:0:0:
256,192,272385,1,0,0:0:0:0:
256,192,272467,12,0,275008,0:0:0:0:
