osu file format v14

[General]
AudioFilename: audio.mp3
AudioLeadIn: 0
PreviewTime: 611294
Countdown: 0
SampleSet: Soft
StackLeniency: 0.4
Mode: 0
LetterboxInBreaks: 0
WidescreenStoryboard: 0

[Editor]
Bookmarks: 12617,32827,53038,63143,73249,88406,108618,128830,149040,171622,205504,228092,237989,252393,253193,263593,279066,301220,315989,334450,349220,363989,378758,386143,393527,408286,423075,437835,467143,471477,481077,506677,525877,538677,572559,583853,595147,606441,612088,628323,643147,645970,657264,668559,679853,691147,713735,725029
DistanceSpacing: 0.9
BeatDivisor: 4
GridSize: 32
TimelineZoom: 1.2

[Metadata]
Title:EXTREME SOUNDCLOWN MEGAMIX V
TitleUnicode:EXTREME SOUNDCLOWN MEGAMIX V
Artist:Gyrotron
ArtistUnicode:Gyrotron
Creator:Alvieee
Version:Goodbye To A World
Source:
Tags:marathon
BeatmapID:2082927
BeatmapSetID:995734

[Difficulty]
HPDrainRate:4
CircleSize:4.4
OverallDifficulty:8.8
ApproachRate:9.2
SliderMultiplier:1.4
SliderTickRate:1

[Events]
//Background and Video events
0,0,"juhjuzujzzujf.png",0,0
//Break Periods
2,538876,571989
//Storyboard Layer 0 (Background)
//Storyboard Layer 1 (Fail)
//Storyboard Layer 2 (Pass)
//Storyboard Layer 3 (Foreground)
//Storyboard Sound Samples

[TimingPoints]
0,315.789473684211,4,2,1,15,1,0
145,315.789473684211,4,2,1,15,1,0
1249,315.789473684211,4,2,1,15,1,0
4406,-200,4,2,1,15,0,0
9459,-166.666666666667,4,2,1,20,0,0
10091,-142.857142857143,4,2,1,30,0,0
10722,-142.857142857143,4,2,1,40,0,0
11354,-125,4,2,1,50,0,0
12617,-111.111111111111,4,2,1,50,0,0
50670,-111.111111111111,4,2,1,5,0,0
50827,-125,4,2,1,50,0,0
50985,-125,4,2,1,5,0,0
51143,-142.857142857143,4,2,1,50,0,0
51301,-142.857142857143,4,2,1,5,0,0
51459,-166.666666666666,4,2,1,50,0,0
51617,-166.666666666666,4,2,1,5,0,0
51775,-200,4,2,1,50,0,0
51933,-200,4,2,1,5,0,0
52091,-222.222222222222,4,2,1,50,0,0
52249,-222.222222222222,4,2,1,5,0,0
52406,-250,4,2,1,50,0,0
52564,-250,4,2,1,5,0,0
52722,-285.714285714286,4,2,1,50,0,0
52880,-285.714285714286,4,2,1,5,0,0
53038,-250.000000000001,4,2,1,23,0,0
57301,-250.000000000001,4,2,1,5,0,0
57459,-250.000000000001,4,2,1,23,0,0
60617,-166.666666666667,4,2,1,35,0,0
60854,-166.666666666667,4,2,1,5,0,0
60933,-166.666666666667,4,2,1,35,0,0
61485,-166.666666666667,4,2,1,5,0,0
61564,-166.666666666667,4,2,1,35,0,0
62117,-166.666666666667,4,2,1,5,0,0
62196,-166.666666666667,4,2,1,35,0,0
62749,-166.666666666667,4,2,1,5,0,0
62827,-166.666666666667,4,2,1,35,0,0
63143,-100,4,2,1,50,0,0
63380,-100,4,2,1,5,0,0
63459,-83.3333333333333,4,2,1,50,0,0
63696,-83.3333333333333,4,2,1,5,0,0
63775,-83.3333333333333,4,2,1,50,0,0
73249,-142.857142857143,4,2,1,30,0,0
78301,-142.857142857143,4,2,1,31,0,0
79564,-142.857142857143,4,2,1,32,0,0
80827,-142.857142857143,4,2,1,34,0,0
82091,-142.857142857143,4,2,1,36,0,0
83354,-142.857142857143,4,2,1,38,0,0
84617,-142.857142857143,4,2,1,40,0,0
85880,-100,4,2,1,45,0,0
86512,-111.111111111111,4,2,1,45,0,0
86985,-125,4,2,1,45,0,0
87775,-100,4,2,1,45,0,0
88091,-83.3333333333333,4,2,1,45,0,0
88406,-66.6666666666667,4,2,1,55,0,1
108617,-166.666666666667,4,2,1,23,0,0
129696,-166.666666666667,4,2,1,5,0,0
129775,-166.666666666667,4,2,1,30,0,0
130327,-166.666666666667,4,2,1,5,0,0
130406,-166.666666666667,4,2,1,30,0,0
132775,-166.666666666667,4,2,1,5,0,0
132933,-166.666666666667,4,2,1,30,0,0
149040,352.941176470588,4,2,1,50,1,0
149040,-153.846153846154,4,2,1,30,0,0
165981,-142.857142857143,4,2,1,45,0,0
171622,352.941176470588,4,2,1,50,1,0
171622,-76.9230769230769,4,2,1,55,0,0
173298,-76.9230769230769,4,2,1,5,0,0
173386,-76.9230769230769,4,2,1,55,0,0
174710,-76.9230769230769,4,2,1,5,0,0
174798,-76.9230769230769,4,2,1,55,0,0
179651,-76.9230769230769,4,2,1,5,0,0
179739,-76.9230769230769,4,2,1,55,0,0
188563,-90.9090909090909,4,2,1,50,0,0
218739,-111.111111111111,4,2,1,50,0,0
222445,-90.9090909090908,4,2,1,50,0,0
228092,-86.9565217391304,4,2,1,50,0,0
232327,-66.6666666666667,4,2,1,50,0,0
232769,-66.6666666666667,4,2,1,5,0,0
232857,-66.6666666666667,4,2,1,50,0,0
233739,-86.9565217391304,4,2,1,50,0,0
237989,406.78,4,2,1,15,1,0
237989,-166.666666666667,4,2,1,15,0,0
238970,387.1,4,2,1,30,1,0
238970,-166.666666666667,4,2,1,30,0,0
239560,400,4,2,1,50,1,0
239560,-125,4,2,1,50,0,0
239993,400,4,2,1,50,1,0
239993,-125,4,2,1,50,0,0
241193,400,4,2,1,50,1,0
241193,-125,4,2,1,50,0,0
252393,-33.3333333333333,4,2,1,50,0,0
252493,-33.3333333333333,4,2,1,5,0,0
252793,-50,4,2,1,50,0,0
252893,-50,4,2,1,5,0,0
253193,-37.037037037037,4,2,1,50,0,0
253393,-37.037037037037,4,2,1,30,0,0
253593,-37.037037037037,4,2,1,50,0,0
253793,-37.037037037037,4,2,1,30,0,0
253993,-37.037037037037,4,2,1,50,0,0
254093,-37.037037037037,4,2,1,5,0,0
254193,-37.037037037037,4,2,1,50,0,0
254293,-37.037037037037,4,2,1,5,0,0
254393,-37.037037037037,4,2,1,50,0,0
254893,-37.037037037037,4,2,1,5,0,0
254993,-37.037037037037,4,2,1,50,0,0
255043,-37.037037037037,4,2,1,5,0,0
255193,-37.037037037037,4,2,1,50,0,0
255243,-37.037037037037,4,2,1,5,0,0
255393,-37.037037037037,4,2,1,50,0,0
255443,-37.037037037037,4,2,1,5,0,0
255593,-37.037037037037,4,2,1,50,0,0
255793,-37.037037037037,4,2,1,50,0,0
255843,-37.037037037037,4,2,1,5,0,0
255993,-37.037037037037,4,2,1,50,0,0
256193,-37.037037037037,4,2,1,30,0,0
256393,-37.037037037037,4,2,1,50,0,0
256443,-37.037037037037,4,2,1,5,0,0
256593,-37.037037037037,4,2,1,50,0,0
256643,-37.037037037037,4,2,1,5,0,0
256793,-37.037037037037,4,2,1,50,0,0
256843,-37.037037037037,4,2,1,5,0,0
256993,-37.037037037037,4,2,1,50,0,0
257043,-37.037037037037,4,2,1,5,0,0
257193,-37.037037037037,4,2,1,50,0,0
257293,-37.037037037037,4,2,1,5,0,0
257393,-37.037037037037,4,2,1,50,0,0
257443,-37.037037037037,4,2,1,5,0,0
257593,-37.037037037037,4,2,1,50,0,0
257793,-37.037037037037,4,2,1,30,0,0
257993,-37.037037037037,4,2,1,50,0,0
258293,-37.037037037037,4,2,1,5,0,0
258393,-37.037037037037,4,2,1,50,0,0
258793,-33.3333333333333,4,2,1,50,0,0
258893,-33.3333333333333,4,2,1,5,0,0
259193,-50,4,2,1,50,0,0
259293,-50,4,2,1,5,0,0
259593,-37.037037037037,4,2,1,50,0,0
259793,-37.037037037037,4,2,1,30,0,0
259993,-37.037037037037,4,2,1,50,0,0
260193,-37.037037037037,4,2,1,30,0,0
260393,-37.037037037037,4,2,1,50,0,0
260493,-37.037037037037,4,2,1,5,0,0
260593,-37.037037037037,4,2,1,50,0,0
260693,-37.037037037037,4,2,1,5,0,0
260793,-37.037037037037,4,2,1,50,0,0
261193,-37.037037037037,4,2,1,50,0,0
261293,-37.037037037037,4,2,1,5,0,0
261393,-37.037037037037,4,2,1,50,0,0
261443,-37.037037037037,4,2,1,5,0,0
261593,-37.037037037037,4,2,1,50,0,0
261993,-37.037037037037,4,2,1,50,0,0
262093,-37.037037037037,4,2,1,5,0,0
262193,-37.037037037037,4,2,1,50,0,0
262243,-37.037037037037,4,2,1,5,0,0
262393,-37.037037037037,4,2,1,50,0,0
262593,-37.037037037037,4,2,1,30,0,0
262793,-37.037037037037,4,2,1,50,0,0
262843,-37.037037037037,4,2,1,5,0,0
262993,-37.037037037037,4,2,1,50,0,0
263043,-37.037037037037,4,2,1,5,0,0
263193,-37.037037037037,4,2,1,50,0,0
263243,-37.037037037037,4,2,1,5,0,0
263393,-37.037037037037,4,2,1,50,0,0
263443,-37.037037037037,4,2,1,5,0,0
263593,-37.037037037037,4,2,1,50,0,0
264793,-125,4,2,1,50,0,0
266793,-83.3333333333333,4,2,1,50,0,0
268391,428.571428571429,4,2,1,50,1,0
271819,444.444444444444,4,2,1,50,1,0
275374,461.538461538462,4,2,1,50,1,0
277220,-142.857142857143,4,2,1,50,0,0
277566,-142.857142857143,4,2,1,5,0,0
277681,-83.3333333333333,4,2,1,50,0,0
278027,-83.3333333333333,4,2,1,5,0,0
278143,-83.3333333333333,4,2,1,50,0,0
278258,-83.3333333333333,4,2,1,5,0,0
278374,-83.3333333333333,4,2,1,50,0,0
278489,-83.3333333333333,4,2,1,5,0,0
278604,-83.3333333333333,4,2,1,50,0,0
279066,-34.4827586206897,4,2,1,50,0,0
279758,-133.333333333333,4,2,1,50,0,0
282758,-41.6666666666667,4,2,1,50,0,0
283104,-41.6666666666667,4,2,1,10,0,0
283220,-133.333333333333,4,2,1,50,0,0
283566,-133.333333333333,4,2,1,10,0,0
283681,-133.333333333333,4,2,1,50,0,0
283797,-33.3333333333333,4,2,1,50,0,0
284143,-37.037037037037,4,2,1,50,0,0
284489,-35.7142857142857,4,2,1,50,0,0
285527,-76.9230769230769,4,2,1,50,0,0
285758,-76.9230769230769,4,2,1,25,0,0
285989,-76.9230769230769,4,2,1,50,0,0
286220,-133.333333333333,4,2,1,50,0,0
286335,-133.333333333333,4,2,1,25,0,0
286450,-133.333333333333,4,2,1,50,0,0
286566,-83.3333333333333,4,2,1,50,0,0
286797,-83.3333333333333,4,2,1,25,0,0
286912,-47.6190476190476,4,2,1,50,0,0
287143,-47.6190476190476,4,2,1,5,0,0
287258,-43.4782608695652,4,2,1,50,0,0
287489,-43.4782608695652,4,2,1,5,0,0
287604,-43.4782608695652,4,2,1,50,0,0
287835,-133.333333333333,4,2,1,50,0,0
288989,-76.9230769230769,4,2,1,50,0,0
289681,-133.333333333333,4,2,1,50,0,0
290604,-34.4827586206897,4,2,1,50,0,0
291008,-34.4827586206897,4,2,1,5,0,0
291066,-52.6315789473684,4,2,1,50,0,0
291527,-133.333333333333,4,2,1,50,0,0
293027,-133.333333333333,4,2,1,5,0,0
293143,-133.333333333333,4,2,1,50,0,0
293258,-133.333333333333,4,2,1,5,0,0
293374,-133.333333333333,4,2,1,50,0,0
293720,-133.333333333333,4,2,1,5,0,0
293835,458.018461538462,4,2,1,50,1,0
293835,-100,4,2,1,50,0,0
293949,-100,4,2,1,5,0,0
294293,-100,4,2,1,50,0,0
294522,-100,4,2,1,50,0,0
294636,-100,4,2,1,5,0,0
294980,-100,4,2,1,50,0,0
295094,-100,4,2,1,5,0,0
295209,-100,4,2,1,50,0,0
295667,-34.4827586206897,4,2,1,50,0,0
296697,-34.4827586206897,4,2,1,5,0,0
296812,-41.6666666666667,4,2,1,50,0,0
296926,-41.6666666666667,4,2,1,5,0,0
297041,-52.6315789473684,4,2,1,50,0,0
298186,-52.6315789473684,4,2,1,10,0,0
298415,-52.6315789473684,4,2,1,50,0,0
298529,-52.6315789473684,4,2,1,5,0,0
298644,-52.6315789473684,4,2,1,50,0,0
298758,-52.6315789473684,4,2,1,5,0,0
298873,-52.6315789473684,4,2,1,50,0,0
298987,-52.6315789473684,4,2,1,5,0,0
299102,-52.6315789473684,4,2,1,50,0,0
299362,461.538461538462,4,2,1,50,1,0
299362,-133.333333333333,4,2,1,50,0,0
301220,461.538461538462,4,2,1,50,1,0
301220,-100,4,2,1,40,0,0
314143,-100,4,2,1,50,0,0
315989,-40,4,2,1,50,0,0
316104,-40,4,2,1,5,0,0
316220,-40,4,2,1,50,0,0
316335,-40,4,2,1,5,0,0
316450,-40,4,2,1,50,0,0
316566,-40,4,2,1,5,0,0
316681,-40,4,2,1,50,0,0
316796,-40,4,2,1,5,0,0
316912,-40,4,2,1,50,0,0
317027,-40,4,2,1,5,0,0
317143,-40,4,2,1,50,0,0
317258,-40,4,2,1,5,0,0
317373,-40,4,2,1,50,0,0
317720,-40,4,2,1,5,0,0
317835,-40,4,2,1,50,0,0
318873,-40,4,2,1,5,0,0
318989,-40,4,2,1,50,0,0
319104,-40,4,2,1,5,0,0
319220,-40,4,2,1,50,0,0
319277,-40,4,2,1,5,0,0
319335,-40,4,2,1,50,0,0
319681,-40,4,2,1,50,0,0
319796,-40,4,2,1,5,0,0
319912,-40,4,2,1,50,0,0
320027,-40,4,2,1,5,0,0
320143,-40,4,2,1,50,0,0
320258,-40,4,2,1,5,0,0
320373,-40,4,2,1,50,0,0
320489,-40,4,2,1,5,0,0
320604,-40,4,2,1,50,0,0
320720,-40,4,2,1,5,0,0
320835,-40,4,2,1,50,0,0
320950,-40,4,2,1,5,0,0
321066,-40,4,2,1,50,0,0
323604,-40,4,2,1,5,0,0
325220,-50,4,2,1,50,0,0
325450,-50,4,2,1,5,0,0
327066,-50,4,2,1,50,0,0
327296,-50,4,2,1,5,0,0
327989,-50,4,2,1,50,0,0
328220,-50,4,2,1,5,0,0
328912,-50,4,2,1,50,0,0
333527,-100,4,2,1,50,0,0
333758,-100,4,2,1,15,0,0
333989,-100,4,2,1,50,0,0
334450,-37.037037037037,4,2,1,50,0,0
336412,-37.037037037037,4,2,1,5,0,0
336527,-37.037037037037,4,2,1,50,0,0
336643,-37.037037037037,4,2,1,5,0,0
336758,-37.037037037037,4,2,1,50,0,0
336873,-37.037037037037,4,2,1,5,0,0
336989,-37.037037037037,4,2,1,50,0,0
337912,-37.037037037037,4,2,1,25,0,0
338143,-37.037037037037,4,2,1,50,0,0
340104,-37.037037037037,4,2,1,5,0,0
340220,-37.037037037037,4,2,1,50,0,0
340335,-37.037037037037,4,2,1,5,0,0
340450,-37.037037037037,4,2,1,50,0,0
340566,-37.037037037037,4,2,1,5,0,0
340681,-37.037037037037,4,2,1,50,0,0
347373,-50,4,2,1,50,0,0
349220,-100,4,2,1,50,0,0
363066,-83.3333333333333,4,2,1,50,0,0
363412,-83.3333333333333,4,2,1,20,0,0
363527,-83.3333333333333,4,2,1,50,0,0
363989,-55.5555555555556,4,2,1,50,0,0
369527,-41.6666666666667,4,2,1,50,0,0
371373,-55.5555555555556,4,2,1,50,0,0
376912,-41.6666666666667,4,2,1,50,0,0
377143,-41.6666666666667,4,2,1,20,0,0
377258,-41.6666666666667,4,2,1,50,0,0
377489,-41.6666666666667,4,2,1,5,0,0
377604,-41.6666666666667,4,2,1,50,0,0
377720,-41.6666666666667,4,2,1,20,0,0
377835,-41.6666666666667,4,2,1,50,0,0
378066,-41.6666666666667,4,2,1,20,0,0
378181,-41.6666666666667,4,2,1,50,0,0
378412,-41.6666666666667,4,2,1,20,0,0
378527,-41.6666666666667,4,2,1,50,0,0
378643,-41.6666666666667,4,2,1,5,0,0
378758,-40,4,2,1,50,0,0
389373,-66.6666666666667,4,2,1,50,0,0
389835,-40,4,2,1,50,0,0
391681,-52.6315789473684,4,2,1,50,0,0
393527,-76.9230769230769,4,2,1,50,0,0
408286,461.538461538462,4,2,1,50,1,0
408286,-76.9230769230769,4,2,1,30,0,0
423075,461.538461538462,4,2,1,50,1,0
423075,-76.9230769230769,4,2,1,30,0,0
437835,461.538461538462,4,2,1,50,1,0
437835,-76.9230769230769,4,2,1,30,0,0
471477,400,4,2,1,50,1,0
471477,-200,4,2,1,20,0,0
481077,-100,4,2,1,40,0,0
485477,-333.333333333333,4,2,1,40,0,0
487477,-100,4,2,1,40,0,0
491877,-333.333333333333,4,2,1,40,0,0
493877,-100,4,2,1,40,0,0
505877,-100,4,2,1,20,0,0
506677,-133.333333333333,4,2,1,40,0,0
508677,-133.333333333333,4,2,1,40,0,0
509077,-133.333333333333,4,2,1,5,0,0
509277,-133.333333333333,4,2,1,40,0,0
509677,-133.333333333333,4,2,1,5,0,0
509877,-133.333333333333,4,2,1,40,0,0
510277,-133.333333333333,4,2,1,30,0,0
510477,-133.333333333333,4,2,1,40,0,0
510877,-133.333333333333,4,2,1,5,0,0
511077,-200,4,2,1,40,0,0
513077,-66.6666666666667,4,2,1,40,0,0
513277,-66.6666666666667,4,2,1,5,0,0
513477,-64.5161290322581,4,2,1,40,0,0
513677,-64.5161290322581,4,2,1,5,0,0
513877,-66.6666666666667,4,2,1,40,0,0
514077,-66.6666666666667,4,2,1,5,0,0
514277,-68.9655172413793,4,2,1,40,0,0
514477,-68.9655172413793,4,2,1,5,0,0
514677,-71.4285714285714,4,2,1,40,0,0
514877,-71.4285714285714,4,2,1,5,0,0
515077,-74.0740740740741,4,2,1,40,0,0
515277,-74.0740740740741,4,2,1,5,0,0
515477,-71.4285714285714,4,2,1,40,0,0
515677,-71.4285714285714,4,2,1,30,0,0
515877,-68.9655172413793,4,2,1,40,0,0
516077,-68.9655172413793,4,2,1,5,0,0
516277,-74.0740740740741,4,2,1,40,0,0
517077,-76.9230769230769,4,2,1,40,0,0
517277,-76.9230769230769,4,2,1,5,0,0
517477,-74.0740740740741,4,2,1,40,0,0
517677,-74.0740740740741,4,2,1,5,0,0
517877,-71.4285714285714,4,2,1,40,0,0
519277,-71.4285714285714,4,2,1,5,0,0
519477,-83.3333333333333,4,2,1,40,0,0
519677,-83.3333333333333,4,2,1,5,0,0
519877,-86.9565217391304,4,2,1,40,0,0
520077,-86.9565217391304,4,2,1,5,0,0
520277,-90.9090909090909,4,2,1,40,0,0
520477,-90.9090909090909,4,2,1,5,0,0
520677,-95.2380952380952,4,2,1,40,0,0
520877,-95.2380952380952,4,2,1,5,0,0
521077,-100,4,2,1,40,0,0
521277,-100,4,2,1,5,0,0
521477,-105.263157894737,4,2,1,40,0,0
521677,-105.263157894737,4,2,1,5,0,0
521877,-100,4,2,1,40,0,0
522077,-100,4,2,1,5,0,0
522277,-95.2380952380952,4,2,1,40,0,0
522477,-95.2380952380952,4,2,1,5,0,0
522677,-111.111111111111,4,2,1,40,0,0
523477,-117.647058823529,4,2,1,40,0,0
523677,-117.647058823529,4,2,1,5,0,0
523877,-111.111111111111,4,2,1,40,0,0
524077,-111.111111111111,4,2,1,5,0,0
524277,-105.263157894737,4,2,1,40,0,0
525877,-83.3333333333333,4,2,1,40,0,0
532277,-50,4,2,1,40,0,0
535477,-47.6190476190476,4,2,1,40,0,0
538277,-58.8235294117647,4,2,1,40,0,0
538677,1058.82352941301,4,2,1,50,1,0
538677,-100,4,2,1,5,0,0
572559,352.941176470588,4,2,1,18,1,0
582441,-100,4,2,1,30,0,0
583853,-83.3333333333333,4,2,1,40,0,0
612088,-50,4,2,1,50,0,1
612176,-50,4,2,1,5,0,1
612264,-50,4,2,1,50,0,1
613235,-50,4,2,1,5,0,1
613323,-50,4,2,1,50,0,1
613411,-50,4,2,1,5,0,1
613500,-50,4,2,1,50,0,1
615000,-50,4,2,1,5,0,1
615088,-50,4,2,1,50,0,1
616059,-50,4,2,1,5,0,1
616147,-50,4,2,1,50,0,1
616235,-50,4,2,1,5,0,1
616323,-50,4,2,1,50,0,1
617823,-50,4,2,1,5,0,1
617911,-50,4,2,1,50,0,1
618882,-50,4,2,1,5,0,1
618970,-50,4,2,1,50,0,1
619059,-50,4,2,1,5,0,1
619147,-50,4,2,1,50,0,1
620647,-50,4,2,1,5,0,1
620735,-50,4,2,1,50,0,1
623382,-55.5555555555556,4,2,1,50,0,1
633794,-66.6666666666667,4,2,1,50,0,1
634676,-100,4,2,1,50,0,1
643147,-100,4,2,1,50,0,0
645970,-71.4285714285714,4,2,1,50,0,1
657264,-133.333333333333,4,2,1,20,0,0
665735,-133.333333333333,4,2,1,10,0,0
668206,-133.333333333333,4,2,1,40,0,0
668559,-90.9090909090909,4,2,1,35,0,0
677029,-100,4,2,1,35,0,0
679853,-100,4,2,1,100,0,0
682676,-100,4,2,1,35,0,0
685500,-100,4,2,1,38,0,0
687617,-100,4,2,1,41,0,0
690441,-142.857142857143,4,2,1,15,0,0
713735,-100,4,2,1,22,0,0

[Colours]
Combo1 : 225,0,113
Combo2 : 255,0,128
Combo3 : 225,0,113
Combo4 : 196,0,98
Combo5 : 166,0,83
Combo6 : 196,0,98

[HitObjects]
176,288,0,5,0,0:0:0:0:
181,246,145,5,0,0:0:0:0:
129,198,302,1,0,0:0:0:0:
122,156,460,1,0,0:0:0:0:
176,107,618,1,0,0:0:0:0:
176,107,934,5,0,0:0:0:0:
127,43,1092,1,0,0:0:0:0:
221,42,1250,5,0,0:0:0:0:
260,56,1406,1,0,0:0:0:0:
301,58,1564,1,0,0:0:0:0:
340,44,1722,1,0,0:0:0:0:
340,44,2038,5,0,0:0:0:0:
336,120,2196,1,0,0:0:0:0:
332,196,2354,1,0,0:0:0:0:
328,272,2512,1,0,0:0:0:0:
328,272,2827,5,0,0:0:0:0:
311,196,2985,1,0,0:0:0:0:
311,196,3774,5,0,0:0:0:0:
301,236,3932,1,0,0:0:0:0:
301,278,4090,1,0,0:0:0:0:
315,317,4248,1,0,0:0:0:0:
380,356,4406,2,0,P|389:310|383:279,1,70,0|0,0:0|0:0,0:0:0:0:
248,144,5037,5,0,0:0:0:0:
287,156,5195,1,0,0:0:0:0:
329,157,5353,1,0,0:0:0:0:
368,143,5511,1,0,0:0:0:0:
459,0,5827,5,0,0:0:0:0:
470,76,5985,1,0,0:0:0:0:
481,151,6142,1,0,0:0:0:0:
493,227,6300,5,0,0:0:0:0:
454,215,6458,1,0,0:0:0:0:
412,214,6616,1,0,0:0:0:0:
373,228,6774,1,0,0:0:0:0:
433,359,7090,1,0,0:0:0:0:
433,359,7564,6,0,P|446:308|443:280,1,70,0|0,0:0|0:0,0:0:0:0:
415,219,8037,1,0,0:0:0:0:
459,139,8195,5,0,0:0:0:0:
397,185,8353,1,0,0:0:0:0:
344,189,8511,1,0,0:0:0:0:
300,178,8669,1,0,0:0:0:0:
274,154,8827,6,0,P|225:143|191:150,1,70,0|0,0:0|0:0,0:0:0:0:
184,284,9459,6,0,P|217:254|232:208,1,83.9999974365235,0|0,0:0|0:0,0:0:0:0:
108,131,10091,6,0,P|133:194|162:218,1,97.9999970092774,0|0,0:0|0:0,0:0:0:0:
265,86,10722,6,0,P|207:114|185:146,1,97.9999970092774,0|0,0:0|0:0,0:0:0:0:
332,249,11354,6,0,P|303:193|255:165,1,112,0|0,0:0|0:0,0:0:0:0:
25,205,11986,5,0,0:0:0:0:
79,268,12143,1,0,0:0:0:0:
150,269,12301,1,0,0:0:0:0:
188,246,12459,1,0,0:0:0:0:
262,167,12617,6,0,P|316:153|385:176,2,125.999996154785,0|0|0,0:0|0:0|0:0,0:0:0:0:
469,113,13564,2,0,P|502:84|514:66,1,62.9999980773926,0|0,0:0|0:0,0:0:0:0:
364,0,13880,6,0,P|362:79|385:139,1,125.999996154785,0|0,0:0|0:0,0:0:0:0:
488,292,14512,2,0,P|513:232|511:168,1,125.999996154785,0|0,0:0|0:0,0:0:0:0:
376,122,14985,1,0,0:0:0:0:
376,122,15064,1,0,0:0:0:0:
376,122,15143,6,0,P|330:93|299:28,1,125.999996154785,0|0,0:0|0:0,0:0:0:0:
384,0,15617,1,0,0:0:0:0:
211,55,15775,2,0,P|149:46|102:6,1,125.999996154785,0|0,0:0|0:0,0:0:0:0:
102,6,16248,1,0,0:0:0:0:
171,136,16406,6,0,P|176:190|158:260,1,125.999996154785,0|0,0:0|0:0,0:0:0:0:
396,384,17038,2,0,P|368:325|366:262,1,125.999996154785,0|0,0:0|0:0,0:0:0:0:
365,265,17511,1,0,0:0:0:0:
483,163,17670,6,0,P|508:212|511:236,1,62.9999980773926
387,148,17985,2,0,P|396:118|413:91,1,62.9999980773926
509,219,18301,1,0,0:0:0:0:
303,224,18617,2,0,P|332:245|348:267,1,62.9999980773926,0|0,0:0|0:0,0:0:0:0:
293,362,18933,6,0,P|228:350|177:309,1,125.999996154785,0|0,0:0|0:0,0:0:0:0:
271,107,19564,2,0,P|290:184|279:245,1,125.999996154785,0|0,0:0|0:0,0:0:0:0:
181,314,20037,1,0,0:0:0:0:
284,229,20196,6,0,P|349:241|399:281,1,125.999996154785,0|0,0:0|0:0,0:0:0:0:
280,365,20670,1,0,0:0:0:0:
136,370,20827,2,0,P|148:304|190:260,1,125.999996154785,0|0,0:0|0:0,0:0:0:0:
369,136,21459,6,0,L|233:122,1,125.999996154785,0|0,0:0|0:0,0:0:0:0:
61,274,22091,2,0,L|197:260,1,125.999996154785,0|0,0:0|0:0,0:0:0:0:
84,39,22722,6,0,P|66:100|71:164,1,125.999996154785,0|0,0:0|0:0,0:0:0:0:
70,161,23196,1,0,0:0:0:0:
237,148,23354,2,0,P|274:140|323:140,1,62.9999980773926,0|0,0:0|0:0,0:0:0:0:
146,40,23670,2,0,P|103:41|60:32,1,62.9999980773926,0|0,0:0|0:0,0:0:0:0:
237,148,23986,6,0,P|232:211|249:273,1,125.999996154785,0|0,0:0|0:0,0:0:0:0:
480,384,24617,2,0,P|503:320|504:262,1,125.999996154785,0|0,0:0|0:0,0:0:0:0:
512,119,25091,1,0,0:0:0:0:
512,119,25170,1,0,0:0:0:0:
512,119,25249,6,0,P|449:136|386:131,1,125.999996154785,0|0,0:0|0:0,0:0:0:0:
491,258,25722,1,0,0:0:0:0:
305,139,25880,2,0,P|301:206|318:267,1,125.999996154785,0|0,0:0|0:0,0:0:0:0:
315,262,26354,1,0,0:0:0:0:
417,128,26512,6,0,P|411:71|377:0,1,125.999996154785,0|0,0:0|0:0,0:0:0:0:
511,71,26986,1,0,0:0:0:0:
330,88,27143,2,0,P|272:77|201:95,1,125.999996154785,0|0,0:0|0:0,0:0:0:0:
207,91,27617,1,0,0:0:0:0:
118,207,27775,6,0,P|117:175|112:142,1,62.9999980773926,0|0,0:0|0:0,0:0:0:0:
256,160,28091,2,0,P|251:191|250:222,1,62.9999980773926,0|0,0:0|0:0,0:0:0:0:
417,128,28407,2,0,P|434:188|435:252,1,125.999996154785,0|0,0:0|0:0,0:0:0:0:
298,147,28879,1,0,0:0:0:0:
306,288,29038,6,0,P|313:254|313:218,1,62.9999980773926,0|0,0:0|0:0,0:0:0:0:
417,128,29354,1,0,0:0:0:0:
475,346,29670,2,0,P|407:336|337:347,1,125.999996154785,0|0,0:0|0:0,0:0:0:0:
118,207,30301,6,0,P|131:269|130:332,1,125.999996154785,0|0,0:0|0:0,0:0:0:0:
232,148,30933,2,0,P|185:99|121:76,1,125.999996154785,0|0,0:0|0:0,0:0:0:0:
131,77,31406,1,0,0:0:0:0:
47,236,31564,6,0,P|104:211|147:165,1,125.999996154785,0|0,0:0|0:0,0:0:0:0:
147,165,32196,5,0,0:0:0:0:
19,80,32354,1,0,0:0:0:0:
128,151,32512,1,0,0:0:0:0:
31,0,32670,1,0,0:0:0:0:
9,218,32828,6,0,L|15:344,1,125.999996154785,0|0,0:0|0:0,0:0:0:0:
165,131,33301,1,0,0:0:0:0:
165,131,33459,2,0,L|159:257,1,125.999996154785,0|0,0:0|0:0,0:0:0:0:
152,384,33933,1,0,0:0:0:0:
82,250,34091,6,0,L|7:246,1,62.9999980773926,0|0,0:0|0:0,0:0:0:0:
204,326,34407,2,0,L|279:330,1,62.9999980773926,0|0,0:0|0:0,0:0:0:0:
117,194,34722,2,0,L|111:320,1,125.999996154785,0|0,0:0|0:0,0:0:0:0:
378,336,35354,6,0,P|450:333|511:303,1,125.999996154785,0|0,0:0|0:0,0:0:0:0:
512,185,35827,1,0,0:0:0:0:
312,172,35985,2,0,P|355:236|412:268,1,125.999996154785,0|0,0:0|0:0,0:0:0:0:
416,0,36618,6,0,P|383:87|384:128,1,125.999996154785,0|0,0:0|0:0,0:0:0:0:
512,352,37249,2,0,P|497:290|462:239,1,125.999996154785,0|0,0:0|0:0,0:0:0:0:
228,224,37880,6,0,P|199:263|184:300,1,62.9999980773926
293,356,38196,2,0,P|287:320|291:283,1,62.9999980773926
294,174,38512,2,0,P|279:112|244:61,1,125.999996154785,0|0,0:0|0:0,0:0:0:0:
127,183,38986,1,0,0:0:0:0:
226,45,39144,6,0,P|269:43|304:29,1,62.9999980773926,0|0,0:0|0:0,0:0:0:0:
124,50,39460,1,0,0:0:0:0:
247,238,39775,2,0,P|239:314|249:374,1,125.999996154785,0|0,0:0|0:0,0:0:0:0:
338,286,40249,1,0,0:0:0:0:
165,384,40407,6,0,P|113:385|33:353,1,125.999996154785,0|0,0:0|0:0,0:0:0:0:
0,248,40881,1,0,0:0:0:0:
129,265,41039,2,0,P|181:266|261:234,1,125.999996154785,0|0,0:0|0:0,0:0:0:0:
162,0,41670,6,0,P|157:82|168:135,1,125.999996154785,0|0,0:0|0:0,0:0:0:0:
298,321,42302,2,0,P|325:260|331:190,1,125.999996154785,0|0,0:0|0:0,0:0:0:0:
181,73,42933,6,0,P|243:89|323:78,1,125.999996154785,0|0,0:0|0:0,0:0:0:0:
415,34,43406,1,0,0:0:0:0:
265,0,43564,2,0,P|260:83|275:144,1,125.999996154785,0|0,0:0|0:0,0:0:0:0:
507,50,44196,6,0,P|445:34|365:45,1,125.999996154785,0|0,0:0|0:0,0:0:0:0:
463,278,44827,2,0,P|468:195|453:134,1,125.999996154785,0|0,0:0|0:0,0:0:0:0:
277,268,45459,6,0,P|287:329|318:384,1,125.999996154785,0|0,0:0|0:0,0:0:0:0:
192,345,45932,1,0,0:0:0:0:
368,300,46091,2,0,P|398:245|409:183,1,125.999996154785,0|0,0:0|0:0,0:0:0:0:
231,60,46722,6,0,P|245:126|240:188,1,125.999996154785,0|0,0:0|0:0,0:0:0:0:
336,115,47195,1,0,0:0:0:0:
152,166,47354,2,0,P|97:151|45:96,1,125.999996154785,0|0,0:0|0:0,0:0:0:0:
252,132,47985,6,0,P|253:170|263:198,1,62.9999980773926,0|0,0:0|0:0,0:0:0:0:
174,62,48301,2,0,P|178:26|176:-6,1,62.9999980773926,0|0,0:0|0:0,0:0:0:0:
152,166,48617,2,0,P|149:224|174:300,1,125.999996154785,0|0,0:0|0:0,0:0:0:0:
271,347,49090,1,0,0:0:0:0:
131,361,49248,6,0,P|96:363|62:356,1,62.9999980773926,0|0,0:0|0:0,0:0:0:0:
245,350,49564,1,0,0:0:0:0:
23,255,49880,2,0,P|49:310|107:349,1,125.999996154785,0|0,0:0|0:0,0:0:0:0:
348,311,50512,6,0,P|392:309|418:313,1,62.9999980773926,0|0,0:0|0:0,0:0:0:0:
256,220,50827,2,0,P|224:230|196:232,1,56,0|0,0:0|0:0,0:0:0:0:
382,177,51143,2,0,P|384:221|379:246,1,48.9999985046387,0|0,0:0|0:0,0:0:0:0:
351,71,51459,2,0,P|387:78|400:83,1,41.9999987182618,0|0,0:0|0:0,0:0:0:0:
259,39,51775,2,0,P|274:27|293:16,1,35,0|0,0:0|0:0,0:0:0:0:
202,83,52091,2,0,P|202:62|207:43,1,31.4999990386963,0|0,0:0|0:0,0:0:0:0:
194,125,52406,2,0,P|184:103|182:88,1,28,0|0,0:0|0:0,0:0:0:0:
201,150,52722,2,0,P|192:141|181:124,1,24.4999992523194,0|0,0:0|0:0,0:0:0:0:
277,117,53038,5,0,0:0:0:0:
51,276,53670,6,0,L|55:239,1,28,0|0,0:0|0:0,0:0:0:0:
189,259,54143,2,0,L|48:276,1,140,0|0,0:0|0:0,0:0:0:0:
387,320,55564,5,0,0:0:0:0:
350,53,56196,6,0,L|313:56,1,28,0|0,0:0|0:0,0:0:0:0:
333,191,56670,2,0,L|346:78,1,112,0|0,0:0|0:0,0:0:0:0:
350,53,57459,5,0,0:0:0:0:
480,138,57775,1,0,0:0:0:0:
333,191,58091,1,0,0:0:0:0:
64,32,58722,6,0,L|101:35,1,28,0|0,0:0|0:0,0:0:0:0:
80,171,59196,2,0,L|64:32,1,140,0|0,0:0|0:0,0:0:0:0:
217,12,60301,1,0,0:0:0:0:
159,158,60617,6,0,L|231:149,1,62.9999980773926,0|0,0:0|0:0,0:0:0:0:
299,143,60933,2,0,L|291:89,1,41.9999987182618,0|0,0:0|0:0,0:0:0:0:
150,173,61249,6,0,L|222:164,1,62.9999980773926,0|0,0:0|0:0,0:0:0:0:
316,152,61564,2,0,L|308:98,1,41.9999987182618,0|0,0:0|0:0,0:0:0:0:
268,233,61880,6,0,L|259:305,1,62.9999980773926,0|0,0:0|0:0,0:0:0:0:
250,378,62196,1,0,0:0:0:0:
250,378,62354,1,0,0:0:0:0:
275,239,62512,6,0,L|266:311,1,62.9999980773926,0|0,0:0|0:0,0:0:0:0:
257,384,62827,1,0,0:0:0:0:
257,384,62985,1,0,0:0:0:0:
493,319,63143,6,0,P|454:339|383:339,1,105,0|0,0:0|0:0,0:0:0:0:
374,352,63459,2,0,P|455:354|500:333,1,125.999996154785,0|0,0:0|0:0,0:0:0:0:
512,323,63775,5,0,0:0:0:0:
438,16,63933,1,0,0:0:0:0:
393,270,64091,1,0,0:0:0:0:
434,39,64249,1,0,0:0:0:0:
507,301,64407,6,0,P|514:251|508:205,1,83.9999974365235,0|0,0:0|0:0,0:0:0:0:
271,171,64722,2,0,P|326:193|356:194,1,83.9999974365235,0|0,0:0|0:0,0:0:0:0:
481,0,65038,6,0,P|454:31|437:80,1,83.9999974365235,0|0,0:0|0:0,0:0:0:0:
510,217,65354,1,0,0:0:0:0:
510,217,65512,1,0,0:0:0:0:
358,81,65670,6,0,B|312:66|274:88|274:88|232:111|178:92,1,167.999994873047,0|0,0:0|0:0,0:0:0:0:
74,53,66143,1,0,0:0:0:0:
297,214,66301,5,0,0:0:0:0:
223,0,66459,1,0,0:0:0:0:
228,273,66617,1,0,0:0:0:0:
245,2,66775,1,0,0:0:0:0:
158,331,66933,6,0,P|139:293|134:244,1,83.9999974365235,0|0,0:0|0:0,0:0:0:0:
284,73,67249,2,0,P|278:114|259:152,1,83.9999974365235,0|0,0:0|0:0,0:0:0:0:
30,272,67564,5,0,0:0:0:0:
133,251,67722,1,0,0:0:0:0:
113,149,67880,1,0,0:0:0:0:
9,169,68038,1,0,0:0:0:0:
288,357,68196,6,0,L|470:332,1,167.999994873047,0|0,0:0|0:0,0:0:0:0:
343,208,68670,1,0,0:0:0:0:
512,384,68827,5,0,0:0:0:0:
405,152,68985,1,0,0:0:0:0:
430,384,69143,1,0,0:0:0:0:
401,129,69301,1,0,0:0:0:0:
349,384,69459,6,0,P|336:341|338:289,1,83.9999974365235,0|0,0:0|0:0,0:0:0:0:
512,173,69775,2,0,P|470:230|442:246,1,83.9999974365235,0|0,0:0|0:0,0:0:0:0:
241,109,70091,6,0,B|282:123|295:169|295:169|310:216|353:230,1,167.999994873047,0|0,0:0|0:0,0:0:0:0:
415,114,70564,1,0,0:0:0:0:
208,195,70722,6,0,P|179:243|174:288,1,83.9999974365235,0|0,0:0|0:0,0:0:0:0:
359,384,71038,2,0,P|348:343|324:309,1,83.9999974365235,0|0,0:0|0:0,0:0:0:0:
108,179,71354,5,0,0:0:0:0:
91,278,71512,1,0,0:0:0:0:
190,294,71670,1,0,0:0:0:0:
208,195,71827,1,0,0:0:0:0:
18,218,71985,6,0,L|-12:383,1,167.999994873047,0|0,0:0|0:0,0:0:0:0:
342,170,72617,5,0,0:0:0:0:
299,0,72775,1,0,0:0:0:0:
348,192,72933,2,0,L|220:179,1,125.999996154785,0|0,0:0|0:0,0:0:0:0:
199,177,73249,6,0,L|212:286,1,97.9999970092774,0|0,0:0|0:0,0:0:0:0:
176,166,73880,2,0,L|189:275,1,97.9999970092774,0|0,0:0|0:0,0:0:0:0:
325,265,74512,6,0,L|336:167,1,97.9999970092774,0|0,0:0|0:0,0:0:0:0:
348,276,75143,2,0,L|359:178,1,97.9999970092774,0|0,0:0|0:0,0:0:0:0:
164,68,75775,6,0,L|177:177,1,97.9999970092774,0|0,0:0|0:0,0:0:0:0:
141,57,76406,2,0,L|154:166,1,97.9999970092774,0|0,0:0|0:0,0:0:0:0:
369,286,77038,6,0,L|380:188,1,97.9999970092774,0|0,0:0|0:0,0:0:0:0:
256,32,77670,5,0,0:0:0:0:
256,128,77985,1,0,0:0:0:0:
255,224,78301,6,0,B|258:255|258:255|251:289|251:289|255:320,1,97.9999970092774,0|0,0:0|0:0,0:0:0:0:
299,159,78933,2,0,B|318:134|318:134|347:115|347:115|366:91,1,97.9999970092774,0|0,0:0|0:0,0:0:0:0:
216,158,79564,2,0,B|196:133|196:133|167:114|167:114|148:90,1,97.9999970092774,0|0,0:0|0:0,0:0:0:0:
255,224,80196,5,0,0:0:0:0:
367,90,80512,1,0,0:0:0:0:
126,74,80827,6,0,B|149:104|149:104|184:127|184:127|207:156,1,97.9999970092774,0|0,0:0|0:0,0:0:0:0:
254,350,81459,2,0,B|249:313|249:313|258:272|258:272|254:235,1,97.9999970092774,0|0,0:0|0:0,0:0:0:0:
388,75,82091,2,0,B|366:105|366:105|331:128|331:128|307:157,1,97.9999970092774,0|0,0:0|0:0,0:0:0:0:
128,256,82722,5,0,0:0:0:0:
384,256,83038,1,0,0:0:0:0:
256,32,83354,5,8,0:0:0:0:
256,128,83670,1,0,0:0:0:0:
352,32,83985,1,0,0:0:0:0:
160,32,84301,1,0,0:0:0:0:
256,224,84617,5,0,0:0:0:0:
256,32,84933,1,0,0:0:0:0:
128,224,85249,1,0,0:0:0:0:
384,224,85564,1,0,0:0:0:0:
64,96,85880,5,0,0:0:0:0:
64,96,86038,2,0,L|205:107,1,140,0|0,0:0|0:0,0:0:0:0:
228,90,86512,2,0,L|184:218,1,125.999996154785,0|0,0:0|0:0,0:0:0:0:
195,226,86985,2,0,L|234:114,1,112,0|0,0:0|0:0,0:0:0:0:
240,102,87459,6,0,L|267:162,1,56,0|0,0:0|0:0,0:0:0:0:
389,163,87775,2,0,L|349:244,1,70,0|0,0:0|0:0,0:0:0:0:
438,332,88091,2,0,L|344:349,1,83.9999974365235,0|0,0:0|0:0,0:0:0:0:
202,289,88406,5,0,0:0:0:0:
460,114,88564,2,0,L|479:232,1,105.000004005432,0|0,0:0|0:0,0:0:0:0:
125,310,88880,5,0,0:0:0:0:
376,92,89038,2,0,L|395:210,1,105.000004005432,0|0,0:0|0:0,0:0:0:0:
65,260,89354,1,0,0:0:0:0:
65,260,89512,1,0,0:0:0:0:
409,283,89670,5,0,0:0:0:0:
84,174,89827,2,0,L|103:56,1,105.000004005432,0|0,0:0|0:0,0:0:0:0:
362,350,90143,5,0,0:0:0:0:
164,149,90301,2,0,L|183:31,1,105.000004005432,0|0,0:0|0:0,0:0:0:0:
4,197,90617,2,0,L|20:300,1,105.000004005432,0|0,0:0|0:0,0:0:0:0:
259,56,90933,5,0,0:0:0:0:
205,334,91091,1,0,0:0:0:0:
174,35,91249,1,0,0:0:0:0:
174,35,91406,1,0,0:0:0:0:
287,307,91564,5,0,0:0:0:0:
91,3,91722,2,0,L|76:112,1,105.000004005432,0|0,0:0|0:0,0:0:0:0:
101,356,92038,1,0,0:0:0:0:
384,256,92196,6,0,B|390:297|390:297|407:329|407:329|412:367,1,105.000004005432,0|0,0:0|0:0,0:0:0:0:
101,356,92512,2,0,B|107:315|107:315|124:283|124:283|127:255,1,105.000004005432,0|0,0:0|0:0,0:0:0:0:
384,128,92827,5,0,0:0:0:0:
128,128,92985,1,0,0:0:0:0:
469,100,93143,2,0,L|491:207,1,105.000004005432,0|0,0:0|0:0,0:0:0:0:
340,0,93459,5,0,0:0:0:0:
73,245,93617,2,0,L|54:127,1,105.000004005432,0|0,0:0|0:0,0:0:0:0:
408,49,93933,5,0,0:0:0:0:
157,267,94091,2,0,L|138:149,1,105.000004005432,0|0,0:0|0:0,0:0:0:0:
468,99,94407,1,0,0:0:0:0:
468,99,94565,1,0,0:0:0:0:
103,101,94723,5,0,0:0:0:0:
428,210,94880,2,0,L|409:328,1,105.000004005432,0|0,0:0|0:0,0:0:0:0:
150,34,95196,5,0,0:0:0:0:
428,210,95354,1,0,0:0:0:0:
107,281,95512,1,0,0:0:0:0:
508,187,95670,2,0,L|491:83,1,105.000004005432,0|0,0:0|0:0,0:0:0:0:
253,328,95986,5,0,0:0:0:0:
307,50,96144,1,0,0:0:0:0:
307,50,96302,1,0,0:0:0:0:
338,349,96459,1,0,0:0:0:0:
391,36,96617,1,0,0:0:0:0:
391,36,96775,1,0,0:0:0:0:
313,263,96933,2,0,L|201:233,1,105.000004005432
480,192,97249,5,0,0:0:0:0:
32,192,97406,1,0,0:0:0:0:
455,192,97564,1,0,0:0:0:0:
57,192,97722,1,0,0:0:0:0:
394,290,97880,5,0,0:0:0:0:
117,94,98038,1,0,0:0:0:0:
455,192,98196,1,0,0:0:0:0:
57,192,98354,1,0,0:0:0:0:
332,0,98512,5,0,0:0:0:0:
52,114,98670,2,0,L|33:232,1,105.000004005432,0|0,0:0|0:0,0:0:0:0:
387,310,98986,5,0,0:0:0:0:
136,92,99144,2,0,L|117:210,1,105.000004005432,0|0,0:0|0:0,0:0:0:0:
447,260,99460,1,0,0:0:0:0:
447,260,99618,1,0,0:0:0:0:
103,283,99776,5,0,0:0:0:0:
428,174,99933,2,0,L|409:56,1,105.000004005432,0|0,0:0|0:0,0:0:0:0:
150,350,100249,5,0,0:0:0:0:
348,149,100407,2,0,L|329:31,1,105.000004005432,0|0,0:0|0:0,0:0:0:0:
508,197,100723,2,0,L|492:300,1,105.000004005432,0|0,0:0|0:0,0:0:0:0:
253,56,101039,5,0,0:0:0:0:
307,334,101197,1,0,0:0:0:0:
338,35,101355,1,0,0:0:0:0:
338,35,101512,1,0,0:0:0:0:
225,307,101670,5,0,0:0:0:0:
421,3,101828,2,0,L|436:112,1,105.000004005432,0|0,0:0|0:0,0:0:0:0:
411,356,102144,1,0,0:0:0:0:
128,256,102302,6,0,B|122:297|122:297|105:329|105:329|100:367,1,105.000004005432,0|0,0:0|0:0,0:0:0:0:
411,356,102618,2,0,B|405:315|405:315|388:283|388:283|385:255,1,105.000004005432,0|0,0:0|0:0,0:0:0:0:
128,128,102933,5,0,0:0:0:0:
384,128,103091,1,0,0:0:0:0:
43,100,103249,2,0,L|21:207,1,105.000004005432,0|0,0:0|0:0,0:0:0:0:
172,0,103565,5,0,0:0:0:0:
439,245,103723,2,0,L|458:127,1,105.000004005432,0|0,0:0|0:0,0:0:0:0:
104,49,104039,5,0,0:0:0:0:
355,267,104196,2,0,L|374:149,1,105.000004005432,0|0,0:0|0:0,0:0:0:0:
44,99,104512,1,0,0:0:0:0:
44,99,104670,1,0,0:0:0:0:
409,101,104827,5,0,0:0:0:0:
84,210,104985,2,0,L|103:328,1,105.000004005432,0|0,0:0|0:0,0:0:0:0:
362,34,105301,5,0,0:0:0:0:
84,210,105459,1,0,0:0:0:0:
405,281,105617,1,0,0:0:0:0:
4,187,105775,2,0,L|21:83,1,105.000004005432,0|0,0:0|0:0,0:0:0:0:
259,328,106091,5,0,0:0:0:0:
205,50,106249,1,0,0:0:0:0:
205,50,106406,1,0,0:0:0:0:
174,349,106564,5,0,0:0:0:0:
287,77,106723,1,0,0:0:0:0:
287,77,106880,1,0,0:0:0:0:
91,368,107038,5,0,0:0:0:0:
371,103,107196,1,0,0:0:0:0:
0,215,107354,5,0,0:0:0:0:
30,264,107433,1,0,0:0:0:0:
84,282,107512,1,0,0:0:0:0:
141,275,107591,1,0,0:0:0:0:
181,233,107670,1,0,0:0:0:0:
221,199,107749,1,0,0:0:0:0:
272,193,107827,1,0,0:0:0:0:
321,211,107906,1,0,0:0:0:0:
348,255,107985,1,0,0:0:0:0:
346,302,108064,1,0,0:0:0:0:
324,338,108143,1,0,0:0:0:0:
290,352,108222,1,0,0:0:0:0:
258,349,108301,1,0,0:0:0:0:
236,334,108380,1,0,0:0:0:0:
228,314,108459,1,0,0:0:0:0:
231,298,108538,1,0,0:0:0:0:
239,292,108617,5,0,0:0:0:0:
346,302,108933,1,0,0:0:0:0:
346,302,109249,2,0,P|402:298|435:278,1,83.9999974365235,0|0,0:0|0:0,0:0:0:0:
428,169,109880,6,0,P|389:152|348:152,2,83.9999974365235,0|0|0,0:0|0:0|0:0,0:0:0:0:
502,248,110827,2,0,P|522:172|489:89,1,167.999994873047,0|0,0:0|0:0,0:0:0:0:
389,50,111775,1,0,0:0:0:0:
389,50,112091,6,0,B|359:77|310:61|310:61|262:44|220:65,1,167.999994873047,0|0,0:0|0:0,0:0:0:0:
174,156,113038,2,0,P|189:192|229:228,1,83.9999974365235,0|0,0:0|0:0,0:0:0:0:
151,77,113670,6,0,P|110:111|92:152,2,83.9999974365235,0|0|0,0:0|0:0|0:0,0:0:0:0:
260,79,114617,2,0,P|292:108|322:235,1,167.999994873047,0|0,0:0|0:0,0:0:0:0:
251,306,115564,1,0,0:0:0:0:
148,342,115880,1,0,0:0:0:0:
148,341,116196,6,0,P|107:351|74:378,2,83.9999974365235,0|0|0,0:0|0:0|0:0,0:0:0:0:
253,369,117143,2,0,B|293:386|335:369|335:369|379:355|419:372,1,167.999994873047,0|0,0:0|0:0,0:0:0:0:
504,304,118091,2,0,P|493:256|495:221,1,83.9999974365235,0|0,0:0|0:0,0:0:0:0:
512,114,118722,5,0,0:0:0:0:
512,114,119038,1,0,0:0:0:0:
406,141,119354,2,0,P|351:135|317:119,1,83.9999974365235,0|0,0:0|0:0,0:0:0:0:
229,70,119985,2,0,P|168:80|138:98,2,83.9999974365235,0|0|0,0:0|0:0|0:0,0:0:0:0:
325,123,120933,6,0,P|372:139|491:109,1,167.999994873047,0|0,0:0|0:0,0:0:0:0:
402,41,121880,1,0,0:0:0:0:
402,41,122196,2,0,B|391:86|412:123|412:123|435:162|420:207,1,167.999994873047,0|0,0:0|0:0,0:0:0:0:
321,249,123143,2,0,P|279:217|267:183,1,83.9999974365235,0|0,0:0|0:0,0:0:0:0:
421,203,123775,6,0,P|456:191|488:154,2,83.9999974365235,0|0|0,0:0|0:0|0:0,0:0:0:0:
329,143,124722,2,0,P|258:119|159:143,1,167.999994873047,0|0,0:0|0:0,0:0:0:0:
95,218,125670,1,0,0:0:0:0:
52,117,125985,1,0,0:0:0:0:
131,42,126301,5,0,0:0:0:0:
131,42,126617,2,0,P|151:90|123:210,1,167.999994873047,0|0,0:0|0:0,0:0:0:0:
129,200,127880,2,0,P|104:279|127:358,1,167.999994873047,0|0,0:0|0:0,0:0:0:0:
10,346,128827,5,0,0:0:0:0:
201,281,129143,1,0,0:0:0:0:
39,175,129459,2,0,P|35:209|42:241,1,62.9999980773926,0|0,0:0|0:0,0:0:0:0:
49,253,129775,2,0,P|72:253|93:249,1,41.9999987182618,0|0,0:0|0:0,0:0:0:0:
191,201,130091,6,0,P|230:202|270:215,1,62.9999980773926,0|0,0:0|0:0,0:0:0:0:
272,217,130406,2,0,P|326:215|354:205,1,83.9999974365235,0|0,0:0|0:0,0:0:0:0:
398,51,131038,1,0,0:0:0:0:
462,197,131354,6,0,P|471:241|469:273,2,62.9999980773926,0|0|0,0:0|0:0|0:0,0:0:0:0:
412,134,131985,2,0,P|432:120|447:102,2,41.9999987182618,0|0|0,0:0|0:0|0:0,0:0:0:0:
346,180,132459,6,0,P|299:182|248:167,1,83.9999974365235,0|0,0:0|0:0,0:0:0:0:
185,144,132933,1,0,0:0:0:0:
259,2,133249,2,0,P|265:45|254:93,1,83.9999974365235,0|0,0:0|0:0,0:0:0:0:
107,138,133880,5,0,0:0:0:0:
182,278,134196,2,0,P|128:297|90:295,1,83.9999974365235,0|0,0:0|0:0,0:0:0:0:
148,145,134827,2,0,P|125:139|93:138,1,41.9999987182618,0|0,0:0|0:0,0:0:0:0:
26,135,135143,6,0,P|17:93|25:49,1,83.9999974365235,0|0,0:0|0:0,0:0:0:0:
92,3,135617,1,0,0:0:0:0:
151,80,135775,2,0,P|193:88|236:77,1,83.9999974365235,0|0,0:0|0:0,0:0:0:0:
420,84,136406,6,0,P|454:65|483:60,2,55.9999982910157,0|0|0,0:0|0:0|0:0,0:0:0:0:
400,188,137038,2,0,P|426:218|465:234,1,55.9999982910157,0|0,0:0|0:0,0:0:0:0:
511,332,137512,6,0,P|450:332|418:347,1,83.9999974365235,0|0,0:0|0:0,0:0:0:0:
361,382,137985,1,0,0:0:0:0:
208,335,138301,2,0,L|217:237,1,83.9999974365235,0|0,0:0|0:0,0:0:0:0:
313,124,138933,6,0,L|326:211,1,83.9999974365235,0|0,0:0|0:0,0:0:0:0:
358,363,139564,1,0,0:0:0:0:
423,215,139880,2,0,P|426:251|421:274,1,41.9999987182618,0|0,0:0|0:0,0:0:0:0:
348,232,140196,6,0,P|345:196|350:173,1,41.9999987182618,0|0,0:0|0:0,0:0:0:0:
368,113,140512,2,0,P|367:55|354:22,2,83.9999974365235,0|0|0,0:0|0:0|0:0,0:0:0:0:
256,224,141459,6,0,P|251:257|253:283,2,41.9999987182618,0|0|0,0:0|0:0|0:0,0:0:0:0:
282,148,141933,1,0,0:0:0:0:
202,162,142091,2,0,P|182:188|171:212,1,41.9999987182618,0|0,0:0|0:0,0:0:0:0:
208,353,142564,6,0,P|211:295|199:255,1,83.9999974365235,0|0,0:0|0:0,0:0:0:0:
162,202,143038,2,0,P|153:157|161:112,1,83.9999974365235,0|0,0:0|0:0,0:0:0:0:
265,0,143670,1,0,0:0:0:0:
110,39,143985,6,0,P|79:32|57:18,2,41.9999987182618,0|0|0,0:0|0:0|0:0,0:0:0:0:
265,0,144617,1,0,0:0:0:0:
110,39,144933,2,0,P|91:60|79:83,1,41.9999987182618,0|0,0:0|0:0,0:0:0:0:
65,149,145249,6,0,P|75:189|79:197,1,41.9999987182618,0|0,0:0|0:0,0:0:0:0:
138,238,145564,2,0,P|141:276|120:335,1,83.9999974365235,0|0,0:0|0:0,0:0:0:0:
63,366,146038,2,0,P|42:332|38:315,2,41.9999987182618,0|0|0,0:0|0:0|0:0,0:0:0:0:
128,319,146512,6,0,P|162:314|199:320,2,62.9999980773926,0|0|0,0:0|0:0|0:0,0:0:0:0:
63,366,147143,2,0,P|41:329|34:274,1,83.9999974365235,0|0,0:0|0:0,0:0:0:0:
67,216,147617,6,0,P|80:171|77:118,1,83.9999974365235,0|0,0:0|0:0,0:0:0:0:
49,59,148091,1,0,0:0:0:0:
196,117,148406,2,0,P|247:109|288:85,1,83.9999974365235,0|0,0:0|0:0,0:0:0:0:
381,0,149040,6,0,P|377:29|382:64,1,45.4999979171754,0|0,0:0|0:0,0:0:0:0:
415,117,149392,2,0,P|419:146|414:181,1,45.4999979171754,0|0,0:0|0:0,0:0:0:0:
393,240,149745,2,0,P|348:237|298:257,1,90.9999958343508,0|0,0:0|0:0,0:0:0:0:
245,309,150275,1,0,0:0:0:0:
245,309,150451,6,0,P|262:335|287:351,1,45.4999979171754,0|0,0:0|0:0,0:0:0:0:
354,355,150804,2,0,P|386:339|401:325,1,45.4999979171754,0|0,0:0|0:0,0:0:0:0:
423,256,151157,2,0,P|415:219|407:203,1,45.4999979171754,0|0,0:0|0:0,0:0:0:0:
399,130,151510,2,0,P|400:92|405:73,1,45.4999979171754,0|0,0:0|0:0,0:0:0:0:
441,12,151863,5,0,0:0:0:0:
441,12,152040,1,0,0:0:0:0:
512,96,152216,2,0,P|463:129|418:132,1,90.9999958343508,0|0,0:0|0:0,0:0:0:0:
351,119,152745,1,0,0:0:0:0:
351,119,152922,2,0,P|322:109|299:105,1,45.4999979171754,0|0,0:0|0:0,0:0:0:0:
225,107,153275,6,0,P|183:129|130:135,1,90.9999958343508,0|0,0:0|0:0,0:0:0:0:
60,115,153804,1,0,0:0:0:0:
60,115,153981,2,0,P|69:143|70:160,1,45.4999979171754,0|0,0:0|0:0,0:0:0:0:
41,235,154334,2,0,P|32:263|31:280,1,45.4999979171754,0|0,0:0|0:0,0:0:0:0:
55,357,154687,5,0,0:0:0:0:
55,357,154863,1,0,0:0:0:0:
126,317,155040,2,0,P|145:313|219:326,1,90.9999958343508,0|0,0:0|0:0,0:0:0:0:
286,363,155569,1,0,0:0:0:0:
286,363,155745,2,0,P|316:356|341:344,1,45.4999979171754,0|0,0:0|0:0,0:0:0:0:
327,268,156098,6,0,P|297:263|271:264,1,45.4999979171754,0|0,0:0|0:0,0:0:0:0:
204,290,156451,2,0,P|165:299|148:297,1,45.4999979171754,0|0,0:0|0:0,0:0:0:0:
81,275,156804,2,0,P|57:228|57:189,1,90.9999958343508,0|0,0:0|0:0,0:0:0:0:
87,114,157334,1,0,0:0:0:0:
87,114,157510,6,0,P|94:79|92:51,1,45.4999979171754,0|0,0:0|0:0,0:0:0:0:
24,25,157863,2,0,P|17:60|19:88,1,45.4999979171754,0|0,0:0|0:0,0:0:0:0:
15,151,158216,2,0,P|49:183|93:194,1,90.9999958343508,0|0,0:0|0:0,0:0:0:0:
171,177,158745,1,0,0:0:0:0:
171,177,158922,6,0,P|195:165|224:160,1,45.4999979171754,0|0,0:0|0:0,0:0:0:0:
292,180,159275,2,0,P|321:187|342:187,1,45.4999979171754,0|0,0:0|0:0,0:0:0:0:
417,171,159628,2,0,P|439:143|449:84,1,90.9999958343508,0|0,0:0|0:0,0:0:0:0:
416,15,160157,1,0,0:0:0:0:
416,15,160334,5,0,0:0:0:0:
512,192,160687,1,0,0:0:0:0:
331,12,161040,6,0,P|338:61|330:102,1,90.9999958343508,0|0,0:0|0:0,0:0:0:0:
282,168,161569,1,0,0:0:0:0:
282,168,161745,6,0,P|275:209|280:228,1,45.4999979171754,0|0,0:0|0:0,0:0:0:0:
334,269,162098,2,0,P|342:292|343:326,1,45.4999979171754,0|0,0:0|0:0,0:0:0:0:
223,320,162451,2,0,P|249:310|269:307,1,45.4999979171754,0|0,0:0|0:0,0:0:0:0:
296,372,162804,2,0,P|270:382|250:385,1,45.4999979171754,0|0,0:0|0:0,0:0:0:0:
171,374,163157,5,0,0:0:0:0:
171,374,163334,1,0,0:0:0:0:
171,374,163510,2,0,P|146:361|129:343,1,45.4999979171754,0|0,0:0|0:0,0:0:0:0:
94,276,163863,2,0,P|48:263|3:266,1,90.9999958343508,0|0,0:0|0:0,0:0:0:0:
34,188,164392,1,0,0:0:0:0:
34,188,164569,6,0,P|46:141|37:89,1,90.9999958343508,0|0,0:0|0:0,0:0:0:0:
128,0,165275,1,0,0:0:0:0:
128,0,165451,1,0,0:0:0:0:
177,65,165628,1,0,0:0:0:0:
69,261,165981,6,0,P|53:308|54:363,1,97.9999970092774,0|0,0:0|0:0,0:0:0:0:
137,382,166510,2,0,L|153:380,4,12.2499996261597,0|0|0|0|0,0:0|0:0|0:0|0:0|0:0,0:0:0:0:
224,368,166863,1,0,0:0:0:0:
471,327,167216,1,0,0:0:0:0:
170,277,167569,5,0,0:0:0:0:
83,259,167745,2,0,L|184:245,1,97.9999970092774,0|0,0:0|0:0,0:0:0:0:
268,233,168275,1,0,0:0:0:0:
0,187,168804,6,0,L|101:173,1,97.9999970092774,0|0,0:0|0:0,0:0:0:0:
185,162,169334,2,0,L|201:160,4,12.2499996261597,0|0|0|0|0,0:0|0:0|0:0|0:0|0:0,0:0:0:0:
272,148,169687,1,0,0:0:0:0:
512,108,170040,1,0,0:0:0:0:
297,24,170392,5,0,0:0:0:0:
343,99,170569,1,0,0:0:0:0:
256,288,170922,5,0,0:0:0:0:
256,288,171275,5,0,0:0:0:0:
355,79,171451,1,0,0:0:0:0:
329,351,171622,1,0,0:0:0:0:
329,351,171798,1,0,0:0:0:0:
329,351,171975,2,0,L|428:336,1,90.9999958343508,0|0,0:0|0:0,0:0:0:0:
213,114,172328,5,0,0:0:0:0:
248,384,172504,1,0,0:0:0:0:
299,120,172681,1,0,0:0:0:0:
129,106,172857,1,0,0:0:0:0:
380,125,173034,6,0,B|424:117|455:135|455:135|485:152|512:146,1,136.499993751526,0|0,0:0|0:0,0:0:0:0:
512,126,173386,1,0,0:0:0:0:
223,21,173563,1,0,0:0:0:0:
480,0,173739,5,0,0:0:0:0:
200,25,173916,1,0,0:0:0:0:
412,202,174092,2,0,P|419:254|399:321,1,90.9999958343508,0|0,0:0|0:0,0:0:0:0:
152,238,174445,6,0,P|239:215|310:238,1,136.499993751526,0|0,0:0|0:0,0:0:0:0:
302,234,174798,1,0,0:0:0:0:
200,25,174975,1,0,0:0:0:0:
241,293,175152,5,0,0:0:0:0:
197,4,175328,1,0,0:0:0:0:
178,348,175504,2,0,L|87:333,1,90.9999958343508,0|0,0:0|0:0,0:0:0:0:
329,96,175857,6,0,L|420:111,1,90.9999958343508,0|0,0:0|0:0,0:0:0:0:
148,265,176210,2,0,L|57:250,1,90.9999958343508,0|0,0:0|0:0,0:0:0:0:
359,176,176563,5,0,0:0:0:0:
36,172,176739,1,0,0:0:0:0:
393,253,176916,1,0,0:0:0:0:
79,98,177092,1,0,0:0:0:0:
434,338,177269,5,0,0:0:0:0:
434,338,177445,1,0,0:0:0:0:
434,338,177622,2,0,L|342:357,1,90.9999958343508,0|0,0:0|0:0,0:0:0:0:
418,110,177974,5,0,0:0:0:0:
266,370,178151,1,0,0:0:0:0:
447,187,178327,1,0,0:0:0:0:
254,384,178504,1,0,0:0:0:0:
256,96,178680,5,0,0:0:0:0:
387,278,178857,1,0,0:0:0:0:
243,77,179033,1,0,0:0:0:0:
446,222,179210,1,0,0:0:0:0:
157,213,179386,6,0,B|149:257|167:288|167:288|184:318|178:345,1,136.499993751526,0|0,0:0|0:0,0:0:0:0:
173,365,179739,1,0,0:0:0:0:
285,223,179916,1,0,0:0:0:0:
14,342,180092,5,0,0:0:0:0:
14,342,180269,1,0,0:0:0:0:
14,342,180445,2,0,L|105:331,1,90.9999958343508,0|0,0:0|0:0,0:0:0:0:
264,143,180798,5,0,0:0:0:0:
160,274,180974,1,0,0:0:0:0:
323,82,181151,1,0,0:0:0:0:
256,352,181327,1,0,0:0:0:0:
242,60,181504,5,0,0:0:0:0:
258,375,181680,1,0,0:0:0:0:
161,33,181857,1,0,0:0:0:0:
416,192,182033,1,0,0:0:0:0:
153,249,182210,5,0,0:0:0:0:
425,275,182386,1,0,0:0:0:0:
147,161,182563,1,0,0:0:0:0:
438,361,182739,1,0,0:0:0:0:
77,215,182916,5,0,0:0:0:0:
77,215,183092,1,0,0:0:0:0:
77,215,183269,2,0,L|67:311,1,90.9999958343508,0|0,0:0|0:0,0:0:0:0:
435,215,183622,6,0,L|444:305,1,90.9999958343508,0|0,0:0|0:0,0:0:0:0:
90,130,183974,1,0,0:0:0:0:
256,288,184151,1,0,0:0:0:0:
422,130,184327,6,0,L|412:39,1,90.9999958343508,0|0,0:0|0:0,0:0:0:0:
192,160,184680,2,0,L|182:250,1,90.9999958343508,0|0,0:0|0:0,0:0:0:0:
435,215,185033,5,0,0:0:0:0:
178,129,185210,2,0,L|168:219,1,90.9999958343508,0|0,0:0|0:0,0:0:0:0:
412,207,185563,1,0,0:0:0:0:
158,298,185739,5,0,0:0:0:0:
386,132,185916,1,0,0:0:0:0:
140,313,186092,1,0,0:0:0:0:
400,298,186269,1,0,0:0:0:0:
256,64,186445,5,0,0:0:0:0:
256,320,186622,1,0,0:0:0:0:
256,42,186798,1,0,0:0:0:0:
412,316,186974,1,0,0:0:0:0:
122,98,187151,5,0,0:0:0:0:
448,192,187327,1,0,0:0:0:0:
102,93,187504,1,0,0:0:0:0:
424,67,187680,1,0,0:0:0:0:
256,320,187857,5,0,0:0:0:0:
256,32,188033,1,0,0:0:0:0:
256,342,188210,1,0,0:0:0:0:
436,47,188386,1,0,0:0:0:0:
160,256,188563,5,0,0:0:0:0:
160,256,188739,1,0,0:0:0:0:
160,256,188916,2,0,L|168:338,1,77.0000023498536,0|0,0:0|0:0,0:0:0:0:
32,192,189269,2,0,L|41:103,1,77.0000023498536,0|0,0:0|0:0,0:0:0:0:
239,237,189622,1,0,0:0:0:0:
12,205,189798,6,0,L|20:121,1,77.0000023498536,0|0,0:0|0:0,0:0:0:0:
221,79,190151,2,0,L|229:162,1,77.0000023498536,0|0,0:0|0:0,0:0:0:0:
32,46,190504,1,0,0:0:0:0:
32,46,190680,2,0,B|110:50|110:50|184:14,1,154.000004699707,0|0,0:0|0:0,0:0:0:0:
127,148,191210,1,0,0:0:0:0:
288,0,191386,5,0,0:0:0:0:
288,0,191563,1,0,0:0:0:0:
288,0,191739,2,0,L|296:82,1,77.0000023498536,0|0,0:0|0:0,0:0:0:0:
487,192,192092,2,0,L|495:110,1,77.0000023498536,0|0,0:0|0:0,0:0:0:0:
274,157,192445,1,0,0:0:0:0:
503,210,192622,6,0,L|511:128,1,77.0000023498536,0|0,0:0|0:0,0:0:0:0:
288,240,192974,2,0,L|296:322,1,77.0000023498536,0|0,0:0|0:0,0:0:0:0:
499,298,193327,1,0,0:0:0:0:
499,298,193504,2,0,B|422:308|422:308|372:368,1,154.000004699707,0|0,0:0|0:0,0:0:0:0:
393,208,194033,1,0,0:0:0:0:
480,384,194210,5,0,0:0:0:0:
477,168,194386,1,0,0:0:0:0:
352,384,194563,1,0,0:0:0:0:
487,150,194739,1,0,0:0:0:0:
285,317,194916,5,0,0:0:0:0:
398,280,195093,1,0,0:0:0:0:
398,160,195269,1,0,0:0:0:0:
284,123,195446,1,0,0:0:0:0:
214,220,195622,5,0,0:0:0:0:
354,33,195798,1,0,0:0:0:0:
214,220,195974,1,0,0:0:0:0:
101,183,196151,1,0,0:0:0:0:
101,63,196327,1,0,0:0:0:0:
215,26,196504,1,0,0:0:0:0:
285,123,196680,2,0,L|197:131,1,77.0000023498536,0|0,0:0|0:0,0:0:0:0:
1,91,197033,5,0,0:0:0:0:
214,220,197210,1,0,0:0:0:0:
101,63,197386,1,0,0:0:0:0:
116,198,197563,1,0,0:0:0:0:
200,31,197739,1,0,0:0:0:0:
214,220,197916,1,0,0:0:0:0:
200,9,198092,1,0,0:0:0:0:
144,284,198269,6,0,L|48:295,1,77.0000023498536,0|0,0:0|0:0,0:0:0:0:
282,153,198621,2,0,L|378:164,1,77.0000023498536,0|0,0:0|0:0,0:0:0:0:
116,198,198974,1,0,0:0:0:0:
116,198,199151,2,0,L|105:102,1,77.0000023498536,0|0,0:0|0:0,0:0:0:0:
270,243,199504,2,0,L|259:339,1,77.0000023498536,0|0,0:0|0:0,0:0:0:0:
303,65,199857,5,0,0:0:0:0:
366,254,200033,1,0,0:0:0:0:
231,130,200210,1,0,0:0:0:0:
382,271,200386,1,0,0:0:0:0:
377,3,200563,2,0,L|473:14,1,77.0000023498536,0|0,0:0|0:0,0:0:0:0:
213,40,200916,1,0,0:0:0:0:
441,97,201092,6,0,L|430:193,1,77.0000023498536,0|0,0:0|0:0,0:0:0:0:
237,46,201445,1,0,0:0:0:0:
357,218,201621,1,0,0:0:0:0:
454,75,201798,1,0,0:0:0:0:
310,288,201974,5,0,0:0:0:0:
279,165,202151,1,0,0:0:0:0:
512,180,202327,5,0,0:0:0:0:
389,211,202504,1,0,0:0:0:0:
421,0,202680,5,0,0:0:0:0:
421,0,202857,1,0,0:0:0:0:
421,0,203033,2,0,L|436:98,1,77.0000023498536,0|0,0:0|0:0,0:0:0:0:
382,235,203386,1,0,0:0:0:0:
512,123,203563,1,0,0:0:0:0:
404,323,203739,1,0,0:0:0:0:
327,17,203916,6,0,L|229:32,1,77.0000023498536,0|0,0:0|0:0,0:0:0:0:
512,189,204269,1,0,0:0:0:0:
249,171,204445,1,0,0:0:0:0:
494,104,204621,1,0,0:0:0:0:
302,286,204798,5,0,0:0:0:0:
476,23,204974,1,0,0:0:0:0:
289,306,205151,1,0,0:0:0:0:
488,3,205327,1,0,0:0:0:0:
194,294,205504,5,0,0:0:0:0:
194,294,205680,1,0,0:0:0:0:
194,294,205857,2,0,L|106:280,1,77.0000023498536,0|0,0:0|0:0,0:0:0:0:
318,294,206210,2,0,L|406:280,1,77.0000023498536,0|0,0:0|0:0,0:0:0:0:
158,205,206563,2,0,L|70:191,1,77.0000023498536,0|0,0:0|0:0,0:0:0:0:
354,205,206916,6,0,L|442:191,1,77.0000023498536,0|0,0:0|0:0,0:0:0:0:
132,46,207269,2,0,L|146:134,1,77.0000023498536,0|0,0:0|0:0,0:0:0:0:
367,122,207621,2,0,L|380:46,1,77.0000023498536,0|0,0:0|0:0,0:0:0:0:
256,256,207974,2,0,L|256:352,1,77.0000023498536,0|0,0:0|0:0,0:0:0:0:
256,96,208327,6,0,L|256:0,1,77.0000023498536,0|0,0:0|0:0,0:0:0:0:
416,192,208680,2,0,L|402:280,1,77.0000023498536,0|0,0:0|0:0,0:0:0:0:
108,268,209033,2,0,L|96:192,1,77.0000023498536,0|0,0:0|0:0,0:0:0:0:
339,143,209386,1,0,0:0:0:0:
186,309,209563,1,0,0:0:0:0:
354,125,209739,6,0,L|342:201,1,77.0000023498536,0|0,0:0|0:0,0:0:0:0:
145,76,210092,2,0,L|133:0,1,77.0000023498536,0|0,0:0|0:0,0:0:0:0:
370,107,210445,5,0,0:0:0:0:
118,158,210621,1,0,0:0:0:0:
385,92,210798,1,0,0:0:0:0:
92,239,210974,1,0,0:0:0:0:
320,0,211151,5,0,0:0:0:0:
385,92,211327,1,0,0:0:0:0:
449,180,211504,1,0,0:0:0:0:
345,0,211680,1,0,0:0:0:0:
426,180,211857,6,0,L|414:256,1,77.0000023498536,0|0,0:0|0:0,0:0:0:0:
310,348,212210,2,0,L|298:272,1,77.0000023498536,0|0,0:0|0:0,0:0:0:0:
272,135,212563,5,0,0:0:0:0:
180,200,212739,1,0,0:0:0:0:
92,264,212916,1,0,0:0:0:0:
272,160,213092,1,0,0:0:0:0:
92,241,213269,6,0,L|16:229,1,77.0000023498536,0|0,0:0|0:0,0:0:0:0:
47,364,213622,2,0,L|123:352,1,77.0000023498536,0|0,0:0|0:0,0:0:0:0:
258,323,213974,5,0,0:0:0:0:
193,231,214150,1,0,0:0:0:0:
129,143,214327,1,0,0:0:0:0:
233,323,214503,1,0,0:0:0:0:
152,143,214680,6,0,L|164:67,1,77.0000023498536,0|0,0:0|0:0,0:0:0:0:
287,2,215033,2,0,L|299:78,1,77.0000023498536,0|0,0:0|0:0,0:0:0:0:
330,213,215386,5,0,0:0:0:0:
155,47,215563,1,0,0:0:0:0:
403,138,215739,1,0,0:0:0:0:
80,114,215916,1,0,0:0:0:0:
486,68,216092,5,0,0:0:0:0:
57,117,216269,1,0,0:0:0:0:
509,64,216445,1,0,0:0:0:0:
85,0,216621,1,0,0:0:0:0:
482,196,216798,5,0,0:0:0:0:
482,196,216974,1,0,0:0:0:0:
482,196,217151,2,0,L|470:272,1,77.0000023498536,0|0,0:0|0:0,0:0:0:0:
271,271,217504,2,0,L|259:195,1,77.0000023498536,0|0,0:0|0:0,0:0:0:0:
501,160,217857,2,0,L|475:315,1,154.000004699707,0|0,0:0|0:0,0:0:0:0:
234,71,218563,5,0,0:0:0:0:
234,71,218739,2,0,L|358:92,1,125.999996154785,0|0,0:0|0:0,0:0:0:0:
358,92,219445,1,0,0:0:0:0:
151,169,219621,5,0,0:0:0:0:
151,169,219798,1,0,0:0:0:0:
151,169,219974,2,0,L|77:157,1,62.9999980773926,0|0,0:0|0:0,0:0:0:0:
0,57,220327,2,0,L|74:45,1,62.9999980773926,0|0,0:0|0:0,0:0:0:0:
62,230,220680,2,0,L|-12:218,1,62.9999980773926,0|0,0:0|0:0,0:0:0:0:
147,35,221033,5,0,0:0:0:0:
146,246,221210,1,0,0:0:0:0:
234,20,221386,1,0,0:0:0:0:
229,262,221563,1,0,0:0:0:0:
0,57,221739,5,0,0:0:0:0:
354,150,221916,1,0,0:0:0:0:
8,141,222092,1,0,0:0:0:0:
372,75,222269,1,0,0:0:0:0:
24,232,222445,5,0,0:0:0:0:
24,232,222621,1,0,0:0:0:0:
24,232,222798,2,0,L|36:308,1,77.0000023498536,0|0,0:0|0:0,0:0:0:0:
224,192,223151,2,0,L|236:116,1,77.0000023498536,0|0,0:0|0:0,0:0:0:0:
114,307,223504,2,0,L|126:383,1,77.0000023498536,0|0,0:0|0:0,0:0:0:0:
236,115,223857,6,0,L|160:103,1,77.0000023498536,0|0,0:0|0:0,0:0:0:0:
203,366,224210,2,0,L|279:354,1,77.0000023498536,0|0,0:0|0:0,0:0:0:0:
257,100,224563,2,0,L|181:88,1,77.0000023498536,0|0,0:0|0:0,0:0:0:0:
223,349,224916,2,0,L|299:337,1,77.0000023498536,0|0,0:0|0:0,0:0:0:0:
99,69,225269,5,0,0:0:0:0:
189,275,225445,1,0,0:0:0:0:
89,51,225621,1,0,0:0:0:0:
283,151,225798,1,0,0:0:0:0:
18,189,225974,5,0,0:0:0:0:
279,62,226151,1,0,0:0:0:0:
0,202,226327,1,0,0:0:0:0:
115,0,226504,1,0,0:0:0:0:
194,295,226680,5,0,0:0:0:0:
0,64,226857,1,0,0:0:0:0:
207,313,227033,1,0,0:0:0:0:
251,8,227210,1,0,0:0:0:0:
22,253,227386,5,0,0:0:0:0:
327,168,227563,1,0,0:0:0:0:
0,262,227739,1,0,0:0:0:0:
235,25,227916,1,0,0:0:0:0:
150,332,228092,6,0,P|132:271|136:226,1,80.5000015354157,0|0,0:0|0:0,0:0:0:0:
279,94,228445,2,0,P|275:133|260:171,1,80.5000015354157,0|0,0:0|0:0,0:0:0:0:
57,89,228798,1,0,0:0:0:0:
80,94,228886,1,0,0:0:0:0:
104,92,228974,1,0,0:0:0:0:
128,96,229063,1,0,0:0:0:0:
152,95,229151,1,0,0:0:0:0:
325,0,229327,1,0,0:0:0:0:
156,176,229504,6,0,P|174:211|205:236,1,80.5000015354157,0|0,0:0|0:0,0:0:0:0:
357,81,229857,2,0,P|304:87|273:104,1,80.5000015354157,0|0,0:0|0:0,0:0:0:0:
291,258,230210,1,0,0:0:0:0:
291,258,230386,1,0,0:0:0:0:
274,17,230563,1,0,0:0:0:0:
373,271,230739,1,0,0:0:0:0:
213,78,230916,6,0,P|214:119|234:163,1,80.5000015354157,0|0,0:0|0:0,0:0:0:0:
446,238,231269,2,0,P|401:199|364:192,1,80.5000015354157,0|0,0:0|0:0,0:0:0:0:
205,350,231621,2,0,P|247:318|262:287,1,80.5000015354157,0|0,0:0|0:0,0:0:0:0:
213,78,231974,1,0,0:0:0:0:
384,287,232327,6,0,L|400:180,1,105.000004005432,0|0,0:0|0:0,0:0:0:0:
174,150,232680,2,0,L|184:215,1,52.5000020027161,0|0,0:0|0:0,0:0:0:0:
304,311,232857,2,0,L|352:-5,1,315.000012016297,0|0,0:0|0:0,0:0:0:0:
93,44,233739,6,0,P|75:105|79:150,1,80.5000015354157,0|0,0:0|0:0,0:0:0:0:
222,282,234092,2,0,P|218:243|203:205,1,80.5000015354157,0|0,0:0|0:0,0:0:0:0:
0,287,234445,1,0,0:0:0:0:
23,282,234533,1,0,0:0:0:0:
47,284,234621,1,0,0:0:0:0:
71,280,234710,1,0,0:0:0:0:
95,281,234798,1,0,0:0:0:0:
268,376,234974,1,0,0:0:0:0:
99,200,235151,6,0,P|117:164|148:139,1,80.5000015354157,0|0,0:0|0:0,0:0:0:0:
300,295,235504,2,0,P|247:289|216:272,1,80.5000015354157,0|0,0:0|0:0,0:0:0:0:
234,118,235857,1,0,0:0:0:0:
234,118,236033,1,0,0:0:0:0:
217,359,236210,1,0,0:0:0:0:
316,105,236386,1,0,0:0:0:0:
156,298,236563,6,0,P|157:254|173:212,1,80.5000015354157,0|0,0:0|0:0,0:0:0:0:
389,138,236916,2,0,P|344:177|307:184,1,80.5000015354157,0|0,0:0|0:0,0:0:0:0:
148,26,237268,2,0,P|190:58|205:89,1,80.5000015354157,0|0,0:0|0:0,0:0:0:0:
156,298,237621,1,0,0:0:0:0:
156,298,237989,6,0,P|157:254|176:201,2,83.9999974365235,0|0|0,0:0|0:0|0:0,0:0:0:0:
253,356,238970,2,0,P|263:357|277:355,3,13.9999995727539,0|0|0|0,0:0|0:0|0:0|0:0,0:0:0:0:
449,254,239560,6,0,L|382:260,1,56,0|0,0:0|0:0,0:0:0:0:
319,167,239993,2,0,L|386:173,1,56,0|0,0:0|0:0,0:0:0:0:
481,73,240393,2,0,L|347:85,1,112,0|0,0:0|0:0,0:0:0:0:
147,0,241193,5,0,0:0:0:0:
156,83,241393,1,0,0:0:0:0:
165,166,241593,2,0,L|171:233,1,56,0|0,0:0|0:0,0:0:0:0:
184,343,241993,1,0,0:0:0:0:
267,345,242193,1,0,0:0:0:0:
300,267,242393,1,0,0:0:0:0:
248,200,242593,1,0,0:0:0:0:
169,221,242793,6,0,L|102:227,1,56,0|0,0:0|0:0,0:0:0:0:
31,307,243193,2,0,L|165:319,1,112,0|0,0:0|0:0,0:0:0:0:
226,323,243793,1,0,0:0:0:0:
309,312,243993,1,0,0:0:0:0:
392,301,244193,1,0,0:0:0:0:
475,290,244393,6,0,L|469:223,1,56,0|0,0:0|0:0,0:0:0:0:
389,162,244793,2,0,L|377:295,1,112,0|0,0:0|0:0,0:0:0:0:
289,348,245393,2,0,L|292:375,1,28,0|0,0:0|0:0,0:0:0:0:
283,305,245593,2,0,L|277:238,1,56,0|0,0:0|0:0,0:0:0:0:
268,165,245993,5,0,0:0:0:0:
257,81,246193,1,0,0:0:0:0:
390,0,246393,1,0,0:0:0:0:
388,83,246593,1,0,0:0:0:0:
241,65,246793,2,0,L|253:198,1,112,0|0,0:0|0:0,0:0:0:0:
100,292,247593,5,0,0:0:0:0:
108,208,247793,1,0,0:0:0:0:
117,124,247993,2,0,L|124:51,1,56,0|0,0:0|0:0,0:0:0:0:
0,0,248393,1,0,0:0:0:0:
3,83,248593,1,0,0:0:0:0:
6,166,248793,1,0,0:0:0:0:
10,249,248993,1,0,0:0:0:0:
15,332,249193,6,0,L|82:338,1,56,0|0,0:0|0:0,0:0:0:0:
121,239,249593,2,0,L|-13:251,1,112,0|0,0:0|0:0,0:0:0:0:
15,332,250193,1,0,0:0:0:0:
98,339,250393,1,0,0:0:0:0:
181,346,250593,1,0,0:0:0:0:
264,352,250793,6,0,L|259:296,1,56,0|0,0:0|0:0,0:0:0:0:
362,238,251193,2,0,L|350:372,1,112,0|0,0:0|0:0,0:0:0:0:
443,354,251793,2,0,L|477:358,2,28,0|0|0,0:0|0:0|0:0,0:0:0:0:
255,160,252393,6,0,B|258:176|265:190|265:190|258:200|253:214|253:214|260:239|258:263,1,105.000004005432,0|0,0:0|0:0,0:0:0:0:
256,67,252793,6,0,B|254:50|245:30|245:30|247:14|253:0,1,70,0|0,0:0|0:0,0:0:0:0:
178,249,253193,6,0,B|150:242|119:250|119:250|79:239|59:215|59:215|23:214|-3:234,1,189.000000720978,0|0,0:0|0:0,0:0:0:0:
334,135,253593,2,0,B|362:142|393:134|393:134|433:145|453:169|453:169|489:170|515:150,1,189.000000720978,0|0,0:0|0:0,0:0:0:0:
131,165,253993,6,0,B|126:147|106:130|106:130|94:106|98:80,1,94.5000003604889,0|0,0:0|0:0,0:0:0:0:
381,219,254193,2,0,B|385:236|405:253|405:253|417:277|413:303,1,94.5000003604889,0|0,0:0|0:0,0:0:0:0:
353,63,254393,2,0,B|345:51|345:39|345:39|352:28|357:12,2,47.2500001802444,0|0|0,0:0|0:0|0:0,0:0:0:0:
159,321,254593,2,0,B|167:333|167:345|167:345|160:356|155:370,2,47.2500001802444,0|0|0,0:0|0:0|0:0,0:0:0:0:
420,144,254793,6,0,B|424:126|444:109|444:109|456:85|452:59,1,94.5000003604889,0|0,0:0|0:0,0:0:0:0:
314,253,254993,2,0,P|330:283|350:301,1,47.2500001802444,0|0,0:0|0:0,0:0:0:0:
380,39,255193,2,0,P|370:17|355:0,1,47.2500001802444,0|0,0:0|0:0,0:0:0:0:
410,334,255393,2,0,P|425:315|434:294,1,47.2500001802444,0|0,0:0|0:0,0:0:0:0:
328,135,255593,6,0,B|327:160|342:182|342:182|365:196|373:212,1,94.5000003604889,0|0,0:0|0:0,0:0:0:0:
511,281,255793,2,0,P|501:259|486:241,1,47.2500001802444,0|0,0:0|0:0,0:0:0:0:
486,7,255993,2,0,B|460:30|458:69|458:69|474:101|475:151|475:151|460:169|444:177,1,189.000000720978,0|0,0:0|0:0,0:0:0:0:
185,43,256393,6,0,P|196:12|206:-5,1,47.2500001802444,0|0,0:0|0:0,0:0:0:0:
288,192,256593,2,0,P|298:212|305:235,1,47.2500001802444,0|0,0:0|0:0,0:0:0:0:
198,57,256793,2,0,P|209:26|219:9,1,47.2500001802444,0|0,0:0|0:0,0:0:0:0:
229,236,256993,2,0,P|226:262|216:284,1,47.2500001802444,0|0,0:0|0:0,0:0:0:0:
121,84,257193,6,0,B|117:66|97:49|97:49|85:25|89:-1,1,94.5000003604889,0|0,0:0|0:0,0:0:0:0:
292,312,257393,2,0,P|282:332|275:355,1,47.2500001802444,0|0,0:0|0:0,0:0:0:0:
0,162,257593,2,0,B|-10:128|7:94|7:94|38:75|64:32|64:32|61:9|51:-7,1,189.000000720978,0|0,0:0|0:0,0:0:0:0:
154,239,257993,1,0,0:0:0:0:
152,67,258193,2,0,B|156:85|176:102|176:102|188:126|184:152,1,94.5000003604889,0|0,0:0|0:0,0:0:0:0:
117,376,258393,1,0,0:0:0:0:
117,376,258593,1,0,0:0:0:0:
257,224,258793,6,0,B|254:208|247:194|247:194|254:184|259:170|259:170|252:145|254:121,1,105.000004005432,0|0,0:0|0:0,0:0:0:0:
256,317,259193,6,0,B|256:395,1,70,0|0,0:0|0:0,0:0:0:0:
334,135,259593,6,0,B|362:142|393:134|393:134|433:145|453:169|453:169|489:170|515:150,1,189.000000720978,0|0,0:0|0:0,0:0:0:0:
177,248,259993,2,0,B|149:241|118:249|118:249|78:238|58:214|58:214|22:213|-4:233,1,189.000000720978,0|0,0:0|0:0,0:0:0:0:
381,219,260393,6,0,B|386:237|406:254|406:254|418:278|414:304,1,94.5000003604889,0|0,0:0|0:0,0:0:0:0:
131,165,260593,2,0,B|127:148|107:131|107:131|95:107|99:81,1,94.5000003604889,0|0,0:0|0:0,0:0:0:0:
159,321,260793,2,0,B|167:333|167:345|167:345|160:356|155:372,2,47.2500001802444,0|0|0,0:0|0:0|0:0,0:0:0:0:
353,63,260993,2,0,B|345:51|345:39|345:39|352:28|357:14,2,47.2500001802444,0|0|0,0:0|0:0|0:0,0:0:0:0:
92,240,261193,6,0,B|88:258|68:275|68:275|56:299|60:325,1,94.5000003604889,0|0,0:0|0:0,0:0:0:0:
198,131,261393,2,0,P|182:101|162:83,1,47.2500001802444,0|0,0:0|0:0,0:0:0:0:
132,345,261593,2,0,P|142:367|157:384,2,47.2500001802444,0|0|0,0:0|0:0|0:0,0:0:0:0:
102,50,261793,2,0,P|87:69|78:90,2,47.2500001802444,0|0|0,0:0|0:0|0:0,0:0:0:0:
184,249,261993,6,0,B|185:224|170:202|170:202|147:188|139:172,1,94.5000003604889,0|0,0:0|0:0,0:0:0:0:
1,103,262193,2,0,P|11:125|26:143,1,47.2500001802444,0|0,0:0|0:0,0:0:0:0:
26,377,262393,2,0,B|52:354|54:315|54:315|38:283|37:233|37:233|52:215|68:207,1,189.000000720978,0|0,0:0|0:0,0:0:0:0:
327,341,262793,6,0,P|316:372|306:389,1,47.2500001802444,0|0,0:0|0:0,0:0:0:0:
224,192,262993,2,0,P|214:172|207:149,1,47.2500001802444,0|0,0:0|0:0,0:0:0:0:
314,327,263193,2,0,P|303:358|293:375,1,47.2500001802444,0|0,0:0|0:0,0:0:0:0:
283,148,263393,2,0,P|286:122|296:100,1,47.2500001802444,0|0,0:0|0:0,0:0:0:0:
246,296,263593,5,0,0:0:0:0:
331,255,263793,1,0,0:0:0:0:
416,214,263993,1,0,0:0:0:0:
501,174,264193,1,0,0:0:0:0:
373,129,264393,5,0,0:0:0:0:
416,214,264593,1,0,0:0:0:0:
459,298,264793,2,0,L|453:355,1,56,0|0,0:0|0:0,0:0:0:0:
287,174,265193,5,0,0:0:0:0:
337,277,265393,1,0,0:0:0:0:
232,327,265593,1,0,0:0:0:0:
183,223,265793,1,0,0:0:0:0:
293,154,265993,5,0,0:0:0:0:
356,283,266193,1,0,0:0:0:0:
225,346,266393,1,0,0:0:0:0:
163,216,266593,1,0,0:0:0:0:
439,308,266793,6,0,L|481:398,1,83.9999974365235,0|0,0:0|0:0,0:0:0:0:
400,219,267193,1,0,0:0:0:0:
439,135,267393,1,0,0:0:0:0:
484,54,267593,5,0,0:0:0:0:
484,54,267793,1,0,0:0:0:0:
309,221,267993,2,0,L|351:311,1,83.9999974365235,0|0,0:0|0:0,0:0:0:0:
240,30,268391,5,0,0:0:0:0:
178,158,268605,1,0,0:0:0:0:
309,221,268819,1,0,0:0:0:0:
370,91,269033,1,0,0:0:0:0:
233,12,269248,5,0,0:0:0:0:
160,164,269462,1,0,0:0:0:0:
315,238,269676,1,0,0:0:0:0:
387,84,269890,1,0,0:0:0:0:
85,195,270105,5,0,0:0:0:0:
126,279,270319,1,0,0:0:0:0:
40,321,270533,1,0,0:0:0:0:
0,235,270747,1,0,0:0:0:0:
217,299,270962,5,0,0:0:0:0:
303,257,271176,1,0,0:0:0:0:
391,213,271391,1,0,0:0:0:0:
477,171,271605,1,0,0:0:0:0:
144,147,271819,5,0,0:0:0:0:
217,299,272041,1,0,0:0:0:0:
371,227,272263,1,0,0:0:0:0:
299,73,272485,1,0,0:0:0:0:
121,139,272707,5,0,0:0:0:0:
208,321,272929,1,0,0:0:0:0:
393,235,273151,1,0,0:0:0:0:
307,50,273373,1,0,0:0:0:0:
102,298,273596,6,0,L|140:377,1,70,0|0,0:0|0:0,0:0:0:0:
0,307,274041,1,0,0:0:0:0:
42,221,274263,1,0,0:0:0:0:
86,133,274485,5,0,0:0:0:0:
86,133,274707,1,0,0:0:0:0:
130,45,274930,1,0,0:0:0:0:
32,53,275152,1,0,0:0:0:0:
219,304,275374,5,0,0:0:0:0:
42,221,275604,1,0,0:0:0:0:
130,45,275835,1,0,0:0:0:0:
307,130,276066,1,0,0:0:0:0:
227,329,276297,5,0,0:0:0:0:
16,230,276527,1,0,0:0:0:0:
121,19,276758,1,0,0:0:0:0:
332,121,276989,1,0,0:0:0:0:
97,203,277220,6,0,B|100:234|100:234|115:253|115:253|118:280,1,73.4999977569581,0|0,0:0|0:0,0:0:0:0:
135,295,277681,2,0,B|127:239|127:239|140:220|140:220|134:164,1,125.999996154785,0|0,0:0|0:0,0:0:0:0:
133,152,278143,6,0,L|128:101,1,41.9999987182618,0|0,0:0|0:0,0:0:0:0:
224,0,278374,2,0,L|166:11,1,41.9999987182618,0|0,0:0|0:0,0:0:0:0:
32,32,278604,1,0,0:0:0:0:
28,56,278720,2,0,B|24:94|24:94|34:114|34:114|29:162,1,83.9999974365235,0|0,0:0|0:0,0:0:0:0:
28,159,279066,6,0,B|85:137|128:166|128:166|185:207|222:191|222:191|189:159|109:222|109:222|138:253|141:307,1,406.000012390137,0|0,0:0|0:0,0:0:0:0:
34,327,279643,1,0,0:0:0:0:
42,309,279758,2,0,P|49:295|58:285,1,26.2500010013581,0|0,0:0|0:0,0:0:0:0:
219,283,279989,6,0,P|227:293|232:305,1,26.2500010013581,0|0,0:0|0:0,0:0:0:0:
110,222,280220,1,0,0:0:0:0:
313,245,280450,2,0,P|355:239|384:228,1,52.5000020027161,0|0,0:0|0:0,0:0:0:0:
364,236,280912,5,0,0:0:0:0:
421,0,281258,1,0,0:0:0:0:
411,19,281374,2,0,P|404:39|401:60,1,26.2500010013581,0|0,0:0|0:0,0:0:0:0:
512,164,281604,2,0,P|508:151|503:139,1,26.2500010013581,0|0,0:0|0:0,0:0:0:0:
327,43,281835,6,0,P|348:96|376:116,1,78.7500030040742,0|0,0:0|0:0,0:0:0:0:
382,120,282297,5,0,0:0:0:0:
292,149,282412,1,0,0:0:0:0:
292,243,282527,1,0,0:0:0:0:
382,272,282643,1,0,0:0:0:0:
437,196,282758,6,0,B|431:174|413:154|413:154|391:126|400:83|400:83|362:91|340:110|340:110|305:79|256:63,1,251.999992309571,0|0,0:0|0:0,0:0:0:0:
204,103,283220,2,0,L|199:192,1,78.7500030040742,0|0,0:0|0:0,0:0:0:0:
143,247,283681,5,0,0:0:0:0:
140,268,283797,2,0,B|124:200|124:200|67:258|67:258|80:317,1,210.000008010865,0|0,0:0|0:0,0:0:0:0:
85,336,284143,6,0,B|128:366|177:341|177:341|224:315|271:341,1,189.000000720978,0|0,0:0|0:0,0:0:0:0:
282,332,284489,6,0,B|228:298|169:329|169:329|111:360|74:305|74:305|110:294|134:259,1,293.999991027832,0|0,0:0|0:0,0:0:0:0:
79,37,285066,5,0,0:0:0:0:
312,116,285297,1,0,0:0:0:0:
57,27,285527,2,0,P|25:18|56:31,1,90.9999958343508,0|0,0:0|0:0,0:0:0:0:
359,43,285989,5,0,0:0:0:0:
97,103,286220,2,0,P|99:126|103:143,1,26.2500010013581,0|0,0:0|0:0,0:0:0:0:
306,137,286450,1,0,0:0:0:0:
312,116,286566,2,0,P|289:101|217:90,1,83.9999974365235,0|0,0:0|0:0,0:0:0:0:
97,103,286912,6,0,P|103:154|164:239,1,146.999995513916,0|0,0:0|0:0,0:0:0:0:
163,254,287258,6,0,P|112:205|85:114,1,161.000003070831,0|0,0:0|0:0,0:0:0:0:
67,107,287604,5,0,0:0:0:0:
241,264,287835,6,0,L|271:252,1,26.2500010013581,0|0,0:0|0:0,0:0:0:0:
243,96,288066,5,0,0:0:0:0:
243,96,288181,1,0,0:0:0:0:
243,96,288297,2,0,P|242:128|247:143,1,26.2500010013581,0|0,0:0|0:0,0:0:0:0:
320,310,288527,6,0,P|330:317|356:330,2,26.2500010013581,0|0|0,0:0|0:0|0:0,0:0:0:0:
493,154,288989,6,0,P|479:206|468:220,1,45.4999979171754,0|0,0:0|0:0,0:0:0:0:
320,310,289220,5,0,0:0:0:0:
327,233,289335,1,0,0:0:0:0:
335,156,289450,1,0,0:0:0:0:
343,78,289566,1,0,0:0:0:0:
351,1,289681,6,0,L|416:7,1,52.5000020027161,0|0,0:0|0:0,0:0:0:0:
512,64,290027,1,0,0:0:0:0:
512,64,290143,2,0,L|447:70,1,52.5000020027161,0|0,0:0|0:0,0:0:0:0:
256,32,290604,6,0,B|199:10|156:39|156:39|99:80|62:64|62:64|95:32|175:95|175:95|146:126|145:149,1,355.25001084137,0|0,0:0|0:0,0:0:0:0:
153,130,291066,2,0,B|139:177|158:224|158:224|178:268|152:319|152:319|129:281|87:261,1,265.999992897034,0|0,0:0|0:0,0:0:0:0:
102,269,292450,6,0,P|83:266|66:260,3,26.2500010013581,0|0|0|0,0:0|0:0|0:0|0:0,0:0:0:0:
235,282,292912,6,0,P|257:280|282:272,1,39.3750015020371,0|0,0:0|0:0,0:0:0:0:
248,290,293143,2,0,P|270:288|295:280,1,39.3750015020371,0|0,0:0|0:0,0:0:0:0:
263,301,293374,2,0,B|292:298|328:277|328:277|324:305,1,91.8750035047532,0|0,0:0|0:0,0:0:0:0:
323,319,293835,6,0,L|319:362,1,35,0|0,0:0|0:0,0:0:0:0:
96,75,294293,1,0,0:0:0:0:
252,33,294522,6,0,L|249:83,1,35,0|0,0:0|0:0,0:0:0:0:
252,33,294980,6,0,L|249:83,1,35,0|0,0:0|0:0,0:0:0:0:
96,75,295209,5,0,0:0:0:0:
100,150,295323,1,0,0:0:0:0:
104,225,295438,1,0,0:0:0:0:
109,301,295552,1,0,0:0:0:0:
114,376,295667,6,0,B|165:389|210:363|210:363|259:338|312:357,2,203.000006195069,0|0|0,0:0|0:0|0:0,0:0:0:0:
114,376,296125,6,0,P|34:297|45:188,1,203.000006195069,0|0,0:0|0:0,0:0:0:0:
430,252,296583,6,0,P|406:326|358:359,1,101.500003097534,0|0,0:0|0:0,0:0:0:0:
323,135,296812,2,0,P|326:176|354:219,1,83.9999974365235,0|0,0:0|0:0,0:0:0:0:
389,12,297041,2,0,P|391:46|373:83,3,66.4999982242585,0|0|0|0,0:0|0:0|0:0|0:0,0:0:0:0:
310,29,297499,5,0,0:0:0:0:
512,188,297728,1,0,0:0:0:0:
239,103,297957,2,0,B|179:109|179:109|160:124|160:124|87:131,1,132.999996448517,0|0,0:0|0:0,0:0:0:0:
43,291,298415,6,0,P|99:317|131:313,1,66.4999982242585,0|0,0:0|0:0,0:0:0:0:
153,197,298644,2,0,P|102:232|89:262,1,66.4999982242585,0|0,0:0|0:0,0:0:0:0:
180,340,298873,2,0,P|174:278|155:252,1,66.4999982242585,0|0,0:0|0:0,0:0:0:0:
43,291,299102,1,0,0:0:0:0:
264,366,299362,6,0,L|334:357,5,52.5000020027161,0|0|0|0|0|0,0:0|0:0|0:0|0:0|0:0|0:0,0:0:0:0:
480,224,300746,1,0,0:0:0:0:
485,245,300862,1,0,0:0:0:0:
156,104,301220,6,0,L|167:20,1,70,0|0,0:0|0:0,0:0:0:0:
142,212,301681,1,0,0:0:0:0:
356,104,301912,6,0,L|345:20,1,70,0|0,0:0|0:0,0:0:0:0:
370,212,302373,1,0,0:0:0:0:
125,283,302835,6,0,L|172:290,1,35,0|0,0:0|0:0,0:0:0:0:
245,301,303066,1,0,0:0:0:0:
480,128,303296,6,0,L|433:135,1,35,0|0,0:0|0:0,0:0:0:0:
329,148,303527,1,0,0:0:0:0:
457,384,303758,6,0,L|450:337,1,35,0|0,0:0|0:0,0:0:0:0:
432,212,303989,1,0,0:0:0:0:
115,196,304220,6,0,L|162:203,1,35,0|0,0:0|0:0,0:0:0:0:
345,232,304451,1,0,0:0:0:0:
345,232,304912,6,0,L|429:221,1,70,0|0,0:0|0:0,0:0:0:0:
237,246,305373,1,0,0:0:0:0:
297,9,305604,6,0,L|213:-2,1,70,0|0,0:0|0:0,0:0:0:0:
405,23,306065,1,0,0:0:0:0:
305,331,306527,6,0,L|258:324,1,35,0|0,0:0|0:0,0:0:0:0:
185,313,306758,1,0,0:0:0:0:
0,160,306988,6,0,L|47:153,1,35,0|0,0:0|0:0,0:0:0:0:
151,140,307219,1,0,0:0:0:0:
288,0,307450,6,0,L|295:47,1,35,0|0,0:0|0:0,0:0:0:0:
313,172,307681,1,0,0:0:0:0:
480,352,307912,6,0,L|433:345,1,35,0|0,0:0|0:0,0:0:0:0:
250,316,308143,1,0,0:0:0:0:
452,194,308373,6,0,L|464:116,1,70,0|0,0:0|0:0,0:0:0:0:
480,42,308720,1,0,0:0:0:0:
470,21,308835,1,0,0:0:0:0:
295,127,309066,6,0,L|305:196,1,70,0|0,0:0|0:0,0:0:0:0:
278,40,309527,1,0,0:0:0:0:
217,207,309758,2,0,L|207:250,1,35,0|0,0:0|0:0,0:0:0:0:
198,119,309989,1,0,0:0:0:0:
321,275,310220,6,0,L|307:353,1,70,0|0,0:0|0:0,0:0:0:0:
111,269,310681,6,0,L|119:311,1,35,0|0,0:0|0:0,0:0:0:0:
130,181,310912,2,0,L|52:195,1,70,0|0,0:0|0:0,0:0:0:0:
0,17,311373,2,0,L|78:31,1,70,0|0,0:0|0:0,0:0:0:0:
154,46,311720,1,0,0:0:0:0:
176,51,311835,1,0,0:0:0:0:
111,269,312066,6,0,L|33:283,1,70,0|0,0:0|0:0,0:0:0:0:
76,372,312412,1,0,0:0:0:0:
98,377,312527,1,0,0:0:0:0:
284,232,312758,6,0,L|270:154,1,70,0|0,0:0|0:0,0:0:0:0:
304,326,313220,1,0,0:0:0:0:
252,75,313450,2,0,L|262:32,1,35,0|0,0:0|0:0,0:0:0:0:
271,163,313681,1,0,0:0:0:0:
465,72,313912,1,0,0:0:0:0:
184,137,314143,5,0,0:0:0:0:
179,159,314258,1,0,0:0:0:0:
218,233,314373,5,0,0:0:0:0:
382,89,314604,1,0,0:0:0:0:
137,80,314835,1,0,0:0:0:0:
406,8,315066,1,0,0:0:0:0:
258,307,315296,5,0,0:0:0:0:
280,297,315412,1,0,0:0:0:0:
352,259,315527,5,0,0:0:0:0:
330,249,315643,1,0,0:0:0:0:
253,213,315758,5,0,0:0:0:0:
512,324,315989,6,0,P|458:338|410:325,1,87.5,0|0,0:0|0:0,0:0:0:0:
445,130,316220,2,0,P|461:180|459:217,1,87.5,0|0,0:0|0:0,0:0:0:0:
256,352,316450,2,0,B|242:324|256:292|256:292|269:256|252:215,1,131.25,0|0,0:0|0:0,0:0:0:0:
247,205,316681,6,0,P|248:160|273:113,1,87.5,0|0,0:0|0:0,0:0:0:0:
464,184,316912,2,0,P|410:198|362:185,1,87.5,0|0,0:0|0:0,0:0:0:0:
161,77,317143,2,0,P|74:84|29:119,1,131.25,0|0,0:0|0:0,0:0:0:0:
25,125,317373,1,0,0:0:0:0:
131,325,317604,2,0,L|141:215,1,87.5,0|0,0:0|0:0,0:0:0:0:
161,77,317835,5,0,0:0:0:0:
224,21,317950,1,0,0:0:0:0:
295,64,318066,1,0,0:0:0:0:
276,146,318181,1,0,0:0:0:0:
194,153,318296,2,0,L|7:135,1,175,0|0,0:0|0:0,0:0:0:0:
295,64,318758,6,0,P|326:109|333:148,1,87.5,0|0,0:0|0:0,0:0:0:0:
261,341,318989,2,0,B|236:301|253:260|253:260|271:216|258:193,1,131.25,0|0,0:0|0:0,0:0:0:0:
254,196,319220,2,0,P|252:223|247:242,1,43.75,0|0,0:0|0:0,0:0:0:0:
175,265,319335,1,0,0:0:0:0:
464,12,319681,6,0,P|387:9|352:26,1,87.5,0|0,0:0|0:0,0:0:0:0:
370,220,319912,2,0,P|405:188|415:126,1,87.5,0|0,0:0|0:0,0:0:0:0:
232,0,320143,2,0,B|221:29|233:60|233:60|245:95|228:137,1,131.25,0|0,0:0|0:0,0:0:0:0:
223,146,320374,6,0,P|197:112|154:89,1,87.5,0|0,0:0|0:0,0:0:0:0:
11,241,320604,2,0,P|68:241|94:226,1,87.5,0|0,0:0|0:0,0:0:0:0:
309,118,320835,2,0,P|395:142|435:185,1,131.25,0|0,0:0|0:0,0:0:0:0:
434,191,321066,5,0,0:0:0:0:
442,112,321181,1,0,0:0:0:0:
451,34,321296,1,0,0:0:0:0:
66,20,321527,6,0,L|85:201,1,175,0|0,0:0|0:0,0:0:0:0:
87,216,321873,1,0,0:0:0:0:
184,142,321989,6,0,L|165:323,1,175,0|0,0:0|0:0,0:0:0:0:
164,336,322335,1,0,0:0:0:0:
283,246,322450,6,0,L|264:65,1,175,0|0,0:0|0:0,0:0:0:0:
261,52,322796,1,0,0:0:0:0:
391,129,322912,6,0,L|372:310,1,175,0|0,0:0|0:0,0:0:0:0:
369,325,323258,1,0,0:0:0:0:
512,384,323373,6,0,L|493:209,1,175,0|0,0:0|0:0,0:0:0:0:
85,26,325220,6,0,L|101:192,1,140,0|0,0:0|0:0,0:0:0:0:
413,165,327066,6,0,L|427:26,1,140,0|0,0:0|0:0,0:0:0:0:
85,26,327989,6,0,L|101:192,1,140,0|0,0:0|0:0,0:0:0:0:
413,165,328912,6,0,L|427:26,1,140,0|0,0:0|0:0,0:0:0:0:
429,6,329258,1,0,0:0:0:0:
339,75,329373,6,0,L|325:214,1,140,0|0,0:0|0:0,0:0:0:0:
322,236,329720,1,0,0:0:0:0:
249,149,329835,6,0,L|235:288,1,140,0|0,0:0|0:0,0:0:0:0:
233,310,330181,1,0,0:0:0:0:
160,221,330296,6,0,L|146:360,1,140,0|0,0:0|0:0,0:0:0:0:
144,380,330643,1,0,0:0:0:0:
59,320,330758,5,0,0:0:0:0:
38,238,330873,5,0,0:0:0:0:
45,160,330989,5,0,0:0:0:0:
86,104,331104,5,0,0:0:0:0:
143,77,331220,5,0,0:0:0:0:
198,81,331335,5,0,0:0:0:0:
240,104,331450,5,0,0:0:0:0:
263,139,331566,5,0,0:0:0:0:
270,172,331681,5,0,0:0:0:0:
268,199,331796,5,0,0:0:0:0:
261,219,331912,5,0,0:0:0:0:
252,231,332027,5,0,0:0:0:0:
244,239,332143,5,0,0:0:0:0:
236,245,332258,5,0,0:0:0:0:
229,249,332373,5,0,0:0:0:0:
222,253,332489,5,0,0:0:0:0:
217,254,332604,5,0,0:0:0:0:
213,256,332720,5,0,0:0:0:0:
210,257,332835,5,0,0:0:0:0:
207,258,332950,5,0,0:0:0:0:
204,259,333066,5,0,0:0:0:0:
201,259,333181,5,0,0:0:0:0:
198,260,333296,5,0,0:0:0:0:
195,260,333412,5,0,0:0:0:0:
192,261,333527,6,0,P|154:223|143:181,1,70,0|0,0:0|0:0,0:0:0:0:
197,0,333989,1,0,0:0:0:0:
483,233,334450,6,0,P|383:253|290:215,1,189.000000720978,0|0,0:0|0:0,0:0:0:0:
240,147,334796,1,0,0:0:0:0:
228,130,334912,2,0,P|309:144|423:103,1,189.000000720978,0|0,0:0|0:0,0:0:0:0:
481,38,335258,1,0,0:0:0:0:
494,23,335373,6,0,B|468:67|496:114|496:114|520:159|503:210,1,189.000000720978,0|0,0:0|0:0,0:0:0:0:
443,292,335720,1,0,0:0:0:0:
430,308,335835,2,0,P|405:275|396:219,1,94.5000003604889,0|0,0:0|0:0,0:0:0:0:
494,23,336066,1,0,0:0:0:0:
395,223,336296,6,0,P|338:228|289:211,1,94.5000003604889,0|0,0:0|0:0,0:0:0:0:
202,16,336527,2,0,P|249:39|278:74,1,94.5000003604889,0|0,0:0|0:0,0:0:0:0:
251,286,336758,2,0,P|218:223|224:170,1,94.5000003604889,0|0,0:0|0:0,0:0:0:0:
345,16,336989,1,0,0:0:0:0:
32,128,337220,5,0,0:0:0:0:
39,204,337335,2,0,L|47:309,1,94.5000003604889,0|0,0:0|0:0,0:0:0:0:
126,378,337566,1,0,0:0:0:0:
140,300,337681,2,0,L|165:91,1,189.000000720978,0|0,0:0|0:0,0:0:0:0:
479,339,338143,6,0,B|433:356|391:338|391:338|341:316|286:336,1,189.000000720978,0|0,0:0|0:0,0:0:0:0:
427,80,338604,2,0,P|452:195|430:277,1,189.000000720978,0|0,0:0|0:0,0:0:0:0:
341,327,338950,1,0,0:0:0:0:
322,340,339066,6,0,P|274:284|256:153,1,189.000000720978,0|0,0:0|0:0,0:0:0:0:
290,59,339412,1,0,0:0:0:0:
302,78,339527,2,0,P|256:98|194:94,1,94.5000003604889,0|0,0:0|0:0,0:0:0:0:
30,36,339758,1,0,0:0:0:0:
142,306,339989,6,0,P|104:262|89:213,1,94.5000003604889,0|0,0:0|0:0,0:0:0:0:
212,6,340220,2,0,P|221:57|209:101,1,94.5000003604889,0|0,0:0|0:0,0:0:0:0:
6,226,340451,2,0,P|35:168|83:135,1,94.5000003604889,0|0,0:0|0:0,0:0:0:0:
296,121,340682,1,0,0:0:0:0:
0,309,340912,6,0,B|46:291|96:313|96:313|138:331|184:314,1,189.000000720978,0|0,0:0|0:0,0:0:0:0:
260,241,341258,1,0,0:0:0:0:
168,238,341373,1,0,0:0:0:0:
203,305,341489,1,0,0:0:0:0:
235,372,341604,1,0,0:0:0:0:
29,151,341835,6,0,P|129:131|222:169,1,189.000000720978,0|0,0:0|0:0,0:0:0:0:
272,237,342181,1,0,0:0:0:0:
284,254,342297,2,0,P|203:240|89:281,1,189.000000720978,0|0,0:0|0:0,0:0:0:0:
34,344,342643,1,0,0:0:0:0:
18,361,342758,5,0,0:0:0:0:
10,286,342873,1,0,0:0:0:0:
3,210,342989,2,0,L|-6:114,1,94.5000003604889,0|0,0:0|0:0,0:0:0:0:
256,44,343220,2,0,P|255:82|227:144,1,94.5000003604889,0|0,0:0|0:0,0:0:0:0:
96,216,343451,1,0,0:0:0:0:
85,141,343566,1,0,0:0:0:0:
77,66,343681,6,0,P|134:61|183:78,1,94.5000003604889,0|0,0:0|0:0,0:0:0:0:
310,368,343912,2,0,P|263:345|234:310,1,94.5000003604889,0|0,0:0|0:0,0:0:0:0:
261,98,344143,2,0,P|294:161|288:214,1,94.5000003604889,0|0,0:0|0:0,0:0:0:0:
167,368,344374,1,0,0:0:0:0:
480,256,344605,5,0,0:0:0:0:
473,180,344720,2,0,L|465:75,1,94.5000003604889,0|0,0:0|0:0,0:0:0:0:
344,85,344951,1,0,0:0:0:0:
336,163,345066,1,0,0:0:0:0:
265,136,345181,1,0,0:0:0:0:
194,109,345296,1,0,0:0:0:0:
122,82,345412,1,0,0:0:0:0:
33,45,345528,6,0,B|79:28|121:46|121:46|171:68|226:48,1,189.000000720978,0|0,0:0|0:0,0:0:0:0:
85,304,345989,2,0,P|60:189|82:107,1,189.000000720978,0|0,0:0|0:0,0:0:0:0:
171,57,346334,1,0,0:0:0:0:
190,44,346450,6,0,P|238:100|256:231,1,189.000000720978,0|0,0:0|0:0,0:0:0:0:
222,325,346797,1,0,0:0:0:0:
210,306,346912,2,0,P|256:286|318:290,1,94.5000003604889,0|0,0:0|0:0,0:0:0:0:
482,348,347143,1,0,0:0:0:0:
292,215,347373,6,0,L|301:304,1,70,0|0,0:0|0:0,0:0:0:0:
501,267,347604,1,0,0:0:0:0:
501,267,347720,1,0,0:0:0:0:
501,267,347835,2,0,L|510:178,1,70,0|0,0:0|0:0,0:0:0:0:
283,133,348066,1,0,0:0:0:0:
512,112,348296,6,0,L|365:127,1,140,0|0,0:0|0:0,0:0:0:0:
391,144,348643,1,0,0:0:0:0:
391,144,348758,1,0,0:0:0:0:
391,144,348873,1,0,0:0:0:0:
391,144,348989,1,0,0:0:0:0:
391,144,349104,1,0,0:0:0:0:
391,144,349220,6,0,L|385:232,1,70,0|0,0:0|0:0,0:0:0:0:
310,264,349566,1,0,0:0:0:0:
310,264,349681,2,0,L|305:194,1,70,0|0,0:0|0:0,0:0:0:0:
232,76,350143,6,0,L|226:164,1,70,0|0,0:0|0:0,0:0:0:0:
150,201,350489,1,0,0:0:0:0:
150,201,350604,2,0,L|145:131,1,70,0|0,0:0|0:0,0:0:0:0:
0,56,351066,6,0,L|69:51,2,70,0|0|0,0:0|0:0|0:0,0:0:0:0:
0,197,351758,1,0,0:0:0:0:
205,133,351989,6,0,L|200:63,1,70,0|0,0:0|0:0,0:0:0:0:
123,155,352450,2,0,L|117:243,1,70,0|0,0:0|0:0,0:0:0:0:
292,112,352912,5,0,0:0:0:0:
248,285,353143,1,0,0:0:0:0:
248,285,353258,1,0,0:0:0:0:
248,285,353373,2,0,L|317:289,1,70,0|0,0:0|0:0,0:0:0:0:
423,197,353835,6,0,L|354:201,1,70,0|0,0:0|0:0,0:0:0:0:
282,113,354181,1,0,0:0:0:0:
282,113,354296,2,0,L|351:117,1,70,0|0,0:0|0:0,0:0:0:0:
457,25,354758,6,0,L|388:29,2,70,0|0|0,0:0|0:0|0:0,0:0:0:0:
311,106,355450,2,0,L|307:37,1,70,0|0,0:0|0:0,0:0:0:0:
512,84,355912,1,0,0:0:0:0:
388,184,356143,2,0,L|319:188,1,70,0|0,0:0|0:0,0:0:0:0:
457,25,356604,5,0,0:0:0:0:
478,187,356835,1,0,0:0:0:0:
478,187,356950,1,0,0:0:0:0:
478,187,357066,2,0,L|482:256,1,70,0|0,0:0|0:0,0:0:0:0:
383,367,357527,6,0,L|387:298,1,70,0|0,0:0|0:0,0:0:0:0:
298,238,357873,1,0,0:0:0:0:
298,238,357989,2,0,L|302:307,1,70,0|0,0:0|0:0,0:0:0:0:
175,384,358450,6,0,L|179:315,2,70,0|0|0,0:0|0:0|0:0,0:0:0:0:
31,245,359143,1,0,0:0:0:0:
184,237,359373,6,0,L|115:241,1,70,0|0,0:0|0:0,0:0:0:0:
0,90,359835,2,0,L|69:94,1,70,0|0,0:0|0:0,0:0:0:0:
253,232,360296,6,0,L|184:236,1,70,0|0,0:0|0:0,0:0:0:0:
155,99,360758,1,0,0:0:0:0:
114,241,360989,6,0,L|110:172,1,70,0|0,0:0|0:0,0:0:0:0:
247,143,361451,1,0,0:0:0:0:
102,98,361681,6,0,L|171:93,1,70,0|0,0:0|0:0,0:0:0:0:
200,231,362143,1,0,0:0:0:0:
247,92,362373,6,0,L|251:161,1,70,0|0,0:0|0:0,0:0:0:0:
114,190,362835,1,0,0:0:0:0:
322,40,363066,6,0,L|331:175,1,125.999996154785,0|0,0:0|0:0,0:0:0:0:
332,186,363527,1,0,0:0:0:0:
248,132,363643,1,0,0:0:0:0:
504,283,363989,6,0,L|512:157,1,125.999996154785,0|0,0:0|0:0,0:0:0:0:
314,0,364450,2,0,L|322:125,1,125.999996154785,0|0,0:0|0:0,0:0:0:0:
331,213,364796,1,0,0:0:0:0:
333,233,364912,6,0,L|256:227,1,62.9999980773926,0|0,0:0|0:0,0:0:0:0:
411,106,365143,1,0,0:0:0:0:
413,129,365258,1,0,0:0:0:0:
416,151,365373,2,0,L|424:276,1,125.999996154785,0|0,0:0|0:0,0:0:0:0:
150,212,365835,6,0,L|158:87,1,125.999996154785,0|0,0:0|0:0,0:0:0:0:
268,327,366296,2,0,L|143:335,1,125.999996154785,0|0,0:0|0:0,0:0:0:0:
56,343,366643,1,0,0:0:0:0:
36,345,366759,6,0,L|42:268,1,62.9999980773926,0|0,0:0|0:0,0:0:0:0:
57,145,366989,1,0,0:0:0:0:
80,147,367104,1,0,0:0:0:0:
102,149,367220,2,0,L|227:157,1,125.999996154785,0|0,0:0|0:0,0:0:0:0:
379,0,367681,6,0,L|254:8,1,125.999996154785,0|0,0:0|0:0,0:0:0:0:
163,230,368143,2,0,L|288:238,1,125.999996154785,0|0,0:0|0:0,0:0:0:0:
378,244,368489,1,0,0:0:0:0:
398,246,368605,6,0,L|392:169,1,62.9999980773926
300,67,368835,1,0,0:0:0:0:
298,90,368950,1,0,0:0:0:0:
296,112,369066,2,0,L|288:237,1,125.999996154785,0|0,0:0|0:0,0:0:0:0:
502,384,369527,6,0,B|497:315|497:315|484:292|484:292|478:210,1,167.999994873047
106,130,369989,6,0,B|101:199|101:199|88:222|88:222|82:304,1,167.999994873047
408,30,370450,6,0,B|339:25|339:25|316:12|316:12|234:6,1,167.999994873047
189,384,370912,6,0,B|258:379|258:379|281:366|281:366|363:360,1,167.999994873047
216,45,371373,5,0,0:0:0:0:
440,323,371604,1,0,0:0:0:0:
412,41,371835,5,0,0:0:0:0:
185,329,372066,1,0,0:0:0:0:
187,352,372180,1,0,0:0:0:0:
189,372,372296,2,0,L|112:366,1,62.9999980773926,0|0,0:0|0:0,0:0:0:0:
88,170,372527,5,0,0:0:0:0:
90,147,372642,1,0,0:0:0:0:
92,125,372758,2,0,L|100:0,1,125.999996154785,0|0,0:0|0:0,0:0:0:0:
305,319,373220,5,0,0:0:0:0:
0,70,373450,1,0,0:0:0:0:
355,68,373681,5,0,0:0:0:0:
43,300,373912,1,0,0:0:0:0:
20,298,374027,1,0,0:0:0:0:
0,296,374143,2,0,L|6:373,1,62.9999980773926,0|0,0:0|0:0,0:0:0:0:
148,150,374373,5,0,0:0:0:0:
171,148,374488,1,0,0:0:0:0:
193,146,374604,2,0,L|318:138,1,125.999996154785,0|0,0:0|0:0,0:0:0:0:
512,371,375066,5,0,0:0:0:0:
256,20,375296,1,0,0:0:0:0:
315,379,375527,5,0,0:0:0:0:
512,15,375758,1,0,0:0:0:0:
486,12,375873,1,0,0:0:0:0:
466,10,375989,2,0,L|472:87,1,62.9999980773926
309,147,376219,5,0,0:0:0:0:
332,149,376334,1,0,0:0:0:0:
354,151,376450,2,0,L|479:159,1,125.999996154785,0|0,0:0|0:0,0:0:0:0:
314,238,376912,6,0,B|245:233|245:233|222:220|222:220|140:214,1,167.999994873047
214,143,377258,6,0,B|209:212|209:212|196:235|196:235|190:317,1,167.999994873047
274,313,377604,2,0,L|179:306,1,83.9999974365235
41,242,377835,6,0,B|110:237|110:237|133:224|133:224|215:218,1,167.999994873047
316,208,378181,6,0,B|310:135|310:135|297:112|297:112|292:43,1,167.999994873047
139,44,378527,2,0,L|132:127,1,83.9999974365235
0,347,378758,6,0,B|61:374|126:340|126:340|187:308|252:341,1,262.5
269,354,379220,2,0,P|254:311|276:238,1,87.5,0|0,0:0|0:0,0:0:0:0:
421,131,379450,2,0,P|382:187|336:201,1,87.5,0|0,0:0|0:0,0:0:0:0:
177,242,379681,5,0,0:0:0:0:
177,242,379796,2,0,P|276:241|359:308,1,175,0|0,0:0|0:0,0:0:0:0:
395,384,380143,2,0,P|372:275|402:193,1,175,0|0,0:0|0:0,0:0:0:0:
444,0,380604,6,0,P|514:72|533:176,1,175
238,109,381066,2,0,P|314:75|426:96,1,175,0|0,0:0|0:0,0:0:0:0:
423,96,381412,1,0,0:0:0:0:
494,153,381527,6,0,P|439:204|333:217,1,175
151,4,381989,2,0,P|250:28|311:99,1,175,0|0,0:0|0:0,0:0:0:0:
94,272,382450,6,0,B|100:223|139:196|139:196|178:167|185:127,1,175
186,107,382796,1,0,0:0:0:0:
97,91,382912,2,0,P|134:182|161:197,1,87.5,0|0,0:0|0:0,0:0:0:0:
353,170,383143,2,0,P|276:176|242:193,1,87.5,0|0,0:0|0:0,0:0:0:0:
98,275,383373,5,0,0:0:0:0:
98,275,383489,2,0,P|155:328|261:351,1,175,0|0,0:0|0:0,0:0:0:0:
235,258,383835,2,0,P|164:311|117:388,1,175,0|0,0:0|0:0,0:0:0:0:
426,351,384296,6,0,P|403:288|375:260,1,87.5
198,178,384527,1,0,0:0:0:0:
198,178,384643,1,0,0:0:0:0:
198,178,384758,2,0,P|221:115|249:87,1,87.5,0|0,0:0|0:0,0:0:0:0:
342,341,384989,1,0,0:0:0:0:
376,172,385220,6,0,L|278:166,1,87.5
52,109,385450,2,0,L|150:103,1,87.5,0|0,0:0|0:0,0:0:0:0:
463,50,385681,2,0,L|266:38,1,175,0|0,0:0|0:0,0:0:0:0:
288,39,386143,5,0,0:0:0:0:
308,105,386258,1,0,0:0:0:0:
308,174,386373,1,0,0:0:0:0:
286,240,386489,1,0,0:0:0:0:
291,309,386604,2,0,L|481:290,1,175,0|0,0:0|0:0,0:0:0:0:
512,360,386950,1,0,0:0:0:0:
402,382,387066,5,0,0:0:0:0:
402,382,387181,2,0,L|418:192,1,175,0|0,0:0|0:0,0:0:0:0:
423,130,387527,2,0,L|248:147,1,175,0|0,0:0|0:0,0:0:0:0:
249,147,387989,5,0,0:0:0:0:
265,80,388104,1,0,0:0:0:0:
249,11,388220,2,0,L|74:28,1,175,0|0,0:0|0:0,0:0:0:0:
109,308,388681,5,0,0:0:0:0:
125,241,388796,1,0,0:0:0:0:
109,172,388912,1,0,0:0:0:0:
109,172,389373,6,0,P|91:100|108:49,1,105.000004005432
342,4,389835,6,0,P|354:104|327:181,1,175
318,192,390181,1,0,0:0:0:0:
249,242,390296,6,0,P|337:233|423:263,1,175
436,273,390643,1,0,0:0:0:0:
495,346,390758,6,0,P|411:345|332:387,1,175
468,191,391220,6,0,P|464:128|447:91,2,87.5
256,352,391681,5,0,0:0:0:0:
352,96,391912,1,0,0:0:0:0:
160,288,392143,1,0,0:0:0:0:
416,192,392373,1,0,0:0:0:0:
32,192,392604,6,0,L|112:197,1,66.4999982242585
338,227,392835,1,0,0:0:0:0:
338,227,392950,1,0,0:0:0:0:
338,227,393066,2,0,B|246:238|246:238|226:249|226:249|131:260,1,199.499994672775
121,262,393527,6,0,L|132:164,1,90.9999958343508
21,101,393873,1,0,0:0:0:0:
21,101,393989,2,0,L|32:199,1,90.9999958343508,0|0,0:0|0:0,0:0:0:0:
258,10,394450,6,0,L|160:-1,1,90.9999958343508
97,110,394796,1,0,0:0:0:0:
97,110,394912,2,0,L|195:99,1,90.9999958343508,0|0,0:0|0:0,0:0:0:0:
412,26,395373,6,0,L|401:124,1,90.9999958343508
512,187,395719,1,0,0:0:0:0:
512,187,395835,2,0,L|501:89,1,90.9999958343508,0|0,0:0|0:0,0:0:0:0:
256,192,396296,5,0,0:0:0:0:
501,96,396527,1,0,0:0:0:0:
279,184,396758,2,0,L|289:274,1,90.9999958343508,0|0,0:0|0:0,0:0:0:0:
424,60,397220,6,0,L|326:71,1,90.9999958343508
512,255,397682,2,0,L|501:157,1,90.9999958343508,0|0,0:0|0:0,0:0:0:0:
254,374,398143,6,0,L|352:385,1,90.9999958343508
415,274,398489,1,0,0:0:0:0:
415,274,398605,2,0,L|317:285,1,90.9999958343508,0|0,0:0|0:0,0:0:0:0:
100,358,399066,6,0,L|111:260,1,90.9999958343508
0,197,399412,1,0,0:0:0:0:
0,197,399528,2,0,L|5:245,2,45.4999979171754,0|0|0,0:0|0:0|0:0,0:0:0:0:
237,176,399989,5,0,0:0:0:0:
0,107,400220,1,0,0:0:0:0:
213,168,400451,2,0,L|201:275,1,90.9999958343508,0|0,0:0|0:0,0:0:0:0:
391,262,400912,6,0,L|380:164,1,90.9999958343508
512,95,401258,1,0,0:0:0:0:
512,95,401374,2,0,L|501:193,1,90.9999958343508,0|0,0:0|0:0,0:0:0:0:
254,10,401835,6,0,L|352:-1,1,90.9999958343508
417,128,402181,1,0,0:0:0:0:
417,128,402297,2,0,L|319:117,1,90.9999958343508,0|0,0:0|0:0,0:0:0:0:
126,17,402758,6,0,L|137:115,1,90.9999958343508
0,187,403104,1,0,0:0:0:0:
0,187,403220,2,0,L|11:89,1,90.9999958343508,0|0,0:0|0:0,0:0:0:0:
306,212,403681,5,0,0:0:0:0:
11,96,403912,1,0,0:0:0:0:
283,204,404143,2,0,L|273:294,1,90.9999958343508,0|0,0:0|0:0,0:0:0:0:
93,121,404604,6,0,L|83:31,1,90.9999958343508
228,43,404950,1,0,0:0:0:0:
250,47,405066,2,0,L|340:57,1,90.9999958343508,0|0,0:0|0:0,0:0:0:0:
482,273,405527,6,0,L|492:183,1,90.9999958343508
347,195,405873,1,0,0:0:0:0:
325,199,405989,2,0,L|235:209,1,90.9999958343508,0|0,0:0|0:0,0:0:0:0:
96,349,406450,6,0,L|186:359,1,90.9999958343508
343,118,406912,2,0,L|253:128,1,90.9999958343508
75,365,407373,2,0,L|165:375,1,90.9999958343508
170,56,407835,2,0,L|177:112,1,45.4999979171754,0|0,0:0|0:0,0:0:0:0:
192,235,408066,1,0,0:0:0:0:
402,165,408286,6,0,P|358:155|304:161,1,90.9999958343508
80,62,408747,2,0,P|124:52|178:58,1,90.9999958343508
192,235,409209,5,0,0:0:0:0:
250,82,409439,1,0,0:0:0:0:
94,247,409670,5,0,0:0:0:0:
192,235,409901,1,0,0:0:0:0:
385,209,410132,5,0,0:0:0:0:
277,0,410362,1,0,0:0:0:0:
385,209,410593,2,0,P|405:288|396:361,1,136.499993751526,0|0,0:0|0:0,0:0:0:0:
393,361,411054,5,0,0:0:0:0:
254,316,411285,1,0,0:0:0:0:
254,170,411516,1,0,0:0:0:0:
393,125,411747,1,0,0:0:0:0:
478,243,411978,6,0,P|416:271|331:255,1,136.499993751526
332,254,412439,2,0,P|263:230|186:251,1,136.499993751526
185,255,412901,5,0,0:0:0:0:
339,345,413132,1,0,0:0:0:0:
300,126,413362,5,0,0:0:0:0:
312,213,413593,1,0,0:0:0:0:
207,384,413824,5,0,0:0:0:0:
396,186,414055,1,0,0:0:0:0:
207,384,414285,2,0,P|134:381|104:364,1,90.9999958343508,0|0,0:0|0:0,0:0:0:0:
118,137,414747,5,0,0:0:0:0:
257,182,414978,1,0,0:0:0:0:
257,328,415209,1,0,0:0:0:0:
118,373,415440,1,0,0:0:0:0:
33,255,415671,6,0,P|95:227|180:243,1,136.499993751526
180,243,416132,2,0,P|170:177|178:146,1,90.9999958343508,0|0,0:0|0:0,0:0:0:0:
251,0,416593,5,0,0:0:0:0:
339,13,416824,1,0,0:0:0:0:
101,150,417055,5,0,0:0:0:0:
20,167,417285,1,0,0:0:0:0:
334,273,417516,5,0,0:0:0:0:
101,150,417747,1,0,0:0:0:0:
334,273,417978,2,0,P|350:207|334:130,1,136.499993751526,0|0,0:0|0:0,0:0:0:0:
325,121,418439,5,0,0:0:0:0:
464,166,418670,1,0,0:0:0:0:
464,312,418901,1,0,0:0:0:0:
325,357,419132,1,0,0:0:0:0:
240,239,419363,6,0,P|302:211|387:227,1,136.499993751526
387,229,419824,5,0,0:0:0:0:
315,82,420055,1,0,0:0:0:0:
256,320,420285,5,0,0:0:0:0:
256,320,420516,1,0,0:0:0:0:
256,320,420747,1,0,0:0:0:0:
315,82,420978,5,0,0:0:0:0:
255,321,421209,6,0,L|165:311,1,90.9999958343508
19,289,421555,1,0,0:0:0:0:
19,289,421670,2,0,L|9:199,1,90.9999958343508
0,73,422016,1,0,0:0:0:0:
0,73,422131,2,0,L|90:83,1,90.9999958343508
269,335,422593,2,0,L|179:325,1,90.9999958343508,0|0,0:0|0:0,0:0:0:0:
179,97,423075,5,0,0:0:0:0:
176,243,423305,1,0,0:0:0:0:
268,87,423536,1,0,0:0:0:0:
266,252,423767,1,0,0:0:0:0:
178,77,423998,5,0,0:0:0:0:
268,87,424228,1,0,0:0:0:0:
93,114,424459,1,0,0:0:0:0:
103,24,424690,1,0,0:0:0:0:
268,87,424921,6,0,L|365:72,1,90.9999958343508
512,40,425382,1,0,0:0:0:0:
504,126,425613,1,0,0:0:0:0:
357,73,425844,6,0,L|372:170,1,90.9999958343508
401,304,426305,1,0,0:0:0:0:
315,296,426536,1,0,0:0:0:0:
502,149,426767,5,0,0:0:0:0:
512,235,426998,1,0,0:0:0:0:
362,157,427229,1,0,0:0:0:0:
372,71,427460,1,0,0:0:0:0:
397,236,427690,5,0,0:0:0:0:
311,226,427921,1,0,0:0:0:0:
502,149,428152,1,0,0:0:0:0:
512,235,428382,1,0,0:0:0:0:
372,71,428613,5,0,0:0:0:0:
413,318,428844,1,0,0:0:0:0:
502,149,429075,1,0,0:0:0:0:
408,295,429305,1,0,0:0:0:0:
498,125,429536,5,0,0:0:0:0:
407,138,429767,1,0,0:0:0:0:
316,151,429998,2,0,L|323:54,1,90.9999958343508,0|0,0:0|0:0,0:0:0:0:
374,228,430459,5,0,0:0:0:0:
180,169,430689,1,0,0:0:0:0:
394,231,430920,1,0,0:0:0:0:
160,281,431151,1,0,0:0:0:0:
334,306,431382,5,0,0:0:0:0:
244,296,431613,1,0,0:0:0:0:
419,269,431843,1,0,0:0:0:0:
409,359,432074,1,0,0:0:0:0:
244,296,432305,6,0,L|147:311,1,90.9999958343508
0,343,432766,1,0,0:0:0:0:
8,257,432997,1,0,0:0:0:0:
155,310,433228,6,0,L|140:213,1,90.9999958343508
111,79,433689,1,0,0:0:0:0:
197,87,433920,1,0,0:0:0:0:
10,234,434151,5,0,0:0:0:0:
0,148,434382,1,0,0:0:0:0:
150,226,434613,1,0,0:0:0:0:
140,312,434844,1,0,0:0:0:0:
115,147,435074,5,0,0:0:0:0:
201,157,435305,1,0,0:0:0:0:
10,234,435536,1,0,0:0:0:0:
0,148,435766,1,0,0:0:0:0:
236,28,435998,5,0,0:0:0:0:
156,283,436229,1,0,0:0:0:0:
428,217,436459,1,0,0:0:0:0:
174,107,436690,1,0,0:0:0:0:
192,377,436921,5,0,0:0:0:0:
277,118,437152,1,0,0:0:0:0:
7,173,437382,2,0,L|17:270,1,90.9999958343508,0|0,0:0|0:0,0:0:0:0:
192,377,437835,6,0,L|201:286,1,90.9999958343508
183,82,438296,1,0,0:0:0:0:
110,277,438527,6,0,L|200:286,1,90.9999958343508
183,82,438989,1,0,0:0:0:0:
314,296,439220,1,0,0:0:0:0:
171,64,439450,6,0,L|161:154,1,90.9999958343508
137,363,439912,1,0,0:0:0:0:
392,267,440143,1,0,0:0:0:0:
127,272,440373,6,0,L|136:362,1,90.9999958343508
374,360,440835,1,0,0:0:0:0:
175,186,441066,1,0,0:0:0:0:
393,375,441296,1,0,0:0:0:0:
310,108,441527,6,0,L|219:117,1,90.9999958343508
366,294,441989,1,0,0:0:0:0:
399,67,442220,6,0,L|389:157,1,90.9999958343508
393,375,442681,1,0,0:0:0:0:
249,213,442912,1,0,0:0:0:0:
512,232,443143,6,0,L|502:141,1,90.9999958343508
480,0,443604,1,0,0:0:0:0:
427,200,443835,2,0,L|436:290,1,90.9999958343508
509,126,444296,6,0,L|418:116,1,90.9999958343508
202,89,444758,1,0,0:0:0:0:
427,200,444989,1,0,0:0:0:0:
345,14,445220,6,0,L|335:104,1,90.9999958343508
311,279,445681,1,0,0:0:0:0:
156,120,445912,6,0,L|246:110,1,90.9999958343508
226,267,446373,1,0,0:0:0:0:
260,33,446604,1,0,0:0:0:0:
21,140,446835,6,0,L|30:230,1,90.9999958343508
236,183,447296,1,0,0:0:0:0:
13,58,447527,1,0,0:0:0:0:
236,183,447758,6,0,L|245:92,1,90.9999958343508
31,70,448220,1,0,0:0:0:0:
256,14,448450,1,0,0:0:0:0:
112,50,448681,1,0,0:0:0:0:
322,147,448912,6,0,L|312:237,1,90.9999958343508
189,83,449373,1,0,0:0:0:0:
304,320,449604,6,0,L|394:310,1,90.9999958343508
404,134,450066,1,0,0:0:0:0:
477,301,450296,1,0,0:0:0:0:
219,328,450527,6,0,L|228:237,1,90.9999958343508
394,310,450989,1,0,0:0:0:0:
135,338,451220,6,0,L|151:155,1,181.999991668702
0,59,451912,6,0,L|9:149,1,90.9999958343508
236,162,452373,1,0,0:0:0:0:
96,0,452604,6,0,L|87:91,1,90.9999958343508
228,247,453065,1,0,0:0:0:0:
402,107,453296,6,0,L|312:98,1,90.9999958343508
329,302,453758,1,0,0:0:0:0:
179,81,453989,1,0,0:0:0:0:
341,320,454219,6,0,L|351:230,1,90.9999958343508
375,21,454681,1,0,0:0:0:0:
97,106,454912,1,0,0:0:0:0:
385,112,455142,6,0,L|376:22,1,90.9999958343508
138,24,455604,1,0,0:0:0:0:
337,198,455835,1,0,0:0:0:0:
119,9,456065,1,0,0:0:0:0:
208,307,456296,6,0,L|299:298,1,90.9999958343508
146,90,456758,1,0,0:0:0:0:
113,317,456989,6,0,L|123:227,1,90.9999958343508
119,9,457450,1,0,0:0:0:0:
356,200,457681,1,0,0:0:0:0:
0,152,457912,6,0,L|10:243,1,90.9999958343508
191,384,458373,1,0,0:0:0:0:
105,130,458604,2,0,L|114:40,1,90.9999958343508
0,307,459065,6,0,L|91:317,1,90.9999958343508
413,294,459527,1,0,0:0:0:0:
85,184,459758,1,0,0:0:0:0:
318,384,459989,6,0,L|328:294,1,90.9999958343508
74,53,460450,1,0,0:0:0:0:
452,212,460681,1,0,0:0:0:0:
106,302,460912,6,0,L|118:200,1,90.9999958343508
360,138,461373,1,0,0:0:0:0:
96,384,461604,1,0,0:0:0:0:
299,69,461835,6,0,L|311:171,1,90.9999958343508
4,384,462296,1,0,0:0:0:0:
343,343,462527,1,0,0:0:0:0:
170,0,462758,6,0,L|158:102,1,90.9999958343508
0,291,463219,1,0,0:0:0:0:
359,362,463450,1,0,0:0:0:0:
170,0,463681,5,0,0:0:0:0:
170,0,464604,5,0,0:0:0:0:
481,314,464835,1,0,0:0:0:0:
257,18,465989,5,0,0:0:0:0:
416,370,467143,5,0,0:0:0:0:
256,192,467258,12,0,471066,0:0:0:0:
403,245,471477,6,0,B|399:274|399:274|401:291|401:291|397:315,2,70,0|0|0,0:0|0:0|0:0,0:0:0:0:
109,245,474677,6,0,B|113:274|113:274|111:291|111:291|115:315,2,70,0|0|0,0:0|0:0|0:0,0:0:0:0:
256,96,477877,6,0,B|254:66|254:66|258:50|258:50|256:25,2,70,0|0|0,0:0|0:0|0:0,0:0:0:0:
256,96,481077,6,0,P|242:163|251:235,1,140
460,301,481877,6,0,P|439:267|405:244,2,70
180,296,482677,6,0,P|282:318|331:296,1,140
452,124,483477,6,0,P|413:146|389:191,1,70
383,342,483877,2,0,P|389:298|377:256,1,70,0|0,0:0|0:0,0:0:0:0:
325,138,484277,2,0,P|329:196|346:226,1,70
443,224,484677,2,0,P|398:200|371:197,1,70,0|0,0:0|0:0,0:0:0:0:
306,245,485077,2,0,P|365:239|388:221,1,70,0|0,0:0|0:0,0:0:0:0:
413,132,485477,6,0,L|400:44,1,83.9999974365235
401,49,486677,2,0,L|423:51,1,20.9999993591309,0|0,0:0|0:0,0:0:0:0:
256,288,487477,6,0,P|270:221|261:149,1,140
52,83,488277,6,0,P|73:117|107:140,2,70
332,88,489077,6,0,P|230:66|181:88,1,140
60,260,489877,6,0,P|99:238|123:193,1,70
129,42,490277,2,0,P|123:86|135:128,1,70,0|0,0:0|0:0,0:0:0:0:
187,246,490677,2,0,P|183:188|166:158,1,70
69,160,491077,2,0,P|114:184|141:187,1,70,0|0,0:0|0:0,0:0:0:0:
206,139,491477,2,0,P|147:145|124:163,1,70,0|0,0:0|0:0,0:0:0:0:
99,252,491877,2,0,L|112:340,1,83.9999974365235,0|0,0:0|0:0,0:0:0:0:
115,338,493477,5,0,0:0:0:0:
99,252,493677,1,0,0:0:0:0:
246,280,493877,6,0,B|282:268|315:279|315:279|349:290|384:279,1,140
389,42,494677,2,0,P|350:105|347:172,1,140
446,230,495277,1,0,0:0:0:0:
352,100,495477,6,0,P|291:90|249:99,2,105
251,196,496277,2,0,P|239:255|263:333,1,140,0|0,0:0|0:0,0:0:0:0:
340,254,496877,1,0,0:0:0:0:
249,98,497077,6,0,P|191:132|152:213,1,140
56,384,497877,2,0,P|50:340|39:309,1,70,0|0,0:0|0:0,0:0:0:0:
0,198,498277,2,0,P|6:154|17:123,1,70,0|0,0:0|0:0,0:0:0:0:
90,22,498677,6,0,P|142:36|217:15,2,105
14,129,499477,2,0,P|0:200|13:278,1,140,0|0,0:0|0:0,0:0:0:0:
72,384,500077,1,0,0:0:0:0:
91,186,500277,6,0,P|135:208|232:203,1,140
451,125,501077,2,0,P|381:118|317:145,1,140,0|0,0:0|0:0,0:0:0:0:
400,230,501677,1,0,0:0:0:0:
234,168,501877,6,0,P|251:218|252:255,1,70
228,349,502277,2,0,P|269:334|301:334,1,70,0|0,0:0|0:0,0:0:0:0:
428,347,502677,2,0,P|420:296|441:195,1,140,0|0,0:0|0:0,0:0:0:0:
489,104,503277,1,0,0:0:0:0:
390,16,503477,6,0,P|331:1|246:18,1,140
153,218,504277,2,0,P|223:188|261:124,1,140,0|0,0:0|0:0,0:0:0:0:
254,14,504877,1,0,0:0:0:0:
352,143,505077,5,0,0:0:0:0:
33,130,505477,1,0,0:0:0:0:
396,222,505877,2,0,L|393:253,14,17.5
387,202,506677,6,0,L|374:317,1,105.000004005432
512,384,507277,1,0,0:0:0:0:
512,384,507477,1,0,0:0:0:0:
373,180,507877,2,0,L|360:295,1,105.000004005432
494,286,508477,1,0,0:0:0:0:
494,286,508677,6,0,L|482:181,1,105.000004005432
384,75,509277,2,0,L|371:190,1,105.000004005432,0|0,0:0|0:0,0:0:0:0:
482,181,509877,6,0,L|470:76,1,105.000004005432
393,0,510477,2,0,L|380:115,1,105.000004005432,0|0,0:0|0:0,0:0:0:0:
367,211,511077,6,0,L|288:202,4,70
367,211,513077,6,0,P|377:254|359:319,1,105.000004005432
285,51,513477,2,0,P|292:128|315:157,1,108.500000827789,0|0,0:0|0:0,0:0:0:0:
485,55,513877,2,0,P|408:62|381:81,1,105.000004005432,0|0,0:0|0:0,0:0:0:0:
478,244,514277,2,0,P|471:167|451:140,1,101.500003097534
280,234,514677,6,0,P|357:227|385:203,1,97.9999970092774
151,136,515077,2,0,P|225:143|254:162,1,94.5000003604889,0|0,0:0|0:0,0:0:0:0:
16,229,515477,2,0,P|89:223|118:201,1,97.9999970092774,0|0,0:0|0:0,0:0:0:0:
1,43,515877,2,0,P|8:117|30:147,1,101.500003097534,0|0,0:0|0:0,0:0:0:0:
191,0,516277,6,0,P|126:69|103:178,1,189.000000720978
163,292,516877,1,0,0:0:0:0:
299,164,517077,2,0,L|192:172,1,90.9999958343508,0|0,0:0|0:0,0:0:0:0:
250,298,517477,2,0,L|358:306,1,94.5000003604889,0|0,0:0|0:0,0:0:0:0:
404,157,517877,6,0,L|200:171,2,195.999994018555
439,316,518877,1,0,0:0:0:0:
421,145,519077,2,0,L|305:154,1,97.9999970092774,0|0,0:0|0:0,0:0:0:0:
145,173,519477,6,0,P|135:130|144:79,1,83.9999974365235
214,315,519877,2,0,P|207:239|184:209,1,80.5000015354157,0|0,0:0|0:0,0:0:0:0:
41,329,520277,2,0,P|116:322|145:303,1,77.0000023498536,0|0,0:0|0:0,0:0:0:0:
31,161,520677,2,0,P|36:235|49:257,1,73.4999977569581
194,144,521077,6,0,P|142:144|102:159,1,70
319,222,521477,2,0,P|282:223|247:211,1,66.4999982242585,0|0,0:0|0:0,0:0:0:0:
459,165,521877,2,0,P|418:162|371:180,1,70,0|0,0:0|0:0,0:0:0:0:
496,321,522277,2,0,P|495:267|479:236,1,73.4999977569581,0|0,0:0|0:0,0:0:0:0:
331,369,522677,6,0,P|396:300|407:256,1,125.999996154785
342,138,523277,1,0,0:0:0:0:
213,220,523477,2,0,L|293:215,1,59.5000011348725,0|0,0:0|0:0,0:0:0:0:
262,86,523877,2,0,L|172:79,1,62.9999980773926,0|0,0:0|0:0,0:0:0:0:
139,225,524277,6,0,L|271:216,2,132.999996448517
117,72,525277,1,0,0:0:0:0:
59,232,525477,1,0,0:0:0:0:
50,13,525677,1,0,0:0:0:0:
64,314,525877,6,0,L|246:301,1,167.999994873047
320,32,526477,1,0,0:0:0:0:
146,224,526677,2,0,L|153:318,1,83.9999974365235
423,384,527077,2,0,L|430:290,1,83.9999974365235,0|0,0:0|0:0,0:0:0:0:
138,141,527477,5,0,0:0:0:0:
440,219,527677,1,0,0:0:0:0:
440,219,527877,2,0,L|447:125,1,83.9999974365235,0|0,0:0|0:0,0:0:0:0:
256,0,528277,2,0,B|273:38|256:82|256:82|240:123|257:168,1,167.999994873047,0|0,0:0|0:0,0:0:0:0:
512,242,528877,1,0,0:0:0:0:
255,163,529077,6,0,L|261:246,1,83.9999974365235
483,166,529477,2,0,L|489:82,1,83.9999974365235,0|0,0:0|0:0,0:0:0:0:
243,67,529877,5,0,0:0:0:0:
244,75,529977,1,0,0:0:0:0:
245,83,530077,1,0,0:0:0:0:
246,91,530177,1,0,0:0:0:0:
247,99,530277,1,0,0:0:0:0:
248,107,530377,1,0,0:0:0:0:
249,115,530477,1,0,0:0:0:0:
250,123,530577,1,0,0:0:0:0:
251,131,530677,5,0,0:0:0:0:
252,139,530777,1,0,0:0:0:0:
253,147,530877,1,0,0:0:0:0:
254,155,530977,1,0,0:0:0:0:
255,163,531077,1,0,0:0:0:0:
256,171,531177,1,0,0:0:0:0:
257,179,531277,1,0,0:0:0:0:
258,187,531377,1,0,0:0:0:0:
259,195,531477,5,0,0:0:0:0:
260,203,531577,1,0,0:0:0:0:
261,211,531677,1,0,0:0:0:0:
262,219,531777,1,0,0:0:0:0:
263,227,531877,1,0,0:0:0:0:
264,235,531977,1,0,0:0:0:0:
265,243,532077,1,0,0:0:0:0:
266,251,532177,1,0,0:0:0:0:
267,261,532277,6,0,B|243:324|171:360|84:343|44:286|44:286|93:277|116:256|116:256|83:224|85:185,1,420
245,123,533077,6,0,B|269:60|341:24|428:41|467:97|467:97|419:107|396:128|396:128|429:160|427:199,1,420
256,352,533877,6,0,B|245:317|256:283|256:283|268:249|257:214,1,140
107,80,534277,5,0,0:0:0:0:
107,89,534377,1,0,0:0:0:0:
108,98,534477,1,0,0:0:0:0:
110,107,534577,1,0,0:0:0:0:
112,116,534677,1,0,0:0:0:0:
116,125,534777,1,0,0:0:0:0:
120,133,534877,1,0,0:0:0:0:
124,141,534977,1,0,0:0:0:0:
130,149,535077,1,0,0:0:0:0:
136,156,535177,1,0,0:0:0:0:
142,163,535277,1,0,0:0:0:0:
149,169,535377,1,0,0:0:0:0:
157,175,535477,6,0,B|223:199|291:172|291:172|383:180|426:258,1,293.999991027832
256,352,536077,1,0,0:0:0:0:
315,88,536277,6,0,B|249:111|181:84|181:84|89:92|46:170,1,293.999991027832
256,371,536877,1,0,0:0:0:0:
256,19,537077,5,0,0:0:0:0:
192,256,537277,1,0,0:0:0:0:
256,256,537377,1,0,0:0:0:0:
320,256,537477,1,0,0:0:0:0:
480,128,537677,1,0,0:0:0:0:
32,128,537877,5,0,0:0:0:0:
256,384,538077,1,0,0:0:0:0:
256,0,538277,2,0,B|245:66|275:117|275:117|288:179|253:238,1,238.00000453949,0|0,0:0|0:0,0:0:0:0:
351,82,572559,5,0,0:0:0:0:
351,82,572911,6,0,P|355:120|345:169,1,70
281,330,573264,1,0,0:0:0:0:
281,330,573441,2,0,P|259:293|252:252,1,70,0|0,0:0|0:0,0:0:0:0:
266,48,573794,6,0,P|273:119|256:192,1,140
92,331,574500,2,0,B|115:275|92:231|92:231|66:180|88:126,1,210,0|0,0:0|0:0,0:0:0:0:
87,127,575382,5,0,0:0:0:0:
87,127,575735,6,0,P|125:131|174:121,1,70
335,57,576088,1,0,0:0:0:0:
335,57,576265,2,0,P|298:35|257:28,1,70,0|0,0:0|0:0,0:0:0:0:
53,42,576618,6,0,P|124:49|197:32,1,140
436,0,577323,2,0,P|411:86|445:212,1,210,0|0,0:0|0:0,0:0:0:0:
438,200,578206,5,0,0:0:0:0:
438,200,578559,6,0,P|400:196|351:206,1,70
190,270,578912,1,0,0:0:0:0:
190,270,579089,2,0,P|227:292|268:299,1,70,0|0,0:0|0:0,0:0:0:0:
472,285,579442,6,0,P|401:278|328:295,2,140
472,285,580500,1,0,0:0:0:0:
256,64,581029,5,0,0:0:0:0:
256,64,581382,6,0,P|252:102|262:151,1,70
326,311,581735,2,0,P|348:274|362:172,1,140,0|0,0:0|0:0,0:0:0:0:
363,180,582441,5,0,0:0:0:0:
92,123,582617,2,0,L|101:220,1,70,0|0,0:0|0:0,0:0:0:0:
70,116,583147,5,0,0:0:0:0:
374,103,583323,1,0,0:0:0:0:
79,199,583500,1,0,0:0:0:0:
81,226,583588,1,0,0:0:0:0:
83,253,583676,1,0,0:0:0:0:
85,280,583764,1,0,0:0:0:0:
87,308,583853,6,0,L|174:318,1,83.9999974365235
278,86,584206,2,0,L|191:96,1,83.9999974365235,0|0,0:0|0:0,0:0:0:0:
249,327,584559,6,0,L|258:243,1,83.9999974365235
135,0,584911,1,0,0:0:0:0:
174,240,585088,1,0,0:0:0:0:
360,78,585264,6,0,L|369:161,1,83.9999974365235
192,226,585617,1,0,0:0:0:0:
379,64,585794,6,0,L|398:238,1,167.999994873047
263,16,586323,2,0,L|176:26,1,83.9999974365235,0|0,0:0|0:0,0:0:0:0:
386,166,586676,6,0,L|395:82,1,83.9999974365235
166,103,587029,1,0,0:0:0:0:
361,8,587206,1,0,0:0:0:0:
65,0,587382,6,0,L|74:83,1,83.9999974365235
297,221,587735,2,0,L|306:137,1,83.9999974365235,0|0,0:0|0:0,0:0:0:0:
31,169,588088,6,0,L|114:178,1,83.9999974365235
65,0,588441,1,0,0:0:0:0:
0,246,588617,6,0,L|174:270,1,167.999994873047
59,21,589147,1,0,0:0:0:0:
24,334,589323,1,0,0:0:0:0:
0,87,589500,6,0,L|83:96,1,83.9999974365235
22,311,589853,1,0,0:0:0:0:
244,187,590029,1,0,0:0:0:0:
0,86,590206,6,0,L|9:169,1,83.9999974365235
234,270,590559,2,0,L|243:186,1,83.9999974365235,0|0,0:0|0:0,0:0:0:0:
84,70,590911,5,0,0:0:0:0:
323,197,591088,1,0,0:0:0:0:
97,151,591264,1,0,0:0:0:0:
311,115,591441,6,0,L|478:89,1,167.999994873047
251,22,591970,1,0,0:0:0:0:
249,41,592059,1,0,0:0:0:0:
309,137,592235,6,0,L|454:115,1,125.999996154785
512,0,592676,1,0,0:0:0:0:
512,207,592853,1,0,0:0:0:0:
343,30,593029,6,0,L|433:16,1,83.9999974365235
512,231,593382,1,0,0:0:0:0:
457,91,593559,1,0,0:0:0:0:
163,268,593735,5,0,0:0:0:0:
489,232,593911,1,0,0:0:0:0:
139,187,594088,1,0,0:0:0:0:
477,316,594264,1,0,0:0:0:0:
115,107,594441,6,0,L|31:119,1,83.9999974365235
336,52,594794,1,0,0:0:0:0:
256,320,594970,1,0,0:0:0:0:
178,0,595147,5,0,0:0:0:0:
256,192,595323,1,0,0:0:0:0:
139,73,595500,1,0,0:0:0:0:
302,122,595676,1,0,0:0:0:0:
302,122,595764,1,0,0:0:0:0:
302,122,595852,5,0,0:0:0:0:
256,192,596029,1,0,0:0:0:0:
327,237,596206,1,0,0:0:0:0:
372,166,596382,1,0,0:0:0:0:
133,216,596559,5,0,0:0:0:0:
228,75,596735,1,0,0:0:0:0:
212,262,596911,1,0,0:0:0:0:
63,172,597088,1,0,0:0:0:0:
63,172,597176,1,0,0:0:0:0:
63,172,597264,5,0,0:0:0:0:
133,216,597441,1,0,0:0:0:0:
88,287,597618,1,0,0:0:0:0:
17,242,597794,1,0,0:0:0:0:
227,376,597970,5,0,0:0:0:0:
245,182,598147,1,0,0:0:0:0:
158,332,598324,1,0,0:0:0:0:
179,134,598500,1,0,0:0:0:0:
385,271,598676,5,0,0:0:0:0:
315,227,598853,1,0,0:0:0:0:
360,156,599030,1,0,0:0:0:0:
431,201,599206,1,0,0:0:0:0:
232,245,599382,5,0,0:0:0:0:
437,115,599559,1,0,0:0:0:0:
437,115,599647,1,0,0:0:0:0:
437,115,599735,1,0,0:0:0:0:
410,351,599911,1,0,0:0:0:0:
355,71,600088,5,0,0:0:0:0:
476,292,600264,1,0,0:0:0:0:
280,30,600441,2,0,L|268:114,1,83.9999974365235,0|0,0:0|0:0,0:0:0:0:
479,41,600794,5,0,0:0:0:0:
246,120,600970,1,0,0:0:0:0:
460,125,601147,1,0,0:0:0:0:
267,44,601323,1,0,0:0:0:0:
267,44,601411,1,0,0:0:0:0:
267,44,601500,5,0,0:0:0:0:
246,120,601676,1,0,0:0:0:0:
224,201,601853,1,0,0:0:0:0:
203,282,602029,1,0,0:0:0:0:
164,98,602206,5,0,0:0:0:0:
298,300,602382,1,0,0:0:0:0:
298,300,602470,1,0,0:0:0:0:
298,300,602559,1,0,0:0:0:0:
104,281,602735,1,0,0:0:0:0:
104,281,602823,1,0,0:0:0:0:
104,281,602912,5,0,0:0:0:0:
81,200,603088,1,0,0:0:0:0:
59,119,603265,1,0,0:0:0:0:
38,38,603441,1,0,0:0:0:0:
267,44,603617,5,0,0:0:0:0:
0,179,603794,1,0,0:0:0:0:
184,23,603970,1,0,0:0:0:0:
81,168,604147,1,0,0:0:0:0:
196,6,604323,5,0,0:0:0:0:
159,204,604500,1,0,0:0:0:0:
108,25,604676,1,0,0:0:0:0:
236,240,604853,1,0,0:0:0:0:
22,46,605029,5,0,0:0:0:0:
170,297,605206,1,0,0:0:0:0:
170,297,605294,1,0,0:0:0:0:
170,297,605382,1,0,0:0:0:0:
268,22,605559,1,0,0:0:0:0:
121,221,605735,5,0,0:0:0:0:
283,5,605911,2,0,L|295:63,1,41.9999987182618,0|0,0:0|0:0,0:0:0:0:
322,197,606088,1,0,0:0:0:0:
210,91,606264,1,0,0:0:0:0:
414,148,606441,6,0,L|397:325,1,167.999994873047
0,328,607147,5,0,0:0:0:0:
222,231,607323,1,0,0:0:0:0:
90,112,607500,2,0,L|107:289,2,167.999994873047,0|0|0,0:0|0:0|0:0,0:0:0:0:
239,247,608382,1,0,0:0:0:0:
33,51,608559,5,0,0:0:0:0:
0,214,608735,1,0,0:0:0:0:
211,98,608911,1,0,0:0:0:0:
114,73,609088,1,0,0:0:0:0:
422,152,609264,5,0,0:0:0:0:
85,198,609441,1,0,0:0:0:0:
412,68,609617,5,0,0:0:0:0:
76,279,609794,1,0,0:0:0:0:
430,53,609970,5,0,0:0:0:0:
4,231,610147,1,0,0:0:0:0:
441,238,610323,5,0,0:0:0:0:
0,42,610500,1,0,0:0:0:0:
461,250,610676,1,0,0:0:0:0:
466,204,610764,5,0,0:0:0:0:
471,157,610853,1,0,0:0:0:0:
476,111,610941,1,0,0:0:0:0:
481,65,611029,1,0,0:0:0:0:
192,0,611206,1,0,0:0:0:0:
197,46,611294,1,0,0:0:0:0:
202,92,611382,5,0,0:0:0:0:
486,18,611559,1,0,0:0:0:0:
119,118,611735,5,0,0:0:0:0:
509,11,611911,1,0,0:0:0:0:
100,125,612088,6,0,P|97:172|109:212,1,70,4|0,0:0|0:0,0:0:0:0:
323,170,612264,2,0,P|251:149|161:167,1,140,0|0,0:0|0:0,0:0:0:0:
170,286,612617,1,0,0:0:0:0:
167,58,612794,1,0,0:0:0:0:
167,58,612970,1,0,0:0:0:0:
374,306,613147,6,0,P|371:254|362:231,1,70
189,220,613323,2,0,P|172:260|171:295,1,70,0|0,0:0|0:0,0:0:0:0:
456,342,613500,6,0,P|449:237|390:128,2,210
487,74,614206,5,0,0:0:0:0:
453,363,614382,1,0,0:0:0:0:
491,50,614559,5,0,0:0:0:0:
365,342,614735,1,0,0:0:0:0:
496,23,614911,6,0,P|440:92|438:127,1,70
512,276,615088,2,0,P|504:195|468:137,1,140,0|0,0:0|0:0,0:0:0:0:
350,172,615441,1,0,0:0:0:0:
503,0,615617,1,0,0:0:0:0:
503,0,615794,1,0,0:0:0:0:
262,176,615970,6,0,P|291:236|322:259,1,70
415,44,616147,2,0,P|336:32|312:36,1,70,0|0,0:0|0:0,0:0:0:0:
193,225,616323,6,0,P|266:323|346:365,2,210
265,41,617029,5,0,0:0:0:0:
148,327,617206,1,0,0:0:0:0:
106,82,617382,5,0,0:0:0:0:
355,264,617559,1,0,0:0:0:0:
88,67,617735,6,0,P|159:25|188:25,1,70
282,158,617911,2,0,P|247:237|176:288,1,140,0|0,0:0|0:0,0:0:0:0:
44,144,618264,1,0,0:0:0:0:
285,73,618441,1,0,0:0:0:0:
285,73,618617,1,0,0:0:0:0:
19,231,618794,6,0,P|35:298|54:323,1,70
242,287,618970,2,0,P|252:227|245:192,1,70,0|0,0:0|0:0,0:0:0:0:
40,228,619147,6,0,P|66:304|165:391,2,210
98,82,619853,5,0,0:0:0:0:
0,384,620029,1,0,0:0:0:0:
105,58,620206,5,0,0:0:0:0:
84,384,620382,1,0,0:0:0:0:
22,49,620559,6,0,P|15:128|20:147,1,70
137,278,620735,2,0,P|125:192|81:124,1,140,0|0,0:0|0:0,0:0:0:0:
5,34,621088,1,0,0:0:0:0:
241,7,621264,1,0,0:0:0:0:
241,7,621441,1,0,0:0:0:0:
32,198,621617,2,0,L|173:214,1,140,0|0,0:0|0:0,0:0:0:0:
155,18,621970,5,0,0:0:0:0:
182,298,622147,1,0,0:0:0:0:
152,0,622323,1,0,0:0:0:0:
512,197,622676,5,0,0:0:0:0:
470,203,622764,1,0,0:0:0:0:
428,209,622853,1,0,0:0:0:0:
386,215,622941,1,0,0:0:0:0:
344,222,623029,1,0,0:0:0:0:
344,222,623382,6,0,P|366:152|357:74,1,125.999996154785
119,5,623735,2,0,P|112:66|130:130,1,125.999996154785
363,14,624088,5,0,0:0:0:0:
138,213,624264,1,0,0:0:0:0:
380,0,624441,2,0,P|387:62|369:125,1,125.999996154785
121,23,624794,6,0,P|176:7|246:12,1,125.999996154785
434,183,625147,1,0,0:0:0:0:
117,216,625323,1,0,0:0:0:0:
451,98,625500,5,0,0:0:0:0:
451,98,625676,1,0,0:0:0:0:
198,209,625853,2,0,P|196:270|209:334,1,125.999996154785
362,88,626206,6,0,P|304:75|237:77,1,125.999996154785
294,326,626559,2,0,P|356:332|419:315,1,125.999996154785
451,98,626911,5,0,0:0:0:0:
416,315,627088,1,0,0:0:0:0:
357,25,627264,2,0,P|371:89|368:150,1,125.999996154785,0|0,0:0|0:0,0:0:0:0:
171,384,627617,6,0,P|146:320|146:251,1,125.999996154785
464,164,627970,2,0,P|398:243|345:260,1,125.999996154785,0|0,0:0|0:0,0:0:0:0:
75,182,628323,5,0,0:0:0:0:
116,167,628411,1,0,0:0:0:0:
160,165,628499,1,0,0:0:0:0:
203,174,628587,1,0,0:0:0:0:
242,194,628675,1,0,0:0:0:0:
0,8,629029,5,0,0:0:0:0:
157,248,629206,2,0,P|192:181|187:109,1,125.999996154785,0|0,0:0|0:0,0:0:0:0:
83,0,629559,6,0,P|138:72|299:94,1,251.999992309571
466,0,630088,1,0,0:0:0:0:
290,193,630264,1,0,0:0:0:0:
371,0,630441,5,0,0:0:0:0:
405,259,630617,2,0,P|418:172|401:120,1,125.999996154785,0|0,0:0|0:0,0:0:0:0:
219,0,630970,6,0,P|194:92|206:156,1,125.999996154785
425,274,631323,1,0,0:0:0:0:
128,185,631500,2,0,P|198:210|278:190,1,125.999996154785
459,58,631853,5,0,0:0:0:0:
267,294,632029,2,0,P|331:241|346:198,1,125.999996154785,0|0,0:0|0:0,0:0:0:0:
190,0,632382,6,0,P|183:86|218:152,1,125.999996154785
425,274,632735,1,0,0:0:0:0:
80,183,632911,1,0,0:0:0:0:
512,300,633264,5,0,0:0:0:0:
165,212,633441,1,0,0:0:0:0:
455,101,633617,1,0,0:0:0:0:
48,271,633794,6,0,L|58:138,1,105.000004005432
376,137,634147,1,0,0:0:0:0:
63,84,634323,1,0,0:0:0:0:
399,142,634500,1,0,0:0:0:0:
402,173,634588,1,0,0:0:0:0:
404,204,634676,6,0,L|311:217,1,70
334,213,635206,1,0,0:0:0:0:
334,213,635382,6,0,L|348:356,1,140
164,352,635911,6,0,L|178:213,1,140
199,26,636441,2,0,L|126:34,1,70,0|0,0:0|0:0,0:0:0:0:
0,50,636794,6,0,L|14:193,1,140
33,308,637323,1,0,0:0:0:0:
33,308,637500,6,0,B|100:339|169:303|169:303|237:267|305:299,1,280
302,297,638559,6,0,L|312:210,1,70
334,71,638911,1,0,0:0:0:0:
334,71,639088,2,0,L|191:85,1,140,0|0,0:0|0:0,0:0:0:0:
309,227,639617,6,0,L|452:241,1,140
431,57,640147,1,0,0:0:0:0:
431,57,640323,1,0,0:0:0:0:
101,98,640676,2,0,B|65:248|174:338|174:338|167:205|258:121|258:121|322:220|312:306|312:306|325:220|359:176|359:176|366:250|400:311,1,980
140,294,645264,5,0,0:0:0:0:
201,22,645441,1,0,0:0:0:0:
222,252,645617,1,0,0:0:0:0:
253,256,645706,1,0,0:0:0:0:
284,261,645794,1,0,0:0:0:0:
315,266,645882,1,0,0:0:0:0:
346,271,645970,6,0,L|449:258,1,97.9999970092774
234,173,646323,1,0,0:0:0:0:
302,358,646500,6,0,L|405:345,1,97.9999970092774
315,160,646853,1,0,0:0:0:0:
216,366,647029,1,0,0:0:0:0:
216,366,647206,1,0,0:0:0:0:
443,258,647382,6,0,L|417:40,1,195.999994018555
298,140,647911,1,0,0:0:0:0:
499,17,648088,5,0,0:0:0:0:
499,17,648264,1,0,0:0:0:0:
225,0,648441,2,0,L|212:103,1,97.9999970092774
511,114,648794,6,0,L|498:11,1,97.9999970092774
197,180,649147,1,0,0:0:0:0:
497,135,649323,6,0,L|484:37,1,97.9999970092774
225,0,649676,1,0,0:0:0:0:
486,163,649853,1,0,0:0:0:0:
486,163,650029,1,0,0:0:0:0:
212,90,650206,6,0,B|185:130|189:189|189:189|215:230|208:277,1,195.999994018555
73,384,650735,6,0,B|46:344|50:285|50:285|76:244|69:196,1,195.999994018555
1,37,651264,1,0,0:0:0:0:
212,90,651441,1,0,0:0:0:0:
0,226,651617,6,0,L|103:239,1,97.9999970092774
86,51,651970,1,0,0:0:0:0:
74,317,652147,6,0,L|177:304,1,97.9999970092774
108,130,652500,1,0,0:0:0:0:
256,294,652676,1,0,0:0:0:0:
256,294,652853,1,0,0:0:0:0:
10,142,653029,6,0,L|113:129,1,97.9999970092774
96,317,653382,1,0,0:0:0:0:
84,51,653559,6,0,L|187:64,1,97.9999970092774
118,238,653912,1,0,0:0:0:0:
266,74,654088,1,0,0:0:0:0:
266,74,654265,1,0,0:0:0:0:
179,294,654441,6,0,B|234:305|276:282|276:282|332:278|371:304,1,195.999994018555
512,128,654970,6,0,B|463:157|413:149|413:149|374:126|315:125,1,195.999994018555
457,262,655500,2,0,L|446:152,1,97.9999970092774,0|0,0:0|0:0,0:0:0:0:
288,22,655853,5,0,0:0:0:0:
264,263,656029,1,0,0:0:0:0:
291,0,656206,1,0,0:0:0:0:
55,216,656559,5,0,0:0:0:0:
57,250,656647,1,0,0:0:0:0:
59,284,656735,1,0,0:0:0:0:
61,318,656823,1,0,0:0:0:0:
64,352,656911,1,0,0:0:0:0:
64,352,657264,5,0,0:0:0:0:
448,352,657970,6,0,P|464:298|459:231,1,105.000004005432
263,317,658676,2,0,P|339:324|377:309,1,105.000004005432,0|0,0:0|0:0,0:0:0:0:
394,159,659382,2,0,P|367:138|297:119,1,105.000004005432,0|0,0:0|0:0,0:0:0:0:
204,188,660088,6,0,P|160:217|109:227,2,105.000004005432
255,39,661147,1,0,0:0:0:0:
311,185,661500,1,0,0:0:0:0:
256,192,661588,12,0,665029,0:0:0:0:
105,175,665735,6,0,P|70:203|59:222,2,35.0000013351441,0|0|0,0:0|0:0|0:0,0:0:0:0:
135,106,666088,6,0,P|110:101|83:101,2,35.0000013351441,0|0|0,0:0|0:0|0:0,0:0:0:0:
207,85,666441,6,0,P|187:50|173:39,2,35.0000013351441,0|0|0,0:0|0:0|0:0,0:0:0:0:
272,125,666794,6,0,P|282:89|282:76,2,35.0000013351441,0|0|0,0:0|0:0|0:0,0:0:0:0:
247,200,667147,6,0,P|237:236|237:249,2,35.0000013351441,0|0|0,0:0|0:0|0:0,0:0:0:0:
312,240,667500,6,0,P|332:275|346:286,2,35.0000013351441,0|0|0,0:0|0:0|0:0,0:0:0:0:
384,219,667853,6,0,P|409:224|442:222,1,52.5000020027161,0|0,0:0|0:0,0:0:0:0:
492,36,668206,5,0,0:0:0:0:
459,42,668294,1,0,0:0:0:0:
430,56,668382,1,0,0:0:0:0:
406,78,668470,1,0,0:0:0:0:
389,106,668559,6,0,P|375:158|387:226,1,115.50000352478
433,276,668911,2,0,P|382:257|311:262,1,115.50000352478,0|0,0:0|0:0,0:0:0:0:
258,303,669264,6,0,P|207:322|136:317,1,115.50000352478
74,292,669617,2,0,P|53:247|51:196,1,77.0000023498536,0|0,0:0|0:0,0:0:0:0:
88,28,669970,6,0,P|108:85|99:157,1,115.50000352478
55,199,670323,2,0,P|104:171|173:170,1,115.50000352478,0|0,0:0|0:0,0:0:0:0:
232,200,670676,6,0,P|281:228|350:229,1,115.50000352478
407,194,671029,2,0,P|434:152|440:111,1,77.0000023498536,0|0,0:0|0:0,0:0:0:0:
296,13,671382,6,0,P|308:81|350:130,1,115.50000352478
388,173,671735,2,0,P|395:229|366:303,1,115.50000352478
312,326,672088,6,0,P|237:320|186:282,1,115.50000352478
155,238,672441,2,0,P|109:220|70:224,1,77.0000023498536,0|0,0:0|0:0,0:0:0:0:
0,358,672794,6,0,P|59:343|110:290,1,115.50000352478
136,239,673147,2,0,P|140:191|132:151,1,77.0000023498536,0|0,0:0|0:0,0:0:0:0:
38,12,673500,6,0,P|89:55|155:60,1,115.50000352478
213,55,673853,2,0,P|272:31|289:15,1,77.0000023498536,0|0,0:0|0:0,0:0:0:0:
463,57,674206,6,0,P|428:22|350:-1,1,115.50000352478
304,44,674558,2,0,P|309:103|348:162,1,115.50000352478,0|0,0:0|0:0,0:0:0:0:
400,195,674911,6,0,P|411:234|402:288,1,77.0000023498536
251,344,675264,2,0,P|261:307|286:274,1,77.0000023498536,0|0,0:0|0:0,0:0:0:0:
475,327,675617,6,0,P|424:348|341:328,1,115.50000352478
306,290,675970,2,0,P|255:269|172:289,1,115.50000352478,0|0,0:0|0:0,0:0:0:0:
131,318,676323,6,0,P|154:244|143:193,1,115.50000352478
102,145,676676,2,0,P|64:174|46:203,1,77.0000023498536,0|0,0:0|0:0,0:0:0:0:
23,350,677029,6,0,P|79:370|150:358,1,105
187,330,677382,2,0,P|209:282|207:211,1,105,0|0,0:0|0:0,0:0:0:0:
190,159,677735,6,0,P|192:96|229:41,1,105
273,19,678088,2,0,P|302:48|318:89,1,70,0|0,0:0|0:0,0:0:0:0:
110,75,678441,6,0,P|124:46|156:15,1,70
314,73,678794,2,0,P|300:102|268:133,1,70,0|0,0:0|0:0,0:0:0:0:
73,144,679147,6,0,P|44:115|28:74,1,70
273,128,679500,1,0,0:0:0:0:
273,128,679963,2,0,B|311:167|314:130|309:111|334:128|334:128|335:136|335:136|326:123|349:144|362:135|384:133,1,140
214,245,680536,2,0,B|198:251|168:240|168:240|180:245|183:255|168:254|169:249|173:239|183:236|183:236|163:237|141:248|137:237|129:244|127:234|127:234|123:239|99:243|99:243,1,175
105,210,681308,6,0,B|127:247|127:247|122:251|133:274|150:272|150:272|148:292|157:296|152:307,1,105
152,430,681882,6,0,B|192:419|192:419|224:392|224:392|207:395|207:395|258:404,1,140
412,309,682676,6,0,L|400:221,1,70
259,82,683029,2,0,L|247:170,1,70,0|0,0:0|0:0,0:0:0:0:
484,226,683382,6,0,L|472:138,1,70
271,230,683735,1,0,0:0:0:0:
271,230,683911,1,0,0:0:0:0:
459,76,684088,5,0,0:0:0:0:
332,179,684264,1,0,0:0:0:0:
479,61,684441,2,0,L|409:51,1,70,0|0,0:0|0:0,0:0:0:0:
351,261,684794,6,0,L|420:251,1,70
326,39,685147,2,0,L|256:29,1,70,0|0,0:0|0:0,0:0:0:0:
265,274,685500,6,0,P|262:330|275:365,1,70
289,185,685853,2,0,P|235:188|202:207,1,70,0|0,0:0|0:0,0:0:0:0:
378,160,686206,6,0,P|352:119|318:98,1,70
450,217,686558,1,0,0:0:0:0:
450,217,686735,6,0,P|465:171|449:75,2,140
356,308,687617,5,0,0:0:0:0:
512,384,687794,1,0,0:0:0:0:
357,214,687970,2,0,P|309:225|276:251,1,70,0|0,0:0|0:0,0:0:0:0:
160,350,688323,6,0,P|112:339|79:313,1,70
53,99,688676,2,0,P|75:132|83:177,1,70,0|0,0:0|0:0,0:0:0:0:
8,349,689029,6,0,P|57:249|101:227,1,140
77,235,689735,6,0,P|139:239|267:153,1,210
214,15,690441,1,0,0:0:0:0:
211,22,690499,1,0,0:0:0:0:
209,30,690558,1,0,0:0:0:0:
208,38,690617,1,0,0:0:0:0:
206,46,690676,1,0,0:0:0:0:
206,54,690735,1,0,0:0:0:0:
205,63,690793,1,0,0:0:0:0:
205,71,690852,1,0,0:0:0:0:
206,79,690911,1,0,0:0:0:0:
207,87,690970,1,0,0:0:0:0:
208,95,691029,1,0,0:0:0:0:
210,103,691088,1,0,0:0:0:0:
212,111,691146,1,0,0:0:0:0:
104,18,691500,5,0,0:0:0:0:
74,154,691853,1,0,0:0:0:0:
212,111,692206,1,0,0:0:0:0:
212,111,692382,1,0,0:0:0:0:
212,111,692911,6,0,L|312:120,2,97.9999970092774
115,101,693794,2,0,L|124:201,1,97.9999970092774,0|0,0:0|0:0,0:0:0:0:
132,277,694323,5,0,0:0:0:0:
269,247,694676,1,0,0:0:0:0:
227,384,695029,1,0,0:0:0:0:
227,384,695205,1,0,0:0:0:0:
227,384,695735,6,0,L|327:375,2,97.9999970092774
211,297,696617,1,0,0:0:0:0:
306,291,696794,5,0,0:0:0:0:
306,291,696970,2,0,L|297:193,1,97.9999970092774,0|0,0:0|0:0,0:0:0:0:
286,106,697500,2,0,L|384:97,1,97.9999970092774
394,184,698029,2,0,L|237:199,1,146.999995513916
188,114,698735,2,0,L|286:105,1,97.9999970092774,0|0,0:0|0:0,0:0:0:0:
383,97,699264,5,0,0:0:0:0:
500,0,699617,2,0,L|514:161,1,146.999995513916,0|0,0:0|0:0,0:0:0:0:
434,194,700323,2,0,L|421:47,1,146.999995513916,0|0,0:0|0:0,0:0:0:0:
338,20,701029,5,0,0:0:0:0:
229,155,701382,1,0,0:0:0:0:
350,142,701735,1,0,0:0:0:0:
216,33,702088,1,0,0:0:0:0:
216,33,702441,6,0,L|54:46,1,146.999995513916
61,41,703676,5,0,0:0:0:0:
61,41,703853,2,0,L|67:144,1,97.9999970092774,0|0,0:3|0:3,0:3:0:0:
180,228,704558,2,0,L|201:67,1,146.999995513916,0|0,0:0|0:0,0:0:0:0:
282,38,705264,6,0,L|301:183,1,146.999995513916
317,272,705970,6,0,L|369:263,2,48.9999985046387
223,290,706500,2,0,L|119:306,1,97.9999970092774,0|0,0:0|0:0,0:0:0:0:
37,322,707029,1,0,0:0:0:0:
37,322,707206,2,0,L|55:160,1,146.999995513916,0|0,0:0|0:0,0:0:0:0:
78,16,708088,6,0,L|240:29,1,146.999995513916
224,27,709147,6,0,L|219:78,1,48.9999985046387
308,110,709500,2,0,L|303:59,1,48.9999985046387,0|0,0:0|0:0,0:0:0:0:
390,24,709853,2,0,L|385:75,1,48.9999985046387,0|0,0:0|0:0,0:0:0:0:
289,123,710206,1,0,0:0:0:0:
376,151,710382,6,0,L|424:154,2,48.9999985046387
342,223,710911,2,0,L|432:230,2,73.4999977569581,0|0|0,0:0|0:0|0:0,0:0:0:0:
254,218,711617,2,0,L|267:319,1,97.9999970092774,0|0,0:0|0:0,0:0:0:0:
266,315,712323,6,0,L|368:326,1,97.9999970092774
439,212,713029,2,0,L|337:223,1,97.9999970092774
186,230,713735,6,0,P|184:190|198:143,2,70
216,308,714264,2,0,P|155:332|70:311,1,140
31,252,714794,2,0,P|58:239|99:236,1,70,0|0,0:0|0:0,0:0:0:0:
149,291,715147,6,0,P|176:304|217:307,2,70
97,235,715676,1,0,0:0:0:0:
146,166,715853,2,0,P|165:99|149:20,1,140
74,0,716382,1,0,0:0:0:0:
5,47,716558,6,0,P|7:86|25:121,2,70
74,0,717088,1,0,0:0:0:0:
153,29,717264,2,0,P|194:44|295:28,1,140
366,1,717794,1,0,0:0:0:0:
448,12,717970,6,0,P|491:33|510:54,2,70
366,1,718500,1,0,0:0:0:0:
398,78,718676,2,0,P|403:149|364:227,1,140
300,248,719206,1,0,0:0:0:0:
223,281,719382,6,0,P|189:307|167:345,2,70
300,248,719911,1,0,0:0:0:0:
334,324,720088,6,0,P|356:360|388:382,2,70
300,248,720617,1,0,0:0:0:0:
319,165,720794,6,0,P|337:135|363:111,2,70
300,248,721323,1,0,0:0:0:0:
383,236,721500,2,0,P|441:260|486:331,1,140,0|0,0:0|0:0,0:0:0:0:
269,359,722206,5,0,0:0:0:0:
269,359,722382,2,0,L|184:352,1,70,0|0,0:0|0:0,0:0:0:0:
125,265,722735,5,0,0:0:0:0:
125,265,722911,2,0,L|210:258,1,70,0|0,0:0|0:0,0:0:0:0:
246,185,723264,5,0,0:0:0:0:
246,185,723440,2,0,L|161:178,1,70,0|0,0:0|0:0,0:0:0:0:
157,108,723794,5,0,0:0:0:0:
157,108,723970,2,0,L|226:102,1,70,0|0,0:0|0:0,0:0:0:0:
221,29,724323,6,0,L|151:23,2,70
392,43,725029,5,0,0:0:0:0:
256,192,725117,12,0,728404,0:0:0:0:
