osu file format v14

[General]
AudioFilename: audio.mp3
AudioLeadIn: 0
PreviewTime: 55983
Countdown: 1
SampleSet: Soft
StackLeniency: 0.7
Mode: 0
LetterboxInBreaks: 0
WidescreenStoryboard: 0

[Editor]
DistanceSpacing: 1
BeatDivisor: 8
GridSize: 32
TimelineZoom: 1

[Metadata]
Title:Stereo Hearts (feat. Adam Levine)
TitleUnicode:Stereo Hearts (feat. Adam Levine)
Artist:Gym Class Heroes
ArtistUnicode:Gym Class Heroes
Creator:DeepSeaK
Version:Sing Along to My Stereo
Source:
Tags:The Papercut Chronicles II Maroon 5 Travie McCoy Fueled By Ramen
BeatmapID:1884933
BeatmapSetID:902870

[Difficulty]
HPDrainRate:6
CircleSize:4
OverallDifficulty:8
ApproachRate:9
SliderMultiplier:1.7
SliderTickRate:1

[Events]
//Background and Video events
0,0,"MAHHHH Hearts a stereo.jpg",0,0
//Break Periods
//Storyboard Layer 0 (Background)
//Storyboard Layer 1 (Fail)
//Storyboard Layer 2 (Pass)
//Storyboard Layer 3 (Foreground)
//Storyboard Sound Samples

[TimingPoints]
28,666.666666666667,4,2,0,25,1,0
11361,-100,4,2,0,40,0,0
22861,-125,4,2,0,30,0,0
24028,-66.6666666666667,4,3,0,50,0,0
56028,-50,4,2,0,65,0,1
65361,-50,4,2,0,65,0,0
66694,-50,4,2,0,65,0,1
76028,-50,4,2,0,65,0,0
77361,-66.6666666666667,4,2,0,50,0,0
85361,-200,4,2,0,50,0,0
86361,-133.333333333333,4,2,0,50,0,0
87361,-133.333333333333,4,2,0,50,0,0
89028,-133.333333333333,4,3,0,30,0,0

[Colours]
Combo1 : 255,255,70
Combo2 : 255,26,140
Combo3 : 35,35,35
Combo4 : 255,6,6

[HitObjects]
257,192,28,5,0,0:0:0:0:
294,244,1361,5,0,0:0:0:0:
265,284,2694,5,0,0:0:0:0:
231,251,4028,5,0,0:0:0:0:
192,247,5361,5,0,0:0:0:0:
223,227,6694,5,0,0:0:0:0:
253,263,8028,5,0,0:0:0:0:
282,229,9361,5,0,0:0:0:0:
257,191,10694,5,0,0:0:0:0:
257,191,11028,2,0,L|180:197,1,42.5
195,115,11361,2,0,P|249:89|324:118,1,127.5
352,215,12028,2,0,L|346:294,1,63.75
266,337,12528,2,0,L|258:239,1,85
295,151,13194,1,0,0:0:0:0:
417,177,13861,5,0,0:0:0:0:
417,177,14028,2,0,L|408:266,1,85
313,296,14528,2,0,L|322:207,1,85
199,296,15194,2,0,L|190:207,1,85
103,261,15861,1,0,0:0:0:0:
135,137,16528,5,0,0:0:0:0:
135,137,16694,2,0,L|76:143,2,42.5
174,45,17194,2,0,L|269:53,1,85
242,149,17861,2,0,L|337:141,1,85
394,44,18528,1,0,0:0:0:0:
409,184,19194,5,0,0:0:0:0:
409,184,19361,2,0,B|368:197|368:197|332:287,1,127.5
309,346,20361,1,0,0:0:0:0:
250,195,20528,1,0,0:0:0:0:
199,316,20694,1,0,0:0:0:0:
147,202,20861,1,0,0:0:0:0:
99,347,21028,1,0,0:0:0:0:
127,259,22861,6,0,L|353:269,1,204
416,294,24028,6,0,L|425:199,1,63.7500024318696
312,145,24361,2,0,L|406:134,1,63.7500024318696
485,149,24694,1,0,0:0:0:0:
433,47,24861,1,0,0:0:0:0:
327,61,25028,1,0,0:0:0:0:
285,248,25528,6,0,P|214:231|181:177,1,127.500004863739
183,65,26028,2,0,P|254:82|287:136,1,127.500004863739
260,225,26528,1,0,0:0:0:0:
162,248,26694,5,0,0:0:0:0:
192,153,26861,1,0,0:0:0:0:
230,322,27028,1,0,0:0:0:0:
92,320,27194,1,0,0:0:0:0:
99,174,27361,1,0,0:0:0:0:
192,153,27528,1,0,0:0:0:0:
162,248,27694,1,0,0:0:0:0:
125,71,28028,6,0,L|205:62,1,63.7500024318696
285,29,28361,2,0,L|365:38,1,63.7500024318696
432,115,28694,2,0,L|440:194,1,63.7500024318696
414,282,29028,1,0,0:0:0:0:
341,205,29194,1,0,0:0:0:0:
249,319,29361,6,0,L|339:307,1,63.7500024318696
414,282,29694,1,0,0:0:0:0:
359,157,29861,1,0,0:0:0:0:
290,238,30028,1,0,0:0:0:0:
467,196,30194,1,0,0:0:0:0:
435,77,30361,1,0,0:0:0:0:
281,39,30861,5,0,0:0:0:0:
222,97,31028,2,0,L|230:188,1,63.7500024318696
305,230,31361,2,0,L|297:321,1,63.7500024318696
219,354,31694,1,0,0:0:0:0:
136,306,31861,1,0,0:0:0:0:
188,224,32028,6,0,L|180:133,1,63.7500024318696
190,60,32361,1,0,0:0:0:0:
299,37,32528,1,0,0:0:0:0:
378,131,32694,1,0,0:0:0:0:
331,237,32861,1,0,0:0:0:0:
275,149,33028,1,0,0:0:0:0:
424,343,33361,6,0,L|332:350,1,63.7500024318696
274,252,33694,2,0,L|364:257,1,63.7500024318696
267,151,34028,2,0,L|357:146,1,63.7500024318696
424,41,34361,2,0,L|332:34,1,63.7500024318696
249,59,34694,5,0,0:0:0:0:
219,184,34861,1,0,0:0:0:0:
299,142,35028,1,0,0:0:0:0:
167,106,35194,1,0,0:0:0:0:
216,274,35361,1,0,0:0:0:0:
293,228,35528,1,0,0:0:0:0:
219,184,35694,1,0,0:0:0:0:
181,43,36194,5,0,0:0:0:0:
236,100,36361,2,0,L|316:93,1,63.7500024318696
413,62,36694,2,0,L|428:154,1,63.7500024318696
384,227,37028,1,0,0:0:0:0:
454,311,37194,1,0,0:0:0:0:
348,335,37361,6,0,L|253:324,1,63.7500024318696
217,229,37694,2,0,L|312:218,1,63.7500024318696
382,185,38028,1,0,0:0:0:0:
423,90,38194,1,0,0:0:0:0:
360,8,38361,1,0,0:0:0:0:
281,93,38861,5,0,0:0:0:0:
235,286,39028,1,0,0:0:0:0:
231,93,39194,5,0,0:0:0:0:
277,286,39361,1,0,0:0:0:0:
281,93,39528,5,0,0:0:0:0:
235,286,39695,1,0,0:0:0:0:
231,93,39861,5,0,0:0:0:0:
277,286,40028,6,0,P|317:215|296:148,1,127.500004863739
132,143,40694,2,0,P|185:204|255:208,1,127.500004863739
407,105,41528,5,0,0:0:0:0:
363,44,41694,2,0,L|277:35,1,63.7500024318696
229,113,42028,2,0,L|238:223,1,63.7500024318696
294,261,42361,1,0,0:0:0:0:
236,343,42528,1,0,0:0:0:0:
130,340,42694,6,0,L|119:264,1,63.7500024318696
138,173,43028,1,0,0:0:0:0:
220,119,43194,1,0,0:0:0:0:
230,226,43361,1,0,0:0:0:0:
137,71,43528,1,0,0:0:0:0:
218,0,43694,1,0,0:0:0:0:
386,66,44194,6,0,P|406:142|372:206,1,127.500004863739
293,248,44694,2,0,L|203:254,1,63.7500024318696
131,215,45028,1,0,0:0:0:0:
93,92,45194,1,0,0:0:0:0:
195,134,45361,5,0,0:0:0:0:
39,169,45528,1,0,0:0:0:0:
169,50,45694,1,0,0:0:0:0:
124,213,45861,1,0,0:0:0:0:
85,96,46028,1,0,0:0:0:0:
250,92,46194,1,0,0:0:0:0:
204,184,46361,1,0,0:0:0:0:
118,51,46861,5,0,0:0:0:0:
183,100,47028,2,0,L|271:89,1,63.7500024318696
349,151,47361,2,0,L|360:255,1,63.7500024318696
256,288,47694,2,0,L|245:184,1,63.7500024318696
203,121,48028,5,0,0:0:0:0:
83,176,48194,1,0,0:0:0:0:
173,213,48361,1,0,0:0:0:0:
117,89,48528,1,0,0:0:0:0:
97,269,48694,1,0,0:0:0:0:
254,192,48861,1,0,0:0:0:0:
102,171,49028,1,0,0:0:0:0:
137,275,49695,6,0,L|207:282,1,63.7500024318696
202,172,50028,2,0,L|272:165,1,63.7500024318696
285,262,50361,2,0,L|355:269,1,63.7500024318696
359,177,50694,6,0,L|429:170,1,63.7500024318696
512,221,51028,1,0,0:0:0:0:
509,325,51194,1,0,0:0:0:0:
365,253,51361,1,0,0:0:0:0:
440,141,51528,1,0,0:0:0:0:
448,268,51694,1,0,0:0:0:0:
273,193,52194,5,0,0:0:0:0:
316,131,52361,2,0,L|325:66,1,63.7500024318696
423,29,52694,2,0,L|435:115,1,63.7500024318696
468,202,53028,2,0,L|457:296,1,63.7500024318696
356,338,53361,6,0,L|343:239,1,63.7500024318696
302,172,53694,1,0,0:0:0:0:
348,37,53861,1,0,0:0:0:0:
406,133,54028,1,0,0:0:0:0:
250,79,54194,1,0,0:0:0:0:
406,133,54361,2,0,L|391:226,1,63.7500024318696
296,150,54694,6,0,L|263:70,1,63.7500024318696
294,234,55028,2,0,L|374:201,1,63.7500024318696
214,233,55361,2,0,L|247:313,1,63.7500024318696
215,150,55694,2,0,L|135:183,1,63.7500024318696
160,320,56028,6,0,L|415:275,1,255
468,146,56694,2,0,P|399:81|197:111,1,255
156,208,57361,2,0,P|233:264|401:252,1,255
314,115,58028,2,0,B|247:234|374:220|285:366,1,255
152,354,58694,6,0,L|126:166,1,170
145,81,59194,1,0,0:0:0:0:
145,81,59361,2,0,P|251:62|398:127,1,255
487,155,60028,2,0,L|467:329,1,170
316,348,60528,2,0,L|305:233,1,85
381,170,60861,2,0,L|392:285,1,85
232,333,61194,6,0,P|186:249|242:93,1,255
442,190,62028,2,0,L|460:309,2,85
384,117,62528,2,0,L|399:13,1,85
343,198,62861,2,0,L|358:302,1,85
288,117,63194,2,0,L|303:13,1,85
239,200,63528,2,0,L|254:304,1,85
181,122,63861,6,0,P|110:178|123:351,1,255
328,348,64694,2,0,P|363:259|306:104,1,255
144,66,65361,2,0,P|105:157|209:328,1,255
258,317,66028,1,0,0:0:0:0:
258,317,66194,2,0,L|354:308,2,85
157,333,66694,6,0,L|125:77,1,255
225,24,67361,2,0,P|315:72|358:279,1,255
237,312,68028,2,0,P|151:265|98:94,1,255
230,56,68694,2,0,B|297:175|170:161|259:307,1,255
391,324,69361,6,0,L|411:139,1,170
400,61,69861,1,0,0:0:0:0:
400,61,70028,2,0,P|304:25|112:93,1,255
126,163,70694,2,0,L|146:337,1,170
297,356,71194,2,0,L|308:241,1,85
232,178,71527,2,0,L|221:293,1,85
385,324,71860,6,0,P|428:249|384:86,1,255
311,44,72528,1,0,0:0:0:0:
311,44,72694,2,0,L|123:63,1,170
196,137,73194,2,0,L|310:149,1,85
133,195,73528,2,0,L|19:207,1,85
196,253,73861,2,0,L|310:265,1,85
135,312,74194,2,0,L|21:324,1,85
201,380,74528,6,0,P|308:368|397:235,1,255
341,94,75194,2,0,P|239:93|138:235,1,255
156,307,76361,1,0,0:0:0:0:
215,156,76528,1,0,0:0:0:0:
266,277,76694,1,0,0:0:0:0:
318,163,76861,1,0,0:0:0:0:
366,308,77028,1,0,0:0:0:0:
366,308,77361,6,0,L|360:210,1,63.7500024318696
366,308,78028,2,0,B|236:369|255:254|112:311,1,255.000009727478
121,307,79028,2,0,L|135:155,1,127.500004863739
140,71,79694,1,0,0:0:0:0:
140,71,80694,6,0,L|128:222,2,127.500004863739
135,134,81694,2,0,L|130:219,1,63.7500024318696
121,307,82361,1,0,0:0:0:0:
121,307,82694,6,0,L|128:220,1,63.7500024318696
121,307,83361,2,0,B|251:368|232:253|375:310,1,255.000009727478
365,306,84361,2,0,L|356:154,1,127.500004863739
347,62,85028,1,0,0:0:0:0:
347,62,85361,6,0,L|236:53,1,106.25
347,62,86361,2,0,L|179:49,1,159.375006079674
111,100,87361,6,0,L|93:155,1,31.8750012159348
168,170,87694,6,0,L|163:220,1,31.8750012159348
241,222,88028,6,0,L|247:279,1,31.8750012159348
306,148,89111,6,0,P|329:123|303:145,1,95.6250036478044,0|0,0:3|0:3,0:3:0:0:
