osu file format v14

[General]
AudioFilename: audio.mp3
AudioLeadIn: 0
PreviewTime: 21699
Countdown: 0
SampleSet: Soft
StackLeniency: 0.8
Mode: 0
LetterboxInBreaks: 0
WidescreenStoryboard: 1

[Editor]
DistanceSpacing: 1.2
BeatDivisor: 4
GridSize: 4
TimelineZoom: 1

[Metadata]
Title:Hollaback Girl
TitleUnicode:Hollaback Girl
Artist:Gwen Stefani
ArtistUnicode:Gwen Stefani
Creator:arronchu1207
Version:Hard
Source:
Tags:English Hip hop Love. Angel. Music. Baby. L.A.M.B. no doubt pop
BeatmapID:4270143
BeatmapSetID:1998547

[Difficulty]
HPDrainRate:4
CircleSize:3.8
OverallDifficulty:6
ApproachRate:7.1
SliderMultiplier:2
SliderTickRate:1

[Events]
//Background and Video events
0,0,"gwen.jpg",0,0
Video,-30,"holla.mp4"
//Break Periods
//Storyboard Layer 0 (Background)
//Storyboard Layer 1 (Fail)
//Storyboard Layer 2 (Pass)
//Storyboard Layer 3 (Foreground)
//Storyboard Layer 4 (Overlay)
//Storyboard Sound Samples

[TimingPoints]
154,545.454545454546,4,2,1,70,1,0
52380,-100,4,2,1,5,0,0
52517,-100,4,2,1,70,0,0
56881,-80,4,2,1,70,0,0
57426,-100,4,2,1,70,0,0
65608,-80,4,2,1,70,0,0
66154,-100,4,2,1,70,0,0
109244,-80,4,2,1,70,0,0
109790,-100,4,2,1,70,0,0
117972,-80,4,2,1,70,0,0
118517,-100,4,2,1,70,0,0
144426,-66.6666666666667,4,2,1,70,0,0
153154,-66.6666666666667,4,2,1,70,0,0
162154,-100,4,2,1,70,0,0
170335,-66.6666666666667,4,2,1,70,0,0
170881,-100,4,2,1,70,0,0
195972,-66.6666666666667,4,2,1,70,0,0
196381,-66.6666666666667,4,2,1,5,0,0
196517,-100,4,2,1,70,0,0
196585,-100,4,2,1,5,0,0

[Colours]
Combo1 : 128,64,0
Combo2 : 217,199,166
Combo3 : 92,151,180
Combo4 : 255,255,0

[HitObjects]
189,119,154,5,0,1:0:0:0:
189,119,699,1,0,1:0:0:0:
189,119,1244,1,0,1:0:0:0:
189,119,1789,1,0,1:0:0:0:
189,119,2335,5,0,1:0:0:0:
189,119,2880,1,0,1:0:0:0:
189,119,3426,1,0,1:0:0:0:
189,119,3971,1,0,1:0:0:0:
433,15,4517,38,0,P|418:72|391:230,1,200,2|8,1:0|1:0,0:0:0:0:
393,210,5335,1,0,1:0:0:0:
158,364,5881,1,0,1:0:0:0:
62,291,6154,1,8,1:0:0:0:
79,15,6699,6,0,P|94:72|121:230,1,200,0|8,1:0|1:0,0:0:0:0:
118,210,7381,1,0,1:0:0:0:
118,210,7517,1,0,1:0:0:0:
212,135,7790,1,0,0:0:0:0:
313,198,8063,1,0,1:0:0:0:
313,198,8335,1,8,1:0:0:0:
431,166,8608,1,0,0:0:0:0:
431,166,8744,1,0,0:0:0:0:
472,210,8881,38,0,P|458:261|455:331,2,100,2|0|8,1:0|1:0|1:0,0:0:0:0:
388,378,9699,1,0,1:0:0:0:
388,378,9835,2,0,P|351:333|238:341,1,150,6|0,0:0|1:0,0:0:0:0:
263,325,10517,1,8,1:0:0:0:
472,210,10926,1,0,0:0:0:0:
472,210,11063,6,0,P|458:261|455:331,2,100,2|0|8,1:0|1:0|1:0,0:0:0:0:
388,378,11881,1,0,1:0:0:0:
388,378,12017,2,0,P|351:333|238:341,1,150,6|0,0:0|1:0,0:0:0:0:
187,383,12699,1,8,1:0:0:0:
112,205,13244,38,0,P|50:192|52:72,1,200,2|8,1:0|1:0,0:0:0:0:
48,75,13926,1,0,0:0:0:0:
48,75,14063,1,0,1:0:0:0:
154,19,14335,1,0,0:0:0:0:
244,105,14608,1,0,1:0:0:0:
244,105,14881,1,8,1:0:0:0:
350,49,15154,1,0,0:0:0:0:
350,49,15290,1,0,0:0:0:0:
405,27,15426,6,0,P|472:37|478:151,1,200,0|8,1:0|1:0,0:0:0:0:
478,150,16108,1,0,1:0:0:0:
478,150,16244,1,0,1:0:0:0:
371,216,16517,1,0,0:0:0:0:
447,308,16790,1,0,1:0:0:0:
447,308,17063,1,8,1:0:0:0:
340,362,17335,1,0,0:0:0:0:
340,362,17472,1,0,0:0:0:0:
283,341,17608,38,0,P|225:348|167:363,2,100,2|0|8,1:0|1:0|1:0,2:0:0:0:
230,239,18426,1,0,1:0:0:0:
173,261,18563,2,0,P|116:268|38:207,1,150,6|0,0:0|1:0,2:0:0:0:
43,217,19244,1,8,1:0:0:0:
283,341,19654,1,0,0:0:0:0:
283,341,19790,6,0,P|225:348|167:363,2,100,2|0|8,1:0|1:0|1:0,2:0:0:0:
230,239,20608,1,0,1:0:0:0:
173,261,20745,2,0,P|116:268|38:207,1,150,6|0,0:0|1:0,2:0:0:0:
43,217,21426,1,8,1:0:0:0:
142,93,21699,1,2,0:0:0:0:
262,68,21972,37,0,1:0:0:0:
262,68,22244,1,2,0:0:0:0:
371,117,22517,1,8,0:0:0:0:
371,117,22790,1,0,1:0:0:0:
480,68,23063,1,2,0:0:0:0:
480,68,23335,1,0,1:0:0:0:
439,181,23608,6,0,L|429:242,1,50,8|0,0:0|0:0,0:0:0:0:
416,310,23881,1,2,0:0:0:0:
251,345,24154,2,0,L|235:247,1,100,2|0,1:0|0:0,0:0:0:0:
358,160,24699,2,0,L|348:221,1,50,8|0,0:0|1:0,0:0:0:0:
335,289,24972,1,2,1:2:0:0:
167,331,25244,2,0,L|150:232,2,100,2|0|8,1:0|0:0|0:0,0:0:0:0:
250,68,26335,37,0,1:0:0:0:
250,68,26607,1,2,1:2:0:0:
141,117,26880,1,8,0:0:0:0:
141,117,27153,1,0,1:0:0:0:
32,68,27426,1,2,0:0:0:0:
32,68,27698,1,0,1:0:0:0:
73,181,27971,6,0,L|83:242,1,50,8|0,0:0|0:0,0:0:0:0:
96,310,28244,1,2,0:0:0:0:
261,345,28517,2,0,L|277:247,1,100,2|0,1:0|0:0,0:0:0:0:
154,160,29062,2,0,L|164:221,1,50,8|0,0:0|0:0,0:0:0:0:
177,289,29335,1,2,1:2:0:0:
345,331,29607,2,0,L|362:232,2,100,2|0|8,0:1|1:0|0:0,0:0:0:0:
165,326,30699,37,0,1:0:0:0:
165,326,30972,1,2,0:0:0:0:
52,352,31244,1,8,0:0:0:0:
52,352,31517,1,0,1:0:0:0:
26,239,31790,1,2,0:0:0:0:
26,239,32063,1,0,1:0:0:0:
131,147,32335,6,0,P|163:154|190:148,1,50,8|0,0:0|0:0,0:0:0:0:
255,116,32608,1,2,0:0:0:0:
353,14,32881,2,0,P|300:2|244:21,1,100,2|0,1:0|0:0,0:0:0:0:
252,199,33426,2,0,P|284:206|311:200,1,50,8|0,0:0|1:0,0:0:0:0:
376,168,33699,1,2,1:2:0:0:
506,84,33972,2,0,P|453:72|397:91,2,100,2|0|8,1:0|0:0|0:0,0:0:0:0:
491,242,35063,37,0,1:0:0:0:
491,242,35336,1,2,1:2:0:0:
465,355,35609,1,8,0:0:0:0:
465,355,35882,1,0,1:0:0:0:
352,329,36154,1,2,0:0:0:0:
352,329,36427,1,0,1:0:0:0:
375,215,36699,6,0,P|343:208|316:214,1,50,8|0,0:0|0:0,0:0:0:0:
251,246,36972,1,2,0:0:0:0:
153,348,37245,2,0,P|206:360|262:341,1,100,2|0,1:0|0:0,0:0:0:0:
254,163,37790,2,0,P|222:156|195:162,1,50,8|0,0:0|0:0,0:0:0:0:
130,194,38063,1,2,0:2:0:0:
0,278,38336,2,0,P|53:290|109:271,2,100,2|0|8,0:1|1:0|0:0,0:0:0:0:
62,120,39290,1,2,0:0:0:0:
62,120,39426,38,0,L|47:20,1,100,2|0,1:0|0:0,0:0:0:0:
159,138,39972,2,0,L|144:38,1,100,8|0,0:0|1:0,0:0:0:0:
256,156,40517,1,2,0:0:0:0:
232,1,40790,1,0,1:0:0:0:
256,156,41063,1,0,0:0:0:0:
414,90,41335,5,2,0:0:0:0:
414,90,41472,1,2,0:0:0:0:
414,90,41608,2,0,L|512:71,1,100,0|0,1:0|0:0,0:0:0:0:
333,32,42153,37,8,0:0:0:0:
333,32,42290,1,0,1:0:0:0:
333,32,42426,1,0,1:0:0:0:
376,189,42699,2,0,L|474:170,1,100,2|2,0:0|1:0,0:0:0:0:
368,286,43244,1,8,0:0:0:0:
512,258,43517,1,0,0:0:0:0:
368,286,43790,6,0,L|270:267,1,100,0|0,1:0|1:0,0:0:0:0:
269,266,44199,1,0,0:0:0:0:
269,266,44335,1,8,0:0:0:0:
131,238,44608,1,0,1:0:0:0:
259,144,44881,1,0,0:0:0:0:
259,144,45017,1,0,0:0:0:0:
259,144,45154,2,0,L|244:35,2,100,0|8|2,1:0|0:0|0:0,0:0:0:0:
418,172,45972,38,0,L|403:63,1,100,2|0,1:0|0:0,0:0:0:0:
481,39,46381,2,0,L|494:138,1,100,2|0,0:0|0:0,0:0:0:0:
490,222,46790,1,0,1:0:0:0:
490,222,47063,2,0,L|503:321,2,100,2|0|8,0:0|1:0|0:0,0:0:0:0:
397,56,48154,6,0,L|404:5,2,50,2|0|0,1:0|0:0|0:0,0:0:0:0:
269,124,48699,1,8,0:0:0:0:
159,37,48972,1,0,1:0:0:0:
159,37,49108,1,0,0:0:0:0:
102,16,49244,2,0,P|51:24|-6:45,2,100,0|2|10,0:0|1:0|0:1,0:0:0:0:
269,124,50063,1,2,0:0:0:0:
269,124,50199,1,0,0:0:0:0:
326,106,50335,38,0,P|369:113|401:125,1,50,2|0,1:0|0:0,0:0:0:0:
379,203,50608,1,0,0:0:0:0:
379,203,50881,1,8,0:0:0:0:
190,206,51154,1,0,1:0:0:0:
190,206,51290,1,0,0:0:0:0:
133,185,51426,2,0,P|82:193|25:214,1,100,2|0,0:0|1:0,0:0:0:0:
164,323,51972,2,0,P|216:339|291:255,1,150,10|0,0:1|0:0,0:0:0:0:
305,201,52517,5,0,1:0:0:0:
305,201,52790,1,0,1:0:0:0:
305,201,53063,1,8,0:0:0:0:
408,128,53335,1,0,1:0:0:0:
408,128,53472,1,0,0:0:0:0:
408,128,53608,2,0,L|510:147,2,100,0|2|10,0:0|1:0|0:1,0:0:0:0:
321,29,54426,2,0,L|269:35,1,50,2|0,0:0|0:0,0:0:0:0:
208,90,54699,38,0,P|160:77|101:70,1,100,0|0,1:0|0:0,0:0:0:0:
107,154,55108,2,0,P|57:160|9:173,1,100,2|0,0:0|0:0,0:0:0:0:
9,256,55517,1,0,1:0:0:0:
9,256,55790,2,0,L|24:358,2,100,2|0|8,0:0|1:0|0:0,0:0:0:0:
295,150,56881,6,0,P|359:137|462:231,1,187.5,2|0,1:0|0:0,0:0:0:0:
449,262,57426,1,8,0:0:0:0:
449,262,57563,1,0,0:0:0:0:
449,262,57699,1,0,1:0:0:0:
360,343,57972,1,2,0:0:0:0:
267,267,58244,1,0,1:0:0:0:
267,267,58517,1,8,1:0:0:0:
180,349,58790,1,2,0:0:0:0:
180,349,58926,1,0,0:0:0:0:
127,318,59063,38,0,P|76:323|15:338,1,100,0|0,1:0|0:0,0:0:0:0:
39,214,59608,1,8,1:0:0:0:
39,214,59744,1,0,1:0:0:0:
39,214,59881,1,0,1:0:0:0:
143,154,60154,1,2,0:0:0:0:
118,36,60426,1,0,1:0:0:0:
143,154,60699,1,8,1:0:0:0:
280,69,60972,1,0,0:0:0:0:
280,69,61108,1,0,0:0:0:0:
331,38,61244,6,0,P|376:42|446:68,2,100,2|0|8,1:0|1:0|1:0,0:0:0:0:
366,153,62063,1,0,1:0:0:0:
366,153,62199,2,0,P|409:198|500:177,1,150,6|0,0:0|1:0,0:0:0:0:
490,186,62881,1,8,1:0:0:0:
331,38,63290,1,0,0:0:0:0:
331,38,63426,38,0,P|376:42|446:68,2,100,2|0|8,1:0|1:0|1:0,0:0:0:0:
366,153,64245,1,0,1:0:0:0:
366,153,64381,2,0,P|409:198|500:177,1,150,6|0,0:0|1:0,0:0:0:0:
490,186,65063,1,8,1:0:0:0:
302,362,65608,6,0,P|237:346|78:330,1,187.5,6|0,1:0|0:0,0:0:0:0:
67,302,66154,1,8,1:0:0:0:
48,245,66290,1,0,0:0:0:0:
69,189,66426,1,0,1:0:0:0:
162,113,66699,2,0,P|158:64|150:13,2,100,2|0|8,0:0|1:0|1:0,0:0:0:0:
263,177,67517,1,0,0:0:0:0:
263,177,67654,1,0,0:0:0:0:
313,145,67790,38,0,P|362:145|403:191,1,100,0|0,1:0|0:0,0:0:0:0:
400,297,68335,1,8,1:0:0:0:
400,297,68472,1,0,1:0:0:0:
400,297,68608,1,0,1:0:0:0:
294,354,68881,1,2,0:0:0:0:
176,330,69154,1,0,1:0:0:0:
294,354,69426,1,8,1:0:0:0:
237,219,69699,1,0,0:0:0:0:
237,219,69835,1,0,0:0:0:0:
203,169,69972,6,0,P|194:122|194:64,2,100,2|0|8,1:0|1:0|1:0,0:0:0:0:
306,108,70790,1,0,1:0:0:0:
306,108,70926,2,0,P|358:106|360:199,1,150,6|0,0:0|1:0,0:0:0:0:
373,187,71608,1,8,1:0:0:0:
203,169,72017,1,0,0:0:0:0:
203,169,72154,38,0,P|194:122|194:64,2,100,2|0|8,1:0|1:0|1:0,0:0:0:0:
306,108,72972,1,0,1:0:0:0:
306,108,73108,2,0,P|358:106|360:199,1,150,6|0,0:0|1:0,0:0:0:0:
373,187,73790,1,8,1:0:0:0:
278,260,74063,1,2,0:0:0:0:
335,370,74335,5,0,1:0:0:0:
335,370,74607,1,2,0:0:0:0:
457,353,74880,1,8,0:0:0:0:
457,353,75153,1,0,1:0:0:0:
381,266,75426,1,2,0:0:0:0:
381,266,75698,1,0,1:0:0:0:
459,156,75971,38,0,L|449:95,1,50,8|0,0:0|0:0,0:0:0:0:
436,27,76244,1,2,0:0:0:0:
275,6,76517,2,0,L|259:104,1,100,2|0,1:0|0:0,0:0:0:0:
377,190,77062,2,0,L|367:129,1,50,8|0,0:0|1:0,0:0:0:0:
354,61,77335,1,2,1:2:0:0:
189,16,77607,2,0,L|172:115,2,100,2|0|8,1:0|0:0|0:0,0:0:0:0:
335,14,78699,5,0,1:0:0:0:
335,14,78971,1,0,1:2:0:0:
457,31,79244,1,8,0:0:0:0:
457,31,79517,1,0,1:0:0:0:
381,118,79790,1,2,0:0:0:0:
381,118,80062,1,0,1:0:0:0:
459,228,80335,38,0,L|449:289,1,50,8|0,0:0|0:0,0:0:0:0:
436,357,80608,1,2,0:0:0:0:
275,378,80881,2,0,L|259:280,1,100,2|0,1:0|0:0,0:0:0:0:
377,194,81426,2,0,L|367:255,1,50,8|0,0:0|0:0,0:0:0:0:
354,323,81699,1,2,1:2:0:0:
189,368,81971,2,0,L|172:269,2,100,2|0|8,0:1|1:0|0:0,0:0:0:0:
354,323,83062,5,0,1:0:0:0:
354,323,83335,1,2,0:0:0:0:
378,208,83607,1,8,0:0:0:0:
378,208,83880,1,0,1:0:0:0:
402,93,84153,1,2,0:0:0:0:
402,93,84426,1,0,1:0:0:0:
279,26,84698,38,0,P|247:19|220:25,1,50,8|0,0:0|0:0,0:0:0:0:
154,62,84971,1,2,0:0:0:0:
246,234,85244,2,0,P|258:186|246:138,1,100,2|0,1:0|0:0,0:0:0:0:
154,62,85789,2,0,P|122:55|95:61,1,50,8|0,0:0|1:0,0:0:0:0:
30,93,86062,1,2,1:2:0:0:
110,252,86335,2,0,P|121:203|109:155,2,100,2|0|8,1:0|0:0|0:0,0:0:0:0:
134,367,87426,5,0,1:0:0:0:
134,367,87699,1,0,1:2:0:0:
110,252,87971,1,8,0:0:0:0:
110,252,88244,1,0,1:0:0:0:
86,137,88517,1,2,0:0:0:0:
86,137,88790,1,0,1:0:0:0:
209,70,89063,38,0,P|241:63|268:69,1,50,8|0,0:0|0:0,0:0:0:0:
334,106,89335,1,2,0:0:0:0:
247,288,89608,2,0,P|235:239|247:191,1,100,2|0,1:0|0:0,0:0:0:0:
334,106,90153,2,0,P|366:99|393:105,1,50,8|0,0:0|0:0,0:0:0:0:
458,137,90426,1,2,1:2:0:0:
378,296,90699,2,0,P|366:247|378:199,2,100,2|0|8,0:1|1:0|0:0,0:0:0:0:
210,362,91654,1,2,0:0:0:0:
210,362,91790,6,0,P|156:347|109:344,2,100,2|0|8,1:0|0:0|0:0,0:0:0:0:
150,232,92608,1,0,1:0:0:0:
150,232,92744,1,2,0:0:0:0:
150,232,92881,38,0,P|96:247|49:250,2,100,2|0|0,0:0|1:0|0:0,0:0:0:0:
253,141,93699,1,2,0:0:0:0:
253,141,93835,1,2,0:0:0:0:
253,141,93972,6,0,L|269:39,1,100,0|0,1:0|0:0,0:0:0:0:
352,22,94381,2,0,L|336:120,1,100,0|0,0:0|1:0,0:0:0:0:
400,181,94790,1,0,1:0:0:0:
400,181,95063,38,0,P|453:164|502:159,1,100,2|2,0:0|1:0,0:0:0:0:
477,296,95608,1,8,0:0:0:0:
477,296,95881,1,0,0:0:0:0:
243,363,96426,6,0,L|230:305,1,50,0|0,1:0|0:0,0:0:0:0:
157,364,96699,2,0,P|95:351|47:346,1,100,8|0,0:0|1:0,0:0:0:0:
31,298,97108,1,0,0:0:0:0:
31,298,97244,2,0,P|80:291|129:280,2,100,0|0|8,0:0|1:0|0:0,0:0:0:0:
110,121,98335,38,0,L|129:19,1,100,2|0,1:0|0:0,0:0:0:0:
211,10,98744,2,0,L|192:108,1,100,2|0,0:0|0:0,0:0:0:0:
252,172,99154,1,0,1:0:0:0:
252,172,99426,2,0,P|264:231|267:278,2,100,2|0|8,0:0|1:0|0:0,0:0:0:0:
149,235,100244,1,0,0:0:0:0:
149,235,100517,6,0,L|39:214,1,100,2|2,1:0|0:0,0:0:0:0:
0,369,101063,1,8,0:0:0:0:
146,362,101335,1,0,1:0:0:0:
146,362,101472,1,0,0:0:0:0:
146,362,101608,2,0,P|194:352|219:354,2,50,2|0|2,0:0|0:0|1:0,0:0:0:0:
272,279,102154,2,0,P|319:291|385:298,1,100,10|2,0:1|0:0,0:0:0:0:
423,267,102563,1,0,0:0:0:0:
423,267,102699,38,0,L|408:158,2,100,2|0|8,1:0|0:0|0:0,0:0:0:0:
296,187,103517,1,0,1:0:0:0:
296,187,103654,1,0,0:0:0:0:
296,187,103790,6,0,L|310:78,1,100,2|0,0:0|1:0,0:0:0:0:
221,5,104335,1,10,0:1:0:0:
221,5,104608,1,0,0:0:0:0:
92,61,104881,37,2,1:0:0:0:
190,169,105154,1,0,1:0:0:0:
53,210,105426,2,0,P|47:270|52:331,1,100,10|0,0:1|1:0,0:0:0:0:
87,356,105835,1,0,0:0:0:0:
87,356,105972,1,2,0:1:0:0:
189,271,106244,1,0,1:0:0:0:
261,374,106517,1,8,0:1:0:0:
436,205,107063,6,0,P|469:195|492:195,2,50,2|0|2,1:0|0:0|1:0,0:0:0:0:
306,171,107608,1,10,0:1:0:0:
398,80,107881,1,0,1:0:0:0:
398,80,108017,2,0,P|350:36|256:58,1,150,2|0,0:0|1:0,0:0:0:0:
270,45,108699,1,8,0:0:0:0:
127,187,109244,38,0,B|220:166|205:239|305:223,1,187.5,6|0,1:0|0:0,0:0:0:0:
355,203,109790,1,8,0:0:0:0:
355,203,109926,1,0,0:0:0:0:
355,203,110063,1,0,1:0:0:0:
455,137,110335,2,0,P|464:76|474:30,2,100,2|0|8,0:0|1:0|1:0,0:0:0:0:
356,67,111154,1,2,0:0:0:0:
356,67,111290,1,0,0:0:0:0:
356,67,111426,6,0,P|293:64|243:71,1,100,0|2,1:0|0:0,0:0:0:0:
189,113,111835,2,0,P|126:116|76:109,1,100,0|0,0:0|1:0,0:0:0:0:
35,53,112244,1,0,1:0:0:0:
5,169,112517,1,2,0:0:0:0:
5,169,112790,2,0,L|20:277,1,100,0|8,1:0|1:0,0:0:0:0:
103,352,113335,1,0,0:0:0:0:
103,352,113472,1,0,0:0:0:0:
158,373,113608,38,0,P|209:369|275:348,2,100,2|0|8,1:0|1:0|1:0,0:0:0:0:
203,261,114426,1,0,1:0:0:0:
203,261,114563,2,0,P|211:208|128:206,1,150,6|0,0:0|1:0,0:0:0:0:
133,198,115244,1,8,1:0:0:0:
158,373,115654,1,0,0:0:0:0:
158,373,115790,6,0,P|209:369|275:348,2,100,2|0|8,1:0|1:0|1:0,0:0:0:0:
203,261,116608,1,0,1:0:0:0:
203,261,116745,2,0,P|211:208|128:206,1,150,6|0,0:0|1:0,0:0:0:0:
133,198,117426,1,8,1:0:0:0:
376,147,117972,38,0,P|417:139|427:248,1,187.5,6|0,1:0|0:0,0:0:0:0:
380,276,118517,1,8,1:0:0:0:
323,254,118654,1,0,0:0:0:0:
268,278,118790,1,0,1:0:0:0:
170,208,119063,1,0,0:0:0:0:
170,208,119335,2,0,P|163:153|153:103,1,100,0|8,1:0|1:0,0:0:0:0:
247,33,119881,1,0,0:0:0:0:
247,33,120017,1,0,0:0:0:0:
247,33,120154,6,0,L|350:50,1,100,0|0,1:0|0:0,0:0:0:0:
368,128,120563,2,0,L|466:144,1,100,0|0,0:0|1:0,0:0:0:0:
496,222,120972,1,0,1:0:0:0:
425,319,121244,1,2,0:0:0:0:
425,319,121517,1,0,1:0:0:0:
322,255,121790,1,8,1:0:0:0:
244,346,122063,1,0,0:0:0:0:
244,346,122199,1,0,0:0:0:0:
195,310,122335,38,0,P|134:289|74:286,2,100,2|0|8,1:0|1:0|1:0,0:0:0:0:
207,194,123154,1,0,1:0:0:0:
207,194,123290,2,0,P|261:189|323:267,1,150,6|0,0:0|1:0,0:0:0:0:
321,254,123972,1,8,1:0:0:0:
195,310,124381,1,0,0:0:0:0:
195,310,124517,6,0,P|134:289|74:286,2,100,2|0|8,1:0|1:0|1:0,0:0:0:0:
207,194,125336,1,0,1:0:0:0:
207,194,125472,2,0,P|261:189|323:267,1,150,6|0,0:0|1:0,0:0:0:0:
321,254,126154,1,8,1:0:0:0:
423,315,126426,1,2,0:0:0:0:
491,217,126698,37,0,1:0:0:0:
491,217,126972,1,2,0:0:0:0:
394,154,127243,1,8,0:0:0:0:
394,154,127517,1,0,1:0:0:0:
499,94,127790,1,2,0:0:0:0:
499,94,128063,1,0,1:0:0:0:
396,30,128334,6,0,L|335:40,1,50,8|0,0:0|0:0,0:0:0:0:
262,54,128607,1,2,0:0:0:0:
122,123,128880,2,0,P|174:131|235:148,1,100,2|0,1:0|0:0,0:0:0:0:
400,214,129426,2,0,L|339:224,1,50,8|0,0:0|1:2,0:0:0:0:
266,238,129699,1,2,1:2:0:0:
126,307,129972,2,0,P|178:315|239:332,2,100,2|0|8,1:0|0:0|0:0,0:0:0:0:
21,217,131063,37,0,1:0:0:0:
21,217,131335,1,0,1:2:0:0:
118,154,131608,1,8,0:0:0:0:
118,154,131881,1,0,1:0:0:0:
13,94,132154,1,2,0:0:0:0:
13,94,132426,1,0,1:0:0:0:
116,30,132699,6,0,L|177:40,1,50,8|0,0:0|0:0,0:0:0:0:
250,54,132972,1,2,0:0:0:0:
390,123,133245,2,0,P|338:131|277:148,1,100,2|0,1:0|0:0,0:0:0:0:
112,214,133791,2,0,L|173:224,1,50,8|0,0:0|0:2,0:0:0:0:
246,238,134064,1,2,1:2:0:0:
386,307,134335,2,0,P|334:315|271:334,2,100,2|0|8,0:1|1:0|0:0,0:0:0:0:
487,170,135426,37,0,1:0:0:0:
487,170,135699,1,2,0:0:0:0:
372,146,135972,1,8,0:0:0:0:
372,146,136244,1,0,1:0:0:0:
257,122,136517,1,2,0:0:0:0:
257,122,136790,1,0,1:0:0:0:
155,186,137063,6,0,P|148:218|154:245,1,50,8|0,0:0|0:0,0:0:0:0:
183,312,137334,1,2,0:0:0:0:
358,234,137607,2,0,P|309:221|261:233,1,100,2|0,1:0|0:0,0:0:0:0:
155,186,138154,2,0,P|148:162|150:137,1,50,8|0,0:0|1:2,0:0:0:0:
183,61,138425,1,2,1:2:0:0:
364,99,138698,2,0,P|315:111|267:99,2,100,2|0|8,1:0|0:0|0:0,0:0:0:0:
487,214,139790,37,0,1:0:0:0:
487,214,140062,1,2,0:0:0:0:
372,238,140334,1,8,0:0:0:0:
372,238,140607,1,0,1:0:0:0:
257,262,140880,1,2,0:0:0:0:
257,262,141153,1,0,1:0:0:0:
155,198,141427,6,0,P|148:166|154:139,1,50,8|0,0:0|0:0,0:0:0:0:
183,72,141698,1,2,0:0:0:0:
347,154,141971,2,0,P|298:166|250:154,1,100,2|0,1:0|0:0,0:0:0:0:
298,44,142517,37,10,0:1:0:0:
415,20,142790,1,2,1:0:0:0:
500,104,143063,1,2,0:0:0:0:
485,222,143335,1,2,1:0:0:0:
384,288,143608,2,0,P|322:270|272:265,1,100,10|2,0:1|0:0,0:0:0:0:
139,356,144154,5,6,1:0:0:0:
139,356,144699,37,10,0:0:0:0:
11,303,144972,1,2,1:0:0:0:
64,175,145244,1,2,0:0:0:0:
192,228,145517,1,2,1:0:0:0:
363,181,146063,5,2,0:0:0:0:
363,181,146608,37,2,0:0:0:0:
491,128,146881,1,10,0:0:0:0:
491,128,147017,1,0,1:0:0:0:
491,128,147154,1,2,1:0:0:0:
438,0,147426,1,2,0:0:0:0:
310,53,147699,1,2,1:0:0:0:
363,181,147972,1,10,0:0:0:0:
310,53,148517,5,6,1:0:0:0:
310,53,148790,1,0,1:0:0:0:
216,132,149063,2,0,P|178:126|138:122,1,75.0000028610231,8|0,0:0|0:0,0:0:0:0:
74,171,149335,2,0,P|68:209|64:249,1,75.0000028610231,2|0,1:0|0:0,0:0:0:0:
113,313,149608,2,0,P|151:319|191:323,1,75.0000028610231,2|0,0:0|0:0,0:0:0:0:
255,274,149881,1,2,1:0:0:0:
255,274,150154,1,8,0:0:0:0:
376,372,150426,38,0,P|441:369|443:279,1,150.000005722046,2|0,0:0|1:0,0:0:0:0:
343,166,150972,2,0,P|337:124|332:83,1,75.0000028610231,2|0,0:0|0:0,0:0:0:0:
260,47,151244,2,0,P|218:53|177:58,1,75.0000028610231,10|0,0:0|0:0,0:0:0:0:
141,130,151517,2,0,P|147:172|152:213,1,75.0000028610231,2|0,1:0|0:0,0:0:0:0:
224,249,151790,2,0,P|266:243|307:238,1,75.0000028610231,2|0,0:0|0:0,0:0:0:0:
343,166,152063,2,0,P|380:170|417:176,1,75.0000028610231,2|0,1:0|0:0,0:0:0:0:
477,239,152335,1,8,0:0:0:0:
477,239,152608,1,2,0:0:0:0:
340,362,152881,5,6,1:0:0:0:
340,362,153426,37,10,0:0:0:0:
229,272,153699,1,2,1:0:0:0:
125,360,153972,1,2,0:0:0:0:
14,270,154245,1,2,1:0:0:0:
122,114,154790,5,2,0:0:0:0:
122,114,155335,37,2,0:0:0:0:
233,24,155608,1,10,0:0:0:0:
233,24,155744,1,0,1:0:0:0:
233,24,155881,1,2,1:0:0:0:
337,112,156154,1,2,0:0:0:0:
448,22,156427,1,2,1:0:0:0:
448,22,156699,1,10,0:0:0:0:
399,237,157244,5,6,1:0:0:0:
399,237,157517,1,0,1:0:0:0:
290,331,157790,2,0,P|241:337|217:317,1,75.0000028610231,8|0,0:0|0:0,0:0:0:0:
142,347,158063,2,0,P|136:298|156:274,1,75.0000028610231,2|0,1:0|0:0,0:0:0:0:
126,199,158335,2,0,P|175:193|199:213,1,75.0000028610231,2|0,0:0|0:0,0:0:0:0:
266,251,158608,1,2,1:0:0:0:
266,251,158881,1,8,0:0:0:0:
433,133,159154,38,0,P|437:63|370:30,1,150.000005722046,2|0,0:0|1:0,0:0:0:0:
231,93,159699,2,0,P|186:81|150:75,1,75.0000028610231,2|0,0:0|0:0,0:0:0:0:
105,7,159972,2,0,P|60:19|24:25,1,75.0000028610231,10|0,0:0|0:0,0:0:0:0:
5,103,160244,2,0,P|17:148|23:184,1,75.0000028610231,2|0,1:0|0:0,0:0:0:0:
92,225,160517,1,2,0:0:0:0:
220,184,160790,1,2,1:0:0:0:
220,184,161063,1,10,0:0:0:0:
395,339,161608,6,0,P|462:353|448:228,1,225.000008583069,6|0,1:0|0:0,0:0:0:0:
414,230,162154,1,8,0:0:0:0:
414,230,162290,1,0,0:0:0:0:
414,230,162426,1,0,1:0:0:0:
465,121,162699,2,0,P|474:60|484:14,2,100,2|0|8,0:0|1:0|1:0,0:0:0:0:
356,67,163518,1,2,0:0:0:0:
356,67,163654,1,0,0:0:0:0:
356,67,163790,38,0,L|247:83,1,100,0|2,1:0|0:0,0:0:0:0:
215,156,164199,2,0,L|105:145,1,100,0|0,0:0|1:0,0:0:0:0:
56,210,164608,1,0,1:0:0:0:
88,325,164881,2,0,P|127:352|182:355,2,100,2|0|8,0:0|1:0|1:0,0:0:0:0:
171,238,165699,1,0,0:0:0:0:
171,238,165836,1,0,0:0:0:0:
226,259,165972,6,0,P|277:255|343:234,2,100,2|0|8,1:0|1:0|1:0,0:0:0:0:
259,152,166790,1,0,1:0:0:0:
259,152,166927,2,0,P|251:99|334:97,1,150,6|0,0:0|1:0,0:0:0:0:
328,89,167608,1,8,1:0:0:0:
226,259,168017,1,0,0:0:0:0:
226,259,168154,38,0,P|277:255|343:234,2,100,2|0|8,1:0|1:0|1:0,0:0:0:0:
259,152,168972,1,0,1:0:0:0:
259,152,169109,2,0,P|251:99|334:97,1,150,6|0,0:0|1:0,0:0:0:0:
328,89,169790,1,8,1:0:0:0:
481,280,170335,6,0,B|366:264|397:350|236:330,1,225.000008583069,6|0,1:0|0:0,0:0:0:0:
209,319,170881,1,8,1:0:0:0:
178,267,171018,1,0,0:0:0:0:
196,210,171154,1,0,1:0:0:0:
299,149,171427,1,0,0:0:0:0:
299,149,171699,1,0,1:0:0:0:
223,55,171972,1,8,1:0:0:0:
127,123,172245,1,0,0:0:0:0:
127,123,172381,1,0,0:0:0:0:
127,123,172518,38,0,L|24:106,1,100,0|0,1:0|0:0,0:0:0:0:
0,185,172927,2,0,L|98:201,1,100,0|0,0:0|1:0,0:0:0:0:
179,188,173336,1,0,1:0:0:0:
258,284,173608,1,2,0:0:0:0:
258,284,173881,1,0,1:0:0:0:
361,223,174154,1,8,1:0:0:0:
443,317,174427,1,0,0:0:0:0:
443,317,174563,1,0,0:0:0:0:
479,268,174699,6,0,P|500:207|503:147,2,100,2|0|8,1:0|1:0|1:0,0:0:0:0:
361,223,175518,1,0,1:0:0:0:
361,223,175654,2,0,P|356:169|434:107,1,150,6|0,0:0|1:0,0:0:0:0:
421,108,176336,1,8,1:0:0:0:
479,268,176744,1,0,0:0:0:0:
479,268,176881,38,0,P|500:207|503:147,2,100,2|0|8,1:0|1:0|1:0,0:0:0:0:
361,223,177700,1,0,1:0:0:0:
361,223,177836,2,0,P|356:169|434:107,1,150,6|2,0:0|0:0,0:0:0:0:
257,16,178790,1,2,0:0:0:0:
146,54,179062,5,0,1:0:0:0:
146,54,179334,1,2,0:0:0:0:
194,169,179607,1,8,0:0:0:0:
194,169,179880,1,0,1:0:0:0:
84,211,180153,1,2,0:0:0:0:
84,211,180425,1,0,1:0:0:0:
122,324,180698,38,0,L|183:334,1,50,8|0,0:0|0:0,0:0:0:0:
256,348,180971,1,2,0:0:0:0:
373,372,181244,2,0,P|365:320|348:259,1,100,2|0,1:0|0:0,0:0:0:0:
414,147,181790,2,0,L|353:157,1,50,8|0,0:0|1:0,0:0:0:0:
280,171,182063,1,2,1:2:0:0:
163,195,182336,2,0,P|171:143|188:82,2,100,2|0|8,1:0|0:0|0:0,0:0:0:0:
366,54,183426,5,0,1:0:0:0:
366,54,183698,1,2,1:2:0:0:
318,169,183971,1,8,0:0:0:0:
318,169,184244,1,0,1:0:0:0:
428,211,184517,1,2,0:0:0:0:
428,211,184789,1,0,1:0:0:0:
390,324,185062,38,0,L|329:334,1,50,8|0,0:0|0:0,0:0:0:0:
256,348,185335,1,2,0:0:0:0:
139,372,185608,2,0,P|147:320|164:259,1,100,2|0,1:0|0:0,0:0:0:0:
98,147,186154,2,0,L|159:157,1,50,8|0,0:0|0:0,0:0:0:0:
232,171,186427,1,2,1:2:0:0:
349,195,186700,2,0,P|341:143|324:82,2,100,2|0|8,0:1|1:0|0:0,0:0:0:0:
479,326,187790,5,0,1:0:0:0:
479,326,188062,1,2,0:0:0:0:
364,350,188334,1,8,0:0:0:0:
364,350,188607,1,0,1:0:0:0:
249,374,188880,1,2,0:0:0:0:
249,374,189153,1,0,1:0:0:0:
145,312,189427,38,0,P|138:280|144:253,1,50,8|0,0:0|0:0,0:0:0:0:
173,186,189698,1,2,0:0:0:0:
348,234,189971,2,0,P|300:258|242:274,1,100,2|0,1:0|0:0,0:0:0:0:
173,186,190518,2,0,P|166:162|168:137,1,50,8|0,0:0|1:2,0:0:0:0:
201,61,190789,1,2,1:2:0:0:
373,101,191063,2,0,P|325:125|267:141,2,100,2|0|8,0:1|1:0|0:0,0:0:0:0:
33,58,192154,5,0,1:0:0:0:
33,58,192426,1,2,1:2:0:0:
148,34,192698,1,8,0:0:0:0:
148,34,192971,1,0,1:0:0:0:
263,10,193244,1,2,0:0:0:0:
263,10,193517,1,0,1:0:0:0:
367,72,193791,38,0,P|374:104|368:131,1,50,8|0,0:0|0:0,0:0:0:0:
339,198,194062,1,2,0:0:0:0:
164,150,194335,2,0,P|212:126|270:110,1,100,2|0,1:0|0:0,0:0:0:0:
339,198,194882,2,0,P|346:222|344:247,1,50,8|0,0:0|0:2,0:0:0:0:
311,323,195153,1,2,1:2:0:0:
139,283,195427,2,0,P|187:259|245:243,1,100,2|0,0:1|1:0,0:0:0:0:
339,198,195972,22,0,B|327:273|411:277|411:277|362:252|356:189,1,225.000008583069,2|0,0:0|0:0,0:0:0:0:
353,115,196517,5,2,0:0:0:0:
