osu file format v14

[General]
AudioFilename: audio.mp3
AudioLeadIn: 0
PreviewTime: -1
Countdown: 1
SampleSet: None
StackLeniency: 0.7
Mode: 0
LetterboxInBreaks: 0
WidescreenStoryboard: 1

[Editor]
DistanceSpacing: 1.7
BeatDivisor: 4
GridSize: 4
TimelineZoom: 1

[Metadata]
Title:Cosas Imposibles
TitleUnicode:Cosas Imposibles
Artist:Gustavo Cerati
ArtistUnicode:Gustavo Cerati
Creator:IMkoley
Version:Jar
Source:
Tags:
BeatmapID:1345596
BeatmapSetID:634110

[Difficulty]
HPDrainRate:6.6
CircleSize:3.6
OverallDifficulty:6.6
ApproachRate:8.6
SliderMultiplier:1.4
SliderTickRate:1

[Events]
//Background and Video events
0,0,"2280cf385bf0.png",0,0
//Break Periods
2,63301,64192
2,120801,122101
2,168551,170101
2,203051,204101
//Storyboard Layer 0 (Background)
//Storyboard Layer 1 (Fail)
//Storyboard Layer 2 (Pass)
//Storyboard Layer 3 (Foreground)
//Storyboard Sound Samples

[TimingPoints]
8601.90490218233,500,4,3,0,63,1,0

[HitObjects]
204,128,24351,5,0,0:0:0:0:
76,36,25351,1,0,0:0:0:0:
352,220,26351,1,0,0:0:0:0:
232,360,27351,1,0,0:0:0:0:
40,232,28351,1,0,0:0:0:0:
160,96,29351,6,0,B|276:110|276:110|272:142|272:142|312:116|404:184,1,280
156,208,30851,1,0,0:0:0:0:
288,380,31351,2,0,B|336:332|368:328|368:328|384:336|380:352|413:341|440:364|428:272,1,210
392,172,32351,1,0,0:0:0:0:
284,152,32601,1,0,0:0:0:0:
212,248,32851,2,0,L|284:224,1,70
384,120,33351,2,0,L|268:144,1,105
248,156,33851,5,0,0:0:0:0:
128,212,34101,1,0,0:0:0:0:
92,100,34351,1,0,0:0:0:0:
200,36,34601,1,0,0:0:0:0:
304,96,34851,2,0,L|384:124,1,70
460,196,35351,2,0,B|416:252|400:196|400:196|385:178|356:176|340:200|340:200|316:224|288:232|256:204|256:204|232:204|208:212,1,280
92,260,36601,1,0,0:0:0:0:
204,352,36851,5,0,0:0:0:0:
296,276,37101,1,0,0:0:0:0:
412,296,37351,2,0,B|344:216|344:216|360:200|344:184|344:184|256:180|236:252|236:252|108:148,1,420
368,160,39351,2,0,B|404:192|388:292|440:152,3,140
460,52,41101,1,0,0:0:0:0:
296,84,41351,6,0,L|229:106,1,70
256,160,41726,1,0,0:0:0:0:
288,212,41851,2,0,L|200:236,1,70
104,264,42351,2,0,B|101:300|194:359|194:359|265:348|325:300,1,280
408,216,43601,2,0,L|352:164,1,70
328,116,43976,1,0,0:0:0:0:
292,80,44101,6,0,L|267:168,1,70
200,272,44601,1,0,0:0:0:0:
84,128,44851,1,0,0:0:0:0:
216,84,45351,2,0,L|240:152,1,70
256,200,45726,1,0,0:0:0:0:
272,264,45851,2,0,L|172:272,1,70
24,192,46351,6,0,L|68:140,2,35
80,52,46851,1,0,0:0:0:0:
184,32,47101,1,0,0:0:0:0:
288,64,47351,1,0,0:0:0:0:
364,148,47601,2,0,B|425:195|425:195|396:276,1,140
280,320,48351,5,0,0:0:0:0:
176,268,48601,1,0,0:0:0:0:
100,176,48851,1,0,0:0:0:0:
100,72,49101,1,0,0:0:0:0:
216,84,49351,2,0,L|288:92,1,70
340,116,49726,1,0,0:0:0:0:
392,144,49851,2,0,L|356:220,1,70
192,288,50351,2,0,L|288:300,1,70
368,240,50851,1,0,0:0:0:0:
268,296,51101,5,0,0:0:0:0:
160,172,51351,1,0,0:0:0:0:
312,104,51601,1,0,0:0:0:0:
312,104,51726,1,0,0:0:0:0:
312,104,51851,1,0,0:0:0:0:
132,160,52101,1,0,0:0:0:0:
112,276,52351,1,0,0:0:0:0:
244,284,52601,1,0,0:0:0:0:
433,272,52851,6,0,L|364:276,1,70
260,220,53351,1,0,0:0:0:0:
148,264,53601,1,0,0:0:0:0:
160,236,53726,2,0,B|164:204|220:208|220:208|280:192,1,105
356,148,54351,2,0,B|316:80|292:24|236:96|200:224,1,280
88,184,55601,5,0,0:0:0:0:
120,72,55851,1,0,0:0:0:0:
240,76,56101,1,0,0:0:0:0:
296,164,56351,2,0,L|388:132,2,70
224,208,57101,1,0,0:0:0:0:
160,269,57351,6,0,P|118:310|143:351,2,105
272,216,58351,1,0,0:0:0:0:
160,152,58601,1,0,0:0:0:0:
228,64,58851,2,0,P|299:69|360:108,1,140
400,196,59601,1,0,0:0:0:0:
388,232,59726,1,0,0:0:0:0:
368,256,59851,5,0,0:0:0:0:
240,312,60101,1,0,0:0:0:0:
56,320,60351,1,0,0:0:0:0:
124,204,60601,1,0,0:0:0:0:
32,72,60851,1,0,0:0:0:0:
184,80,61101,1,0,0:0:0:0:
100,184,61351,1,0,0:0:0:0:
276,272,61601,5,0,0:0:0:0:
312,280,61726,2,0,L|352:256,1,35
408,164,62101,2,0,L|324:124,1,70
228,104,62601,2,0,L|152:160,1,70
204,260,63101,1,0,0:0:0:0:
88,272,64851,5,0,0:0:0:0:
96,276,65101,2,0,B|184:304|172:260|160:204|160:204|192:144|192:144|128:160|220:112|292:112,1,350
396,128,66601,1,0,0:0:0:0:
292,188,66851,1,0,0:0:0:0:
356,276,67101,2,0,B|420:300|436:228|412:176,1,140
388,104,67851,6,0,P|308:108|244:156,1,140
152,164,68601,1,0,0:0:0:0:
240,232,68851,1,0,0:0:0:0:
132,284,69101,2,0,P|204:296|280:288,1,140
286,286,69726,1,0,0:0:0:0:
306,286,69851,1,0,0:0:0:0:
396,212,70101,1,0,0:0:0:0:
444,104,70351,2,0,L|284:124,1,140
56,292,71601,5,0,0:0:0:0:
120,200,71851,1,0,0:0:0:0:
208,272,72101,2,0,L|280:284,2,70
120,204,72851,1,0,0:0:0:0:
104,92,73101,2,0,B|187:38|187:38|241:46|241:46|252:62|252:62|281:56|281:56|368:112,1,280
396,200,74351,1,0,0:0:0:0:
180,264,74851,5,0,0:0:0:0:
148,156,75101,2,0,B|244:136|244:136|304:168|304:168|252:204|252:204|304:212|304:212|264:276,1,350
56,320,76851,1,0,0:0:0:0:
168,336,77101,2,0,B|192:277|192:277|256:236,1,140
288,216,77726,1,0,0:0:0:0:
328,192,77851,1,0,0:0:0:0:
268,80,78101,6,0,L|192:108,1,70
132,188,78601,1,0,0:0:0:0:
84,292,78851,2,0,B|136:296|136:296|158:321|158:321|220:328,1,140
324,332,79601,1,0,0:0:0:0:
432,308,79851,1,0,0:0:0:0:
396,200,80101,1,0,0:0:0:0:
288,228,80351,1,0,0:0:0:0:
228,136,80601,5,0,0:0:0:0:
332,96,80851,2,0,L|488:84,2,140
312,96,81976,1,0,0:0:0:0:
296,96,82101,1,0,0:0:0:0:
224,188,82351,2,0,L|136:172,1,70
72,56,82851,2,0,L|244:80,1,140
312,124,83601,5,0,0:0:0:0:
352,164,83726,1,0,0:0:0:0:
380,220,83851,2,0,L|316:292,1,70
220,304,84351,2,0,B|148:292|148:292|104:220,1,140
196,148,85101,1,0,0:0:0:0:
308,104,85351,6,0,B|354:157|354:157|316:212,1,105
320,200,85851,1,0,0:0:0:0:
304,216,85976,1,0,0:0:0:0:
292,232,86101,1,0,0:0:0:0:
308,348,86351,2,0,L|170:323,1,140
80,244,87101,2,0,L|148:227,1,70
252,168,87601,5,0,0:0:0:0:
132,160,87851,1,0,0:0:0:0:
148,280,88101,1,0,0:0:0:0:
40,348,88351,2,0,L|116:340,1,70
220,300,88851,1,0,0:0:0:0:
184,188,89101,1,0,0:0:0:0:
272,116,89351,6,0,L|344:140,1,70
364,188,89726,1,0,0:0:0:0:
368,244,89851,2,0,L|276:248,1,70
140,248,90351,1,0,0:0:0:0:
216,48,90851,5,0,0:0:0:0:
356,76,91101,1,0,0:0:0:0:
296,212,91351,2,0,L|380:200,2,70
272,216,91976,1,0,0:0:0:0:
252,220,92101,1,0,0:0:0:0:
132,220,92351,5,0,0:0:0:0:
108,104,92601,2,0,B|176:48|176:48|304:72|320:96,1,210
168,152,93601,2,0,B|101:205|101:205|104:288,1,140
280,260,94351,1,0,0:0:0:0:
200,260,94601,1,0,0:0:0:0:
360,260,94851,6,0,L|448:260,2,70
256,256,95601,2,0,B|232:248|232:248|263:213|263:213|226:189|226:189|268:148|268:148|224:124|224:124|276:88,1,280
336,104,96851,2,0,B|341:40|311:47|307:22|290:13|255:13|240:44|236:0|224:60|200:44|200:68|192:80,1,210
184,96,97726,1,0,0:0:0:0:
184,136,97851,1,0,0:0:0:0:
192,272,98101,6,0,B|212:296|244:296|244:296|284:284,1,70
324,196,98601,1,0,0:0:0:0:
416,120,98851,2,0,B|452:148|420:200,1,70
340,264,99351,1,0,0:0:0:0:
428,344,99601,2,0,P|400:368|344:372,1,70
252,344,100101,2,0,B|216:356|209:327|209:327|164:356|116:352|124:316|124:316|128:260,1,210
200,176,101101,2,0,B|184:144|184:144|240:124|276:124|276:124|304:140|304:140|304:156|304:156|315:154|315:154|328:176,1,210
440,184,102101,1,0,0:0:0:0:
360,264,102351,5,0,0:0:0:0:
412,348,102601,2,0,B|354:364|354:364|272:332,1,140
324,240,103351,1,0,0:0:0:0:
244,160,103601,1,0,0:0:0:0:
368,148,103851,2,0,L|298:150,1,70
204,76,104351,6,0,B|140:124|132:-4|12:84|4:104|48:164|124:188,1,280
212,212,105601,1,0,0:0:0:0:
212,212,105726,1,0,0:0:0:0:
212,212,105851,1,0,0:0:0:0:
308,280,106101,1,0,0:0:0:0:
188,272,106351,5,0,0:0:0:0:
96,196,106601,1,0,0:0:0:0:
192,124,106851,2,0,L|300:92,1,105
328,80,107351,1,0,0:0:0:0:
368,192,107601,2,0,L|424:196,2,35
252,224,108101,2,0,L|164:216,1,70
260,128,108601,1,0,0:0:0:0:
144,104,108851,5,0,0:0:0:0:
220,196,109101,1,0,0:0:0:0:
112,248,109351,1,0,0:0:0:0:
212,184,109601,1,0,0:0:0:0:
212,184,109726,1,0,0:0:0:0:
212,184,109851,1,0,0:0:0:0:
308,252,110101,1,0,0:0:0:0:
348,140,110351,1,0,0:0:0:0:
68,176,111601,5,0,0:0:0:0:
236,92,111851,1,0,0:0:0:0:
224,272,112101,1,0,0:0:0:0:
384,320,112351,2,0,L|432:256,1,70
448,136,112851,1,0,0:0:0:0:
332,116,113101,2,0,B|300:100|255:155|255:155|273:194|273:194|260:200|272:216,1,140
224,304,113851,5,0,0:0:0:0:
172,196,114101,1,0,0:0:0:0:
60,236,114351,2,0,B|147:210|147:210|96:142|96:142|144:128|207:77,1,280
308,88,115601,1,0,0:0:0:0:
340,112,115726,1,0,0:0:0:0:
324,160,115851,1,0,0:0:0:0:
292,192,115976,1,0,0:0:0:0:
268,212,116101,1,0,0:0:0:0:
168,276,116351,6,0,B|136:308|76:288,2,70
248,172,117101,2,0,L|176:152,1,70
64,60,117601,1,0,0:0:0:0:
64,60,117726,1,0,0:0:0:0:
64,60,117851,1,0,0:0:0:0:
176,136,118101,1,0,0:0:0:0:
96,224,118351,2,0,L|163:203,1,70
284,196,118851,6,0,B|284:239|245:253|259:272|228:254|213:256|225:277|176:273|205:306|208:324|175:353|156:338,1,210
72,256,119851,1,0,0:0:0:0:
92,140,120101,1,0,0:0:0:0:
196,84,120351,1,0,0:0:0:0:
268,180,120601,1,0,0:0:0:0:
88,192,122851,5,0,0:0:0:0:
100,300,123351,2,0,P|136:304|172:280,1,70
180,264,123726,1,0,0:0:0:0:
188,240,123851,1,0,0:0:0:0:
256,144,124101,1,0,0:0:0:0:
312,248,124351,1,0,0:0:0:0:
424,204,124601,1,0,0:0:0:0:
380,112,124851,6,0,L|228:160,1,140
120,224,125601,2,0,P|216:272|328:248,1,210
440,184,126601,1,0,0:0:0:0:
380,332,126851,1,0,0:0:0:0:
288,208,127101,1,0,0:0:0:0:
436,148,127351,5,0,0:0:0:0:
312,48,127601,1,0,0:0:0:0:
312,48,127726,1,0,0:0:0:0:
312,48,127851,1,0,0:0:0:0:
228,132,128101,1,0,0:0:0:0:
92,100,128351,2,0,L|52:176,1,70
72,292,128851,5,0,0:0:0:0:
312,364,129351,1,0,0:0:0:0:
328,140,129851,1,0,0:0:0:0:
260,348,130351,1,0,0:0:0:0:
272,348,130601,2,0,B|349:337|349:337|364:260,1,140
248,220,131351,5,0,0:0:0:0:
348,124,131601,1,0,0:0:0:0:
348,124,131726,1,0,0:0:0:0:
348,124,131851,1,0,0:0:0:0:
364,240,132101,1,0,0:0:0:0:
184,264,132351,1,0,0:0:0:0:
252,116,132601,1,0,0:0:0:0:
184,264,132851,1,0,0:0:0:0:
184,264,133101,2,0,B|344:300|344:300,1,140
448,268,133851,1,0,0:0:0:0:
328,64,134351,6,0,L|196:88,1,105
200,92,134851,1,0,0:0:0:0:
272,196,135101,1,0,0:0:0:0:
168,284,135351,1,0,0:0:0:0:
112,124,135601,1,0,0:0:0:0:
112,124,135726,1,0,0:0:0:0:
112,124,135851,1,0,0:0:0:0:
112,124,135976,2,0,L|104:188,1,35
164,288,136351,5,0,0:0:0:0:
340,104,136851,1,0,0:0:0:0:
260,340,137351,1,0,0:0:0:0:
152,148,137851,1,0,0:0:0:0:
336,172,138351,1,0,0:0:0:0:
336,172,138601,6,0,B|412:118|412:118|412:72,1,140
296,56,139351,1,0,0:0:0:0:
196,64,139601,2,0,B|136:76|135:90|135:90|108:86|108:86|56:128,1,140
32,212,140351,1,0,0:0:0:0:
68,328,140601,1,0,0:0:0:0:
183,198,140851,2,0,B|193:257|193:257|224:280|244:296|248:332,1,140
256,220,141601,6,0,B|248:152|248:152|324:132,1,140
412,72,142351,1,0,0:0:0:0:
300,40,142601,2,0,P|235:41|136:56,1,140
60,116,143351,1,0,0:0:0:0:
64,212,143601,2,0,P|140:220|220:268,1,140
336,252,144351,6,0,P|272:289|184:280,1,140
48,176,145351,1,0,0:0:0:0:
192,40,145851,1,0,0:0:0:0:
392,52,146351,1,0,0:0:0:0:
392,52,146601,2,0,P|328:108|260:116,1,140
136,96,147351,5,0,0:0:0:0:
72,212,147601,2,0,L|60:300,1,70
124,296,147976,1,0,0:0:0:0:
172,296,148101,2,0,B|272:296|272:296,1,70
360,280,148601,1,0,0:0:0:0:
400,188,148851,2,0,L|252:132,1,140
148,132,149601,6,0,B|92:184|92:184|92:268|128:316|162:332|235:323|280:288,1,350
368,220,151101,1,0,0:0:0:0:
280,152,151351,2,0,L|148:212,1,140
132,244,151976,1,0,0:0:0:0:
136,288,152101,1,0,0:0:0:0:
236,348,152351,5,0,0:0:0:0:
356,340,152601,1,0,0:0:0:0:
412,236,152851,2,0,B|375:272|368:296|304:296|284:276,1,140
248,196,153726,2,0,L|324:156,1,70
352,136,154101,1,0,0:0:0:0:
296,28,154351,5,0,0:0:0:0:
196,68,154601,1,0,0:0:0:0:
268,140,154851,2,0,L|344:176,2,70
100,156,155601,2,0,L|88:244,1,70
128,280,155976,1,0,0:0:0:0:
184,312,156101,6,0,B|268:308|268:308|280:228,1,140
284,128,156851,1,0,0:0:0:0:
412,92,157101,1,0,0:0:0:0:
284,40,157351,1,0,0:0:0:0:
160,64,157601,1,0,0:0:0:0:
108,180,157851,5,0,0:0:0:0:
116,184,157976,1,0,0:0:0:0:
116,184,158101,1,0,0:0:0:0:
312,156,158351,1,0,0:0:0:0:
196,232,158601,2,0,L|276:232,1,70
384,184,159101,1,0,0:0:0:0:
184,172,159351,5,0,0:0:0:0:
336,256,159601,1,0,0:0:0:0:
336,256,159726,1,0,0:0:0:0:
336,256,159851,1,0,0:0:0:0:
256,88,160101,1,0,0:0:0:0:
256,192,160601,12,0,162851,0:0:0:0:
224,180,163101,5,0,0:0:0:0:
300,296,163351,5,0,0:0:0:0:
160,172,163601,5,0,0:0:0:0:
160,172,163726,1,0,0:0:0:0:
160,172,163851,1,0,0:0:0:0:
284,96,164101,1,0,0:0:0:0:
380,200,164351,2,0,L|444:144,2,70
276,272,165101,2,0,L|192:288,1,70
132,192,165601,5,0,0:0:0:0:
172,168,165726,1,0,0:0:0:0:
204,136,165851,1,0,0:0:0:0:
224,112,165976,1,0,0:0:0:0:
248,92,166101,2,0,L|320:100,1,70
384,200,166601,2,0,L|319:226,1,70
216,288,167101,1,0,0:0:0:0:
216,288,167226,1,0,0:0:0:0:
216,288,167351,5,0,0:0:0:0:
124,212,167601,1,0,0:0:0:0:
76,180,167726,1,0,0:0:0:0:
64,120,167851,1,0,0:0:0:0:
80,64,167976,1,0,0:0:0:0:
132,36,168101,1,0,0:0:0:0:
232,100,168351,1,0,0:0:0:0:
240,144,170851,5,0,0:0:0:0:
360,216,171101,2,0,L|200:276,1,140
224,272,171726,1,0,0:0:0:0:
220,280,171851,1,0,0:0:0:0:
216,288,171976,1,0,0:0:0:0:
212,296,172101,1,0,0:0:0:0:
228,76,172351,6,0,L|324:76,1,70
404,160,172851,1,0,0:0:0:0:
224,172,173101,2,0,B|180:172|152:200,1,70
76,296,173601,2,0,B|84:348|152:344|152:344|188:320|188:320|168:308|232:288|232:288|268:248|292:248|368:288,1,350
496,136,175351,1,0,0:0:0:0:
352,172,175601,2,0,B|257:208|257:208|140:188,1,210
152,280,176601,2,0,L|308:296,1,140
256,192,177601,12,0,180351,0:0:0:0:
100,120,181101,6,0,L|244:136,1,140
352,80,181851,2,0,P|376:140|344:204,1,140
240,260,182601,1,0,0:0:0:0:
124,276,182851,1,0,0:0:0:0:
140,160,183101,2,0,L|206:137,1,70
256,192,183726,12,0,186101,0:0:0:0:
208,224,186601,5,0,0:0:0:0:
240,112,186851,2,0,L|160:76,2,70
340,136,187601,1,0,0:0:0:0:
340,264,187851,1,0,0:0:0:0:
360,276,187976,2,0,L|412:308,1,35
240,336,188351,6,0,L|144:320,1,70
56,180,188851,2,0,B|104:192|104:192|120:212,1,70
180,316,189351,2,0,B|200:320|200:320|213:282|213:282|252:312|252:312|280:264|280:264|314:295|356:180,1,280
348,76,190601,1,0,0:0:0:0:
240,112,190851,2,0,B|184:132|184:132|240:220,1,140
408,312,191601,5,0,0:0:0:0:
400,320,191726,1,0,0:0:0:0:
392,324,191851,2,0,B|378:364|328:352|328:352|285:293|285:293|240:308|160:264|160:264,1,280
8,152,193601,1,0,0:0:0:0:
148,60,193851,1,0,0:0:0:0:
208,216,194101,1,0,0:0:0:0:
352,104,194351,1,0,0:0:0:0:
344,248,194601,6,0,L|424:264,2,70
172,280,195351,2,0,L|112:240,1,70
104,68,195851,1,0,0:0:0:0:
128,64,195976,2,0,B|174:56|174:56|181:65|181:65|248:56,1,105
344,72,196601,6,0,L|332:152,1,70
216,160,197101,2,0,L|192:88,1,70
96,168,197601,2,0,L|84:256,1,70
100,280,197976,1,0,0:0:0:0:
124,312,198101,2,0,B|208:308|208:308|220:228,1,140
276,100,198851,6,0,L|420:124,1,140
400,248,199601,1,0,0:0:0:0:
384,280,199726,2,0,L|264:248,1,105
168,224,200351,1,0,0:0:0:0:
28,256,200601,1,0,0:0:0:0:
84,108,200851,1,0,0:0:0:0:
312,156,201351,5,0,0:0:0:0:
176,128,201601,1,0,0:0:0:0:
312,156,201851,1,0,0:0:0:0:
172,136,202101,1,0,0:0:0:0:
312,156,202351,1,0,0:0:0:0:
172,144,202601,1,0,0:0:0:0:
312,156,202851,1,0,0:0:0:0:
144,180,204851,5,0,0:0:0:0:
264,256,205101,1,0,0:0:0:0:
368,176,205351,2,0,L|284:120,1,70
124,80,205851,2,0,L|80:160,1,70
108,296,206351,1,0,0:0:0:0:
256,308,206601,1,0,0:0:0:0:
416,328,206851,6,0,L|356:180,1,140
200,96,207601,2,0,B|124:176|124:176|168:272,1,210
400,244,208601,2,0,B|348:196|328:196,1,70
208,140,209101,1,0,0:0:0:0:
272,304,209351,1,0,0:0:0:0:
48,276,209601,1,0,0:0:0:0:
40,268,209726,1,0,0:0:0:0:
32,264,209851,1,0,0:0:0:0:
52,108,210101,5,0,0:0:0:0:
216,84,210351,2,0,L|372:92,1,140
272,176,211101,1,0,0:0:0:0:
360,256,211351,1,0,0:0:0:0:
232,264,211601,1,0,0:0:0:0:
244,144,211851,2,0,P|192:139|88:164,1,140
136,76,212601,2,0,P|212:101|368:80,1,210
400,184,213601,1,0,0:0:0:0:
392,208,213726,1,0,0:0:0:0:
380,232,213851,1,0,0:0:0:0:
224,280,214101,6,0,P|225:213|156:164,1,140
248,68,214851,2,0,P|288:80|332:76,1,70
420,116,215351,1,0,0:0:0:0:
376,232,215601,2,0,P|324:320|232:288,1,210
168,140,216601,2,0,B|246:160|246:160|288:120|288:120|376:104,1,210
388,264,217601,1,0,0:0:0:0:
388,264,217726,1,0,0:0:0:0:
388,264,217851,1,0,0:0:0:0:
192,288,218101,1,0,0:0:0:0:
104,96,218351,6,0,B|172:68|188:112|188:112|228:140,1,140
444,288,219351,5,0,0:0:0:0:
176,244,219851,1,0,0:0:0:0:
196,48,220351,1,0,0:0:0:0:
224,40,220601,2,0,P|317:52|364:84,1,140
432,168,221351,5,0,0:0:0:0:
404,272,221601,1,0,0:0:0:0:
313,221,221851,2,0,B|304:200|280:185|280:185|254:210|228:200|228:200|196:192,1,140
96,128,222601,1,0,0:0:0:0:
204,80,222851,1,0,0:0:0:0:
428,160,223351,1,0,0:0:0:0:
240,224,223601,6,0,B|340:208|340:208|324:192|336:196|336:196|240:180,1,210
100,232,224601,2,0,B|124:320|168:288|208:332|272:280,1,210
196,188,225601,1,0,0:0:0:0:
180,176,225726,1,0,0:0:0:0:
180,152,225851,1,0,0:0:0:0:
248,64,226101,1,0,0:0:0:0:
360,140,226351,6,0,P|460:108|352:52,2,280
224,80,228601,2,0,P|128:108|172:212,1,210
236,276,229601,1,0,0:0:0:0:
352,252,229851,1,0,0:0:0:0:
364,240,229976,2,0,L|296:132,1,105
356,40,230601,1,0,0:0:0:0:
240,60,230851,1,0,0:0:0:0:
48,144,231351,5,0,0:0:0:0:
69,263,231601,2,0,L|120:216,1,70
248,192,232101,2,0,B|320:36|320:36|384:156|384:156|328:264,1,420
224,276,233851,1,0,0:0:0:0:
408,240,234101,1,0,0:0:0:0:
480,144,234351,6,0,L|340:104,1,140
224,104,235101,1,0,0:0:0:0:
160,204,235351,1,0,0:0:0:0:
260,272,235601,2,0,B|180:204|176:236|88:264|88:264|44:260|8:220|8:220|-12:256|-48:224|-8:164|12:116|100:124,1,490
264,128,237601,5,0,0:0:0:0:
288,144,237726,1,0,0:0:0:0:
304,160,237851,1,0,0:0:0:0:
212,236,238101,1,0,0:0:0:0:
188,332,238351,2,0,P|260:352|332:300,1,140
404,244,239101,1,0,0:0:0:0:
452,136,239351,2,0,B|400:96|329:89|317:101|317:101|296:96|308:80|308:80|228:88|192:68,1,280
88,152,240601,5,0,0:0:0:0:
88,152,240726,1,0,0:0:0:0:
88,152,240851,1,0,0:0:0:0:
176,232,241101,2,0,L|264:232,1,70
356,276,241601,1,0,0:0:0:0:
360,220,241726,1,0,0:0:0:0:
344,160,241851,1,0,0:0:0:0:
304,116,241976,1,0,0:0:0:0:
248,100,242101,6,0,L|148:92,1,70
84,168,242601,1,0,0:0:0:0:
192,212,242851,1,0,0:0:0:0:
236,296,243101,2,0,B|320:336|340:292|340:228,1,140
320,224,243726,1,0,0:0:0:0:
328,176,243851,1,0,0:0:0:0:
360,156,243976,1,0,0:0:0:0:
272,64,244351,6,0,L|169:87,1,105
132,132,244852,2,0,L|198:153,1,70
304,208,245352,2,0,B|228:264|204:276|204:276|164:280|123:243,1,210
148,128,246351,2,0,L|304:136,1,140
404,120,247101,1,0,0:0:0:0:
396,240,247351,1,0,0:0:0:0:
236,240,247601,6,0,L|140:272,2,70
352,208,248351,2,0,L|216:100,1,140
136,172,249101,1,0,0:0:0:0:
152,264,249351,2,0,L|232:284,1,70
248,288,249726,1,0,0:0:0:0:
272,292,249851,1,0,0:0:0:0:
388,268,250101,5,0,0:0:0:0:
444,132,250351,2,0,L|344:128,1,70
264,188,250851,2,0,L|192:176,1,70
92,224,251351,1,0,0:0:0:0:
200,272,251601,5,0,0:0:0:0:
260,280,251726,1,0,0:0:0:0:
320,276,251851,2,0,L|352:180,1,70
380,92,252351,2,0,B|332:124|332:124|276:140|240:116,1,140
132,104,253101,1,0,0:0:0:0:
28,168,253351,2,0,B|48:292|66:278|66:278|79:298|79:298|88:304|106:281|136:328|144:328,1,210
248,360,254351,1,0,0:0:0:0:
252,240,254601,1,0,0:0:0:0:
364,200,254851,1,0,0:0:0:0:
51,58,255351,6,0,L|104:104,1,70
176,200,255851,1,0,0:0:0:0:
200,316,256101,2,0,B|224:288|224:288|252:280|252:280|247:271|272:258|272:258|276:200|344:164,1,210
424,92,257101,1,0,0:0:0:0:
308,72,257351,2,0,L|216:128,1,105
164,148,257851,2,0,L|240:208,1,70
304,108,258351,6,0,B|308:152|296:168|296:168|300:196|296:230|256:232|263:278|263:278|256:312,1,210
228,180,259351,1,0,0:0:0:0:
112,224,259601,1,0,0:0:0:0:
112,224,259726,1,0,0:0:0:0:
112,224,259851,2,0,B|128:276|128:276|128:304|176:252|176:252|244:320|236:256|236:256,1,210
240,140,260851,2,0,B|280:112|280:112|384:152,1,140
440,236,261601,5,0,0:0:0:0:
328,324,261851,1,0,0:0:0:0:
300,332,261976,2,0,L|252:320,1,35
88,244,262351,2,0,L|152:204,1,70
256,164,262851,2,0,L|100:164,1,140
40,72,263601,1,0,0:0:0:0:
216,312,264101,6,0,P|320:324|412:240,1,210
292,216,265101,1,0,0:0:0:0:
400,164,265351,1,0,0:0:0:0:
348,56,265601,2,0,B|292:96|292:96|252:84|220:116,1,140
264,224,266351,1,0,0:0:0:0:
156,276,266601,5,0,0:0:0:0:
268,344,266851,2,0,L|424:344,1,140
412,224,267601,1,0,0:0:0:0:
268,36,268101,2,0,P|168:60|112:168,1,210
