osu file format v14

[General]
AudioFilename: Guriri - Rolling Girl.mp3
AudioLeadIn: 0
PreviewTime: 78918
Countdown: 0
SampleSet: Soft
StackLeniency: 0.7
Mode: 3
LetterboxInBreaks: 0
SpecialStyle: 0
WidescreenStoryboard: 0

[Editor]
DistanceSpacing: 0.9
BeatDivisor: 4
GridSize: 8
TimelineZoom: 1.9

[Metadata]
Title:Rolling Girl
TitleUnicode:ローリンガール
Artist:Guriri
ArtistUnicode:グリリ
Creator:RedBall
Version:MX
Source:wowaka
Tags:utaite korean guriri gurirock powerful
BeatmapID:915171
BeatmapSetID:423506

[Difficulty]
HPDrainRate:8
CircleSize:4
OverallDifficulty:8
ApproachRate:5
SliderMultiplier:1.4
SliderTickRate:1

[Events]
//Background and Video events
0,0,"Rolling_Girl_BG.jpg",0,0
Video,-3240,"Rolling Girl PV.AVI"
//Break Periods
//Storyboard Layer 0 (Background)
//Storyboard Layer 1 (Fail)
//Storyboard Layer 2 (Pass)
//Storyboard Layer 3 (Foreground)
//Storyboard Sound Samples

[TimingPoints]
149,307.692307692308,4,2,0,25,1,0
9687,-100,4,2,1,35,0,0
48303,-76.9230769230769,4,2,1,35,0,0
48379,-142.857142857143,4,2,1,35,0,0
48456,-76.9230769230769,4,2,1,35,0,0
48533,-142.857142857143,4,2,1,35,0,0
48610,-76.9230769230769,4,2,1,35,0,0
48687,-142.857142857143,4,2,1,35,0,0
48764,-100,4,2,1,35,0,0
78918,-100,4,2,1,35,0,1
98149,-100,4,2,1,35,0,0
107995,-76.9230769230769,4,2,1,35,0,0
108072,-142.857142857143,4,2,1,35,0,0
108149,-76.9230769230769,4,2,1,35,0,0
108226,-142.857142857143,4,2,1,35,0,0
108303,-76.9230769230769,4,2,1,35,0,0
108379,-142.857142857143,4,2,1,35,0,0
108456,-100,4,2,1,35,0,0
147841,-100,4,2,1,35,0,1
167072,-100,4,2,1,35,0,0
167533,-100,4,2,1,35,0,1
186764,-100,4,2,1,35,0,0

[HitObjects]
320,192,149,5,0,0:0:0:100:D6_Piano.ogg
448,192,149,1,0,0:0:0:0:
320,192,456,1,0,0:0:0:100:D6_Piano.ogg
448,192,456,1,0,0:0:0:0:
64,192,764,1,0,0:0:0:100:C#6_Piano.ogg
448,192,918,1,0,0:0:0:100:D6_Piano.ogg
192,192,1072,1,0,0:0:0:100:C#6_Piano.ogg
64,192,1149,1,0,0:0:0:100:D6_Piano.ogg
320,192,1225,128,0,1533:0:0:0:100:F#6_Piano.ogg
448,192,1533,1,0,0:0:0:100:E6_Piano.ogg
64,192,1687,1,0,0:0:0:100:D6_Piano.ogg
192,192,1841,1,0,0:0:0:100:C#6_Piano.ogg
448,192,1995,1,0,0:0:0:100:D6_Piano.ogg
64,192,2149,1,0,0:0:0:100:C#6_Piano.ogg
192,192,2225,1,0,0:0:0:100:D6_Piano.ogg
64,192,2302,1,0,0:0:0:100:C#6_Piano.ogg
192,192,2456,1,0,0:0:0:100:B5_Piano.ogg
320,192,2533,1,0,0:0:0:100:C#6_Piano.ogg
448,192,2610,1,0,0:0:0:100:D6_Piano.ogg
64,192,2610,1,0,0:0:0:0:
448,192,2918,1,0,0:0:0:100:D6_Piano.ogg
64,192,2918,1,0,0:0:0:0:
320,192,3225,1,0,0:0:0:100:C#6_Piano.ogg
64,192,3379,1,0,0:0:0:100:D6_Piano.ogg
448,192,3533,1,0,0:0:0:100:A5_Piano.ogg
192,192,3687,128,0,3995:0:0:0:100:F#6_Piano.ogg
320,192,3995,1,0,0:0:0:100:E6_Piano.ogg
192,192,4149,1,0,0:0:0:100:D6_Piano.ogg
448,192,4302,1,0,0:0:0:100:C#6_Piano.ogg
64,192,4456,1,0,0:0:0:100:D6_Piano.ogg
192,192,4610,1,0,0:0:0:100:A6_Piano.ogg
192,192,4764,1,0,0:0:0:100:A6_Piano.ogg
64,192,5072,1,0,0:0:0:0:
320,192,5072,1,0,0:0:0:100:D6_Piano.ogg
448,192,5072,1,0,0:0:0:100:B6_Piano.ogg
64,192,5379,1,0,0:0:0:0:
320,192,5379,1,0,0:0:0:100:D6_Piano.ogg
192,192,5533,1,0,0:0:0:100:F#6_Piano.ogg
64,192,5687,1,0,0:0:0:100:C#6_Piano.ogg
448,192,5841,1,0,0:0:0:100:D6_Piano.ogg
192,192,5995,1,0,0:0:0:100:C#6_Piano.ogg
320,192,6072,1,0,0:0:0:100:D6_Piano.ogg
64,192,6149,128,0,6456:0:0:0:100:F#6_Piano.ogg
448,192,6456,1,0,0:0:0:100:E6_Piano.ogg
192,192,6610,1,0,0:0:0:100:D6_Piano.ogg
320,192,6764,1,0,0:0:0:100:C#6_Piano.ogg
448,192,6918,1,0,0:0:0:100:D6_Piano.ogg
64,192,7072,1,0,0:0:0:100:C#6_Piano.ogg
192,192,7149,1,0,0:0:0:100:D6_Piano.ogg
448,192,7225,1,0,0:0:0:100:F#6_Piano.ogg
192,192,7379,1,0,0:0:0:100:B5_Piano.ogg
64,192,7456,1,0,0:0:0:100:C#6_Piano.ogg
192,192,7533,1,0,0:0:0:0:
448,192,7533,1,0,0:0:0:100:D6_Piano.ogg
192,192,7841,1,0,0:0:0:0:
448,192,7841,1,0,0:0:0:100:D6_Piano.ogg
320,192,8149,1,0,0:0:0:100:C#6_Piano.ogg
448,192,8302,1,0,0:0:0:100:D6_Piano.ogg
64,192,8456,1,0,0:0:0:100:A5_Piano.ogg
320,192,8610,128,0,8918:0:0:0:100:F#6_Piano.ogg
448,192,8918,1,0,0:0:0:100:E6_Piano.ogg
64,192,9072,1,0,0:0:0:100:D6_Piano.ogg
192,192,9225,1,0,0:0:0:100:C#6_Piano.ogg
448,192,9379,1,0,0:0:0:100:D6_Piano.ogg
320,192,9379,1,0,0:0:0:100:D6_Piano.ogg
192,192,9533,1,0,0:0:0:100:A6_Piano.ogg
64,192,9533,1,0,0:0:0:100:A6_Piano.ogg
448,192,9687,1,2,0:0:0:40:
320,192,9725,1,2,0:0:0:40:
192,192,9764,1,2,0:0:0:40:
64,192,9802,1,2,0:0:0:40:
448,192,9841,1,2,0:0:0:40:
320,192,9879,1,2,0:0:0:40:
192,192,9918,1,2,0:0:0:40:
64,192,9956,1,2,0:0:0:40:
448,192,9995,1,4,0:0:0:0:
320,192,9995,1,0,0:0:0:40:Drum_Emphasis2.wav
192,192,10072,1,0,0:0:0:0:
320,192,10149,1,0,0:0:0:0:
448,192,10225,1,0,0:0:0:0:
64,192,10302,1,0,0:0:0:40:Drum_Emphasis2.wav
320,192,10302,1,8,0:0:0:50:
192,192,10379,1,0,0:0:0:0:
448,192,10456,1,0,0:0:0:0:
320,192,10533,1,0,0:0:0:0:
64,192,10610,1,0,0:0:0:0:
448,192,10610,1,0,0:0:0:40:Drum_Emphasis2.wav
192,192,10687,1,0,0:0:0:0:
448,192,10764,1,0,0:0:0:40:Drum_Emphasis2.wav
64,192,10764,1,0,0:0:0:0:
320,192,10841,1,0,0:0:0:0:
64,192,10918,1,8,0:0:0:50:
192,192,10918,1,0,0:0:0:40:Drum_Emphasis2.wav
320,192,10995,1,0,0:0:0:0:
448,192,11072,1,0,0:0:0:0:
192,192,11072,128,0,11379:0:0:0:40:Drum_Emphasis2.wav
320,192,11379,1,0,0:0:0:0:
64,192,11533,1,0,0:0:0:40:Drum_Emphasis2.wav
448,192,11533,1,8,0:0:0:50:
192,192,11687,1,0,0:0:0:0:
64,192,11841,1,0,0:0:0:40:Drum_Emphasis2.wav
320,192,11841,1,0,0:0:0:0:
448,192,11995,1,0,0:0:0:0:
320,192,12072,1,0,0:0:0:0:
448,192,12149,1,8,0:0:0:50:
64,192,12149,1,0,0:0:0:40:Drum_Emphasis2.wav
192,192,12302,1,0,0:0:0:0:
320,192,12379,1,0,0:0:0:0:
64,192,12456,1,0,0:0:0:0:
448,192,12456,1,0,0:0:0:40:Drum_Emphasis2.wav
320,192,12533,1,0,0:0:0:0:
192,192,12610,1,0,0:0:0:0:
64,192,12687,1,0,0:0:0:0:
320,192,12764,1,0,0:0:0:40:Drum_Emphasis2.wav
448,192,12764,1,8,0:0:0:50:
192,192,12841,1,0,0:0:0:0:
320,192,12918,1,0,0:0:0:0:
192,192,12995,1,0,0:0:0:0:
64,192,13072,1,0,0:0:0:0:
448,192,13072,1,0,0:0:0:40:Drum_Emphasis2.wav
320,192,13149,1,0,0:0:0:0:
192,192,13225,1,0,0:0:0:0:
448,192,13225,1,0,0:0:0:40:Drum_Emphasis2.wav
64,192,13302,1,0,0:0:0:0:
192,192,13379,1,8,0:0:0:50:
320,192,13379,1,0,0:0:0:40:Drum_Emphasis2.wav
64,192,13456,1,0,0:0:0:0:
448,192,13533,1,0,0:0:0:0:
320,192,13533,128,0,13841:0:0:0:40:Drum_Emphasis2.wav
192,192,13841,1,0,0:0:0:0:
64,192,13995,1,8,0:0:0:50:
448,192,13995,1,0,0:0:0:40:Drum_Emphasis2.wav
320,192,14149,1,0,0:0:0:0:
64,192,14302,1,0,0:0:0:0:
192,192,14302,1,0,0:0:0:40:Drum_Emphasis2.wav
320,192,14456,1,0,0:0:0:40:Drum_Emphasis2.wav
448,192,14456,1,0,0:0:0:0:
448,192,14610,1,8,0:0:0:50:
192,192,14610,1,0,0:0:0:40:Drum_Emphasis2.wav
64,192,14687,1,0,0:0:0:0:
192,192,14764,1,0,0:0:0:0:
320,192,14841,1,0,0:0:0:0:
64,192,14918,1,0,0:0:0:40:Drum_Emphasis2.wav
192,192,14918,1,0,0:0:0:0:
448,192,14995,1,0,0:0:0:0:
320,192,15072,1,0,0:0:0:0:
192,192,15149,1,0,0:0:0:0:
64,192,15225,1,0,0:0:0:40:Drum_Emphasis2.wav
448,192,15225,1,8,0:0:0:50:
320,192,15302,1,0,0:0:0:0:
64,192,15379,1,0,0:0:0:0:
192,192,15456,1,0,0:0:0:0:
320,192,15533,1,0,0:0:0:0:
448,192,15533,1,0,0:0:0:40:Drum_Emphasis2.wav
192,192,15610,1,0,0:0:0:0:
64,192,15687,1,0,0:0:0:0:
448,192,15687,1,0,0:0:0:40:Drum_Emphasis2.wav
320,192,15764,1,0,0:0:0:0:
64,192,15841,1,8,0:0:0:50:
192,192,15841,1,0,0:0:0:40:Drum_Emphasis2.wav
320,192,15918,1,0,0:0:0:0:
448,192,15995,128,0,16302:0:0:0:40:Drum_Emphasis2.wav
192,192,15995,1,0,0:0:0:0:
320,192,16302,1,0,0:0:0:0:
192,192,16456,1,0,0:0:0:40:Drum_Emphasis2.wav
448,192,16456,1,8,0:0:0:50:
64,192,16610,1,0,0:0:0:0:
320,192,16764,1,0,0:0:0:40:Drum_Emphasis2.wav
448,192,16764,1,0,0:0:0:0:
192,192,16918,1,0,0:0:0:0:
64,192,16995,1,0,0:0:0:0:
448,192,17072,1,8,0:0:0:50:
320,192,17072,1,0,0:0:0:40:Drum_Emphasis2.wav
192,192,17225,1,0,0:0:0:0:
448,192,17302,1,0,0:0:0:0:
64,192,17379,1,0,0:0:0:40:Drum_Emphasis2.wav
320,192,17379,1,0,0:0:0:0:
192,192,17456,1,0,0:0:0:0:
448,192,17533,1,0,0:0:0:0:
320,192,17610,1,0,0:0:0:0:
64,192,17687,1,8,0:0:0:50:
192,192,17687,1,0,0:0:0:40:Drum_Emphasis2.wav
448,192,17764,1,0,0:0:0:0:
192,192,17841,1,0,0:0:0:0:
320,192,17918,1,0,0:0:0:0:
64,192,17995,1,0,0:0:0:40:Drum_Emphasis2.wav
448,192,17995,1,0,0:0:0:0:
192,192,18072,1,0,0:0:0:0:
448,192,18149,1,0,0:0:0:0:
320,192,18149,1,0,0:0:0:40:Drum_Emphasis2.wav
192,192,18225,1,0,0:0:0:0:
64,192,18302,1,0,0:0:0:40:Drum_Emphasis2.wav
320,192,18302,1,8,0:0:0:50:
448,192,18379,1,0,0:0:0:0:
64,192,18456,128,0,18764:0:0:0:40:Drum_Emphasis2.wav
192,192,18456,1,0,0:0:0:0:
320,192,18764,1,0,0:0:0:0:
64,192,18918,1,0,0:0:0:40:Drum_Emphasis2.wav
448,192,18918,1,8,0:0:0:50:
320,192,19072,1,0,0:0:0:0:
64,192,19225,1,0,0:0:0:40:Drum_Emphasis2.wav
192,192,19225,1,8,0:0:0:50:
448,192,19379,1,0,0:0:0:40:Drum_Emphasis2.wav
192,192,19379,1,0,0:0:0:40:Snare_2.wav
320,192,19456,1,0,0:0:0:40:Snare_2.wav
64,192,19533,1,8,0:0:0:50:
448,192,19533,1,0,0:0:0:40:Snare_2.wav
192,192,19610,1,0,0:0:0:40:Snare_2.wav
320,192,19610,1,0,0:0:0:0:
448,192,19687,1,0,0:0:0:40:Snare_2.wav
64,192,19687,1,0,0:0:0:0:
192,192,19764,1,0,0:0:0:40:Snare_2.wav
320,192,19764,1,0,0:0:0:0:
64,192,19841,1,4,0:0:0:0:
448,192,19841,1,0,0:0:0:40:Drum_Emphasis2.wav
192,192,19918,1,0,0:0:0:0:
320,192,19995,1,0,0:0:0:0:
448,192,20072,1,0,0:0:0:0:
64,192,20149,1,0,0:0:0:40:Drum_Emphasis2.wav
192,192,20149,1,8,0:0:0:50:
320,192,20225,1,0,0:0:0:0:
192,192,20302,1,0,0:0:0:0:
64,192,20379,1,0,0:0:0:0:
192,192,20456,1,0,0:0:0:0:
448,192,20456,1,0,0:0:0:40:Drum_Emphasis2.wav
320,192,20533,1,0,0:0:0:0:
448,192,20610,1,0,0:0:0:40:Drum_Emphasis2.wav
64,192,20610,1,0,0:0:0:0:
192,192,20687,1,0,0:0:0:0:
64,192,20764,1,8,0:0:0:50:
320,192,20764,1,0,0:0:0:40:Drum_Emphasis2.wav
192,192,20841,1,0,0:0:0:0:
448,192,20918,128,0,21225:0:0:0:0:
320,192,20918,1,0,0:0:0:40:Drum_Emphasis2.wav
192,192,21225,1,0,0:0:0:0:
64,192,21379,1,0,0:0:0:40:Drum_Emphasis2.wav
448,192,21379,1,8,0:0:0:50:
320,192,21533,1,0,0:0:0:0:
192,192,21687,1,0,0:0:0:40:Drum_Emphasis2.wav
448,192,21687,1,0,0:0:0:0:
64,192,21841,1,0,0:0:0:0:
192,192,21918,1,0,0:0:0:0:
64,192,21995,1,8,0:0:0:50:
448,192,21995,1,0,0:0:0:40:Drum_Emphasis2.wav
320,192,22149,1,0,0:0:0:0:
192,192,22225,1,0,0:0:0:0:
448,192,22302,1,0,0:0:0:40:Drum_Emphasis2.wav
64,192,22302,1,0,0:0:0:0:
192,192,22379,1,0,0:0:0:0:
448,192,22456,1,0,0:0:0:0:
320,192,22533,1,0,0:0:0:0:
64,192,22610,1,8,0:0:0:50:
192,192,22610,1,0,0:0:0:40:Drum_Emphasis2.wav
320,192,22687,1,0,0:0:0:0:
448,192,22764,1,0,0:0:0:0:
320,192,22841,1,0,0:0:0:0:
448,192,22918,1,0,0:0:0:0:
192,192,22918,1,0,0:0:0:40:Drum_Emphasis2.wav
64,192,22995,1,0,0:0:0:0:
448,192,23072,1,0,0:0:0:0:
320,192,23072,1,0,0:0:0:40:Drum_Emphasis2.wav
192,192,23149,1,0,0:0:0:0:
64,192,23225,1,8,0:0:0:50:
320,192,23225,1,0,0:0:0:40:Drum_Emphasis2.wav
192,192,23302,1,0,0:0:0:0:
448,192,23379,128,0,23687:0:0:0:0:
64,192,23379,1,0,0:0:0:40:Drum_Emphasis2.wav
64,192,23687,1,0,0:0:0:0:
192,192,23841,1,0,0:0:0:40:Drum_Emphasis2.wav
320,192,23841,1,8,0:0:0:50:
448,192,23995,1,0,0:0:0:0:
64,192,24149,1,0,0:0:0:40:Drum_Emphasis2.wav
320,192,24149,1,0,0:0:0:0:
448,192,24302,1,0,0:0:0:0:
192,192,24302,1,0,0:0:0:40:Drum_Emphasis2.wav
448,192,24456,1,8,0:0:0:50:
64,192,24456,1,0,0:0:0:40:Drum_Emphasis2.wav
192,192,24533,1,0,0:0:0:0:
320,192,24610,1,0,0:0:0:0:
448,192,24687,1,0,0:0:0:0:
64,192,24764,1,0,0:0:0:40:Drum_Emphasis2.wav
320,192,24764,1,0,0:0:0:0:
192,192,24841,1,0,0:0:0:0:
64,192,24918,1,0,0:0:0:0:
192,192,24995,1,0,0:0:0:0:
320,192,25072,1,0,0:0:0:40:Drum_Emphasis2.wav
448,192,25072,1,8,0:0:0:50:
64,192,25149,1,0,0:0:0:0:
192,192,25225,1,0,0:0:0:0:
320,192,25302,1,0,0:0:0:0:
64,192,25379,1,0,0:0:0:40:Drum_Emphasis2.wav
448,192,25379,1,0,0:0:0:0:
192,192,25456,1,0,0:0:0:0:
64,192,25533,1,0,0:0:0:40:Drum_Emphasis2.wav
320,192,25533,1,0,0:0:0:0:
448,192,25610,1,0,0:0:0:0:
192,192,25687,1,8,0:0:0:50:
320,192,25687,1,0,0:0:0:40:Drum_Emphasis2.wav
64,192,25764,1,0,0:0:0:0:
320,192,25841,128,0,26149:0:0:0:40:Drum_Emphasis2.wav
448,192,25841,1,0,0:0:0:0:
64,192,26149,1,0,0:0:0:0:
192,192,26302,1,0,0:0:0:40:Drum_Emphasis2.wav
448,192,26302,1,8,0:0:0:50:
64,192,26456,1,0,0:0:0:0:
320,192,26610,1,0,0:0:0:40:Drum_Emphasis2.wav
448,192,26610,1,0,0:0:0:0:
64,192,26764,1,0,0:0:0:0:
192,192,26841,1,0,0:0:0:0:
64,192,26918,1,8,0:0:0:50:
320,192,26918,1,0,0:0:0:40:Drum_Emphasis2.wav
192,192,27072,1,0,0:0:0:0:
320,192,27149,1,0,0:0:0:0:
448,192,27225,1,0,0:0:0:0:
192,192,27225,1,0,0:0:0:40:Drum_Emphasis2.wav
64,192,27302,1,0,0:0:0:0:
192,192,27379,1,0,0:0:0:0:
320,192,27456,1,0,0:0:0:0:
64,192,27533,1,8,0:0:0:50:
192,192,27533,1,0,0:0:0:40:Drum_Emphasis2.wav
448,192,27610,1,0,0:0:0:0:
320,192,27687,1,0,0:0:0:0:
192,192,27764,1,0,0:0:0:0:
64,192,27841,1,0,0:0:0:0:
448,192,27841,1,0,0:0:0:40:Drum_Emphasis2.wav
192,192,27918,1,0,0:0:0:0:
448,192,27995,1,0,0:0:0:40:Drum_Emphasis2.wav
320,192,27995,1,0,0:0:0:0:
192,192,28072,1,0,0:0:0:0:
64,192,28149,1,8,0:0:0:50:
320,192,28149,1,0,0:0:0:40:Drum_Emphasis2.wav
448,192,28225,1,0,0:0:0:0:
64,192,28302,1,0,0:0:0:0:
192,192,28302,128,0,28610:0:0:0:40:Drum_Emphasis2.wav
320,192,28610,1,0,0:0:0:0:
192,192,28764,1,2,0:0:0:40:Drum_Emphasis2.wav
64,192,28764,1,8,0:0:0:50:
448,192,28918,1,0,0:0:0:40:Drum_Emphasis2.wav
64,192,28918,1,2,0:0:0:45:
192,192,29072,1,2,0:0:0:40:Drum_Emphasis2.wav
320,192,29072,1,8,0:0:0:50:
64,192,29225,1,2,0:0:0:40:Drum_Emphasis2.wav
448,192,29225,1,0,0:0:0:40:Snare_2.wav
192,192,29302,1,0,0:0:0:40:Snare_2.wav
448,192,29379,1,8,0:0:0:50:
320,192,29379,1,0,0:0:0:40:Snare_2.wav
64,192,29456,1,0,0:0:0:0:
192,192,29456,1,0,0:0:0:40:Snare_2.wav
448,192,29533,1,0,0:0:0:0:
320,192,29533,1,0,0:0:0:40:Snare_2.wav
192,192,29610,1,0,0:0:0:40:Snare_2.wav
64,192,29610,1,0,0:0:0:0:
320,192,29687,1,0,0:0:0:40:Drum_Emphasis2.wav
448,192,29687,1,4,0:0:0:0:
64,192,29687,1,0,0:0:0:0:
192,192,29841,1,0,0:0:0:0:
448,192,29995,1,0,0:0:0:20:Snare_2.wav
64,192,29995,1,0,0:0:0:0:
320,192,30149,1,0,0:0:0:0:
192,192,30302,1,0,0:0:0:40:Drum_Emphasis2.wav
448,192,30302,1,0,0:0:0:0:
64,192,30456,1,0,0:0:0:0:
192,192,30610,1,0,0:0:0:20:Snare_2.wav
320,192,30610,1,0,0:0:0:0:
448,192,30764,1,0,0:0:0:0:
64,192,30918,1,0,0:0:0:40:Drum_Emphasis2.wav
320,192,30918,1,0,0:0:0:0:
192,192,31072,1,0,0:0:0:0:
64,192,31225,1,0,0:0:0:20:Snare_2.wav
448,192,31225,1,0,0:0:0:0:
320,192,31379,1,0,0:0:0:0:
64,192,31533,1,0,0:0:0:40:Drum_Emphasis2.wav
192,192,31533,1,0,0:0:0:0:
448,192,31687,1,0,0:0:0:0:
64,192,31841,1,0,0:0:0:45:Snare_2.wav
192,192,31841,1,0,0:0:0:0:
320,192,31841,1,0,0:0:0:0:
448,192,31995,1,0,0:0:0:0:
64,192,32149,1,0,0:0:0:40:Drum_Emphasis2.wav
320,192,32149,1,0,0:0:0:0:
192,192,32302,1,0,0:0:0:0:
448,192,32456,1,0,0:0:0:0:
64,192,32456,1,0,0:0:0:45:Snare_2.wav
320,192,32456,1,0,0:0:0:0:
192,192,32610,1,0,0:0:0:0:
320,192,32764,1,0,0:0:0:0:
448,192,32764,1,0,0:0:0:40:Drum_Emphasis2.wav
64,192,32918,1,0,0:0:0:0:
192,192,33072,1,0,0:0:0:0:
448,192,33072,1,0,0:0:0:45:Snare_2.wav
320,192,33072,1,0,0:0:0:0:
64,192,33225,1,0,0:0:0:0:
448,192,33379,1,0,0:0:0:40:Drum_Emphasis2.wav
192,192,33379,1,0,0:0:0:0:
320,192,33533,1,0,0:0:0:0:
64,192,33687,1,0,0:0:0:0:
192,192,33687,1,0,0:0:0:45:Snare_2.wav
448,192,33687,1,0,0:0:0:0:
192,192,33841,1,0,0:0:0:0:
64,192,33995,1,0,0:0:0:0:
448,192,33995,1,0,0:0:0:40:Drum_Emphasis2.wav
320,192,34072,1,0,0:0:0:0:
192,192,34149,1,0,0:0:0:0:
64,192,34225,1,0,0:0:0:0:
448,192,34302,1,0,0:0:0:45:Snare_2.wav
192,192,34302,1,0,0:0:0:0:
320,192,34379,1,0,0:0:0:0:
192,192,34456,1,0,0:0:0:0:
64,192,34533,1,0,0:0:0:0:
448,192,34610,1,0,0:0:0:40:Drum_Emphasis2.wav
320,192,34610,1,0,0:0:0:0:
192,192,34764,1,0,0:0:0:0:
64,192,34918,1,0,0:0:0:20:Snare_2.wav
320,192,34918,1,0,0:0:0:0:
448,192,35072,1,0,0:0:0:0:
192,192,35225,1,0,0:0:0:0:
64,192,35225,1,0,0:0:0:40:Drum_Emphasis2.wav
320,192,35379,1,0,0:0:0:0:
448,192,35533,1,0,0:0:0:20:Snare_2.wav
64,192,35533,1,0,0:0:0:0:
192,192,35687,1,0,0:0:0:0:
320,192,35841,1,0,0:0:0:0:
448,192,35841,1,0,0:0:0:40:Drum_Emphasis2.wav
64,192,35995,1,0,0:0:0:0:
320,192,36149,1,0,0:0:0:20:Snare_2.wav
192,192,36149,1,0,0:0:0:0:
64,192,36302,1,0,0:0:0:0:
448,192,36456,1,0,0:0:0:40:Drum_Emphasis2.wav
192,192,36456,1,0,0:0:0:0:
320,192,36610,1,0,0:0:0:0:
64,192,36764,1,0,0:0:0:0:
448,192,36764,1,0,0:0:0:50:Snare_2.wav
192,192,36764,1,0,0:0:0:0:
448,192,36918,128,0,37687:0:0:0:40:Drum_Emphasis2.wav
64,192,37072,1,0,0:0:0:0:
320,192,37225,1,0,0:0:0:0:
64,192,37379,1,0,0:0:0:50:Snare_2.wav
192,192,37379,1,0,0:0:0:0:
320,192,37533,1,0,0:0:0:0:
192,192,37687,1,0,0:0:0:0:
64,192,37687,1,0,0:0:0:40:Drum_Emphasis2.wav
448,192,37841,1,0,0:0:0:0:
320,192,37995,1,0,0:0:0:0:
64,192,37995,1,0,0:0:0:50:Snare_2.wav
192,192,37995,1,0,0:0:0:0:
192,192,38149,128,0,38764:0:0:0:40:Drum_Emphasis2.wav
448,192,38302,1,0,0:0:0:0:
64,192,38456,1,0,0:0:0:0:
448,192,38610,1,0,0:0:0:50:Snare_2.wav
320,192,38610,1,0,0:0:0:0:
64,192,38764,1,0,0:0:0:0:
192,192,38918,1,0,0:0:0:0:
448,192,38918,1,0,0:0:0:40:Drum_Emphasis2.wav
320,192,38995,1,0,0:0:0:0:
192,192,39072,1,0,0:0:0:0:
64,192,39149,1,0,0:0:0:0:
448,192,39225,1,0,0:0:0:50:Snare_2.wav
320,192,39225,1,0,0:0:0:0:
192,192,39302,1,0,0:0:0:35:Snare_2.wav
320,192,39379,1,0,0:0:0:35:Snare_2.wav
448,192,39456,1,0,0:0:0:35:Snare_2.wav
64,192,39533,1,4,0:0:0:0:
320,192,39533,1,0,0:0:0:40:Drum_Emphasis2.wav
192,192,39687,1,0,0:0:0:0:
448,192,39841,1,0,0:0:0:20:Snare_2.wav
64,192,39841,1,0,0:0:0:0:
320,192,39995,1,0,0:0:0:0:
192,192,40149,1,0,0:0:0:0:
64,192,40149,1,0,0:0:0:40:Drum_Emphasis2.wav
320,192,40302,1,0,0:0:0:0:
448,192,40456,1,0,0:0:0:20:Snare_2.wav
64,192,40456,1,0,0:0:0:0:
320,192,40610,1,0,0:0:0:40:Drum_Emphasis2.wav
192,192,40610,1,0,0:0:0:0:
64,192,40764,1,0,0:0:0:0:
192,192,40918,1,0,0:0:0:0:
448,192,40918,1,0,0:0:0:40:Drum_Emphasis2.wav
448,192,41072,1,0,0:0:0:45:Snare_2.wav
64,192,41072,1,0,0:0:0:0:
64,192,41225,1,0,0:0:0:40:Drum_Emphasis2.wav
320,192,41225,1,0,0:0:0:0:
192,192,41379,1,0,0:0:0:0:
448,192,41379,1,0,0:0:0:40:Drum_Emphasis2.wav
320,192,41533,1,0,0:0:0:0:
64,192,41687,1,0,0:0:0:45:Snare_2.wav
192,192,41687,1,0,0:0:0:0:
448,192,41841,1,0,0:0:0:0:
64,192,41995,1,0,0:0:0:40:Drum_Emphasis2.wav
320,192,41995,1,0,0:0:0:0:
448,192,42149,1,0,0:0:0:0:
64,192,42302,1,0,0:0:0:45:Snare_2.wav
192,192,42302,1,0,0:0:0:0:
320,192,42456,1,0,0:0:0:0:
192,192,42610,1,0,0:0:0:40:Drum_Emphasis2.wav
448,192,42610,1,0,0:0:0:0:
64,192,42764,1,0,0:0:0:0:
448,192,42918,1,0,0:0:0:45:Snare_2.wav
320,192,42918,1,0,0:0:0:0:
64,192,43072,1,0,0:0:0:0:
192,192,43072,1,0,0:0:0:40:Drum_Emphasis2.wav
448,192,43225,1,0,0:0:0:0:
320,192,43379,1,0,0:0:0:0:
192,192,43379,1,0,0:0:0:40:Drum_Emphasis2.wav
320,192,43533,1,0,0:0:0:45:Snare_2.wav
64,192,43533,1,0,0:0:0:0:
192,192,43687,1,0,0:0:0:0:
64,192,43841,1,0,0:0:0:0:
448,192,43841,1,0,0:0:0:40:Drum_Emphasis2.wav
320,192,43918,1,0,0:0:0:0:
192,192,43995,1,0,0:0:0:0:
64,192,44072,1,0,0:0:0:0:
448,192,44149,1,0,0:0:0:45:Snare_2.wav
320,192,44149,1,0,0:0:0:0:
192,192,44225,1,0,0:0:0:0:
320,192,44302,1,0,0:0:0:0:
448,192,44379,1,0,0:0:0:0:
64,192,44456,1,0,0:0:0:40:Drum_Emphasis2.wav
192,192,44456,128,0,45225:0:0:0:0:
448,192,44764,1,0,0:0:0:45:Snare_2.wav
64,192,44764,1,0,0:0:0:0:
320,192,44918,1,0,0:0:0:0:
448,192,45072,1,0,0:0:0:0:
64,192,45225,1,0,0:0:0:40:Drum_Emphasis2.wav
320,192,45225,1,0,0:0:0:0:
192,192,45379,1,0,0:0:0:45:Snare_2.wav
448,192,45379,1,0,0:0:0:0:
192,192,45533,1,0,0:0:0:40:Drum_Emphasis2.wav
320,192,45533,1,0,0:0:0:0:
64,192,45687,1,0,0:0:0:0:
320,192,45841,1,0,0:0:0:0:
448,192,45841,1,0,0:0:0:40:Drum_Emphasis2.wav
192,192,45995,1,0,0:0:0:45:Snare_2.wav
64,192,45995,1,0,0:0:0:0:
320,192,46149,1,0,0:0:0:0:
192,192,46302,1,0,0:0:0:0:
448,192,46302,1,0,0:0:0:40:Drum_Emphasis2.wav
320,192,46379,1,0,0:0:0:0:
192,192,46456,1,0,0:0:0:0:
64,192,46533,1,0,0:0:0:0:
448,192,46610,1,0,0:0:0:45:Snare_2.wav
320,192,46610,1,0,0:0:0:0:
192,192,46687,1,0,0:0:0:0:
320,192,46764,1,0,0:0:0:0:
448,192,46841,1,0,0:0:0:0:
320,192,46918,128,0,47687:0:0:0:0:
64,192,46918,1,0,0:0:0:40:Drum_Emphasis2.wav
64,192,47225,1,0,0:0:0:45:Snare_2.wav
192,192,47225,1,0,0:0:0:0:
448,192,47379,1,0,0:0:0:0:
192,192,47533,1,0,0:0:0:0:
64,192,47687,1,0,0:0:0:0:
448,192,47687,1,0,0:0:0:40:Drum_Emphasis2.wav
448,192,47841,1,0,0:0:0:45:Snare_2.wav
192,192,47841,1,0,0:0:0:0:
64,192,47995,128,0,48225:0:0:0:40:Drum_Emphasis2.wav
320,192,47995,1,0,0:0:0:0:
64,192,48302,1,0,0:0:0:0:
448,192,48302,1,0,0:0:0:0:
64,192,48456,1,0,0:0:0:50:Snare_2.wav
448,192,48456,1,0,0:0:0:0:
64,192,48610,1,0,0:0:0:0:
448,192,48610,1,0,0:0:0:0:
320,192,48764,1,2,0:0:0:40:
192,192,48841,1,2,0:0:0:40:
320,192,48918,1,2,0:0:0:40:
192,192,48995,1,2,0:0:0:40:
448,192,49072,1,0,0:0:0:0:
320,192,49072,1,0,0:0:0:40:Snare_2.wav
64,192,49149,1,0,0:0:0:0:
192,192,49149,1,0,0:0:0:40:Snare_2.wav
448,192,49225,1,0,0:0:0:0:
320,192,49225,1,0,0:0:0:40:Snare_2.wav
64,192,49302,1,0,0:0:0:0:
192,192,49302,1,0,0:0:0:40:Snare_2.wav
320,192,49379,1,0,0:0:0:0:
448,192,49379,1,4,0:0:0:0:
64,192,49379,1,0,0:0:0:40:Drum_Emphasis2.wav
192,192,49456,1,0,0:0:0:0:
320,192,49533,1,0,0:0:0:0:
448,192,49610,1,0,0:0:0:0:
64,192,49687,1,8,0:0:0:50:
320,192,49687,1,0,0:0:0:40:Drum_Emphasis2.wav
192,192,49764,1,0,0:0:0:0:
448,192,49841,1,0,0:0:0:0:
320,192,49918,1,0,0:0:0:0:
64,192,49995,1,0,0:0:0:40:Drum_Emphasis2.wav
192,192,49995,1,0,0:0:0:0:
448,192,50072,1,0,0:0:0:0:
64,192,50149,1,0,0:0:0:40:Drum_Emphasis2.wav
320,192,50149,1,0,0:0:0:0:
192,192,50225,1,0,0:0:0:0:
64,192,50302,1,0,0:0:0:40:Drum_Emphasis2.wav
448,192,50302,1,8,0:0:0:50:
192,192,50379,1,0,0:0:0:0:
448,192,50456,1,0,0:0:0:0:
320,192,50456,128,0,50764:0:0:0:40:Drum_Emphasis2.wav
64,192,50764,1,0,0:0:0:0:
448,192,50918,1,0,0:0:0:40:Drum_Emphasis2.wav
192,192,50918,1,8,0:0:0:50:
320,192,51072,1,0,0:0:0:0:
64,192,51225,1,0,0:0:0:0:
448,192,51225,1,0,0:0:0:40:Drum_Emphasis2.wav
320,192,51379,1,0,0:0:0:0:
448,192,51456,1,0,0:0:0:0:
320,192,51533,1,8,0:0:0:50:
64,192,51533,1,0,0:0:0:40:Drum_Emphasis2.wav
192,192,51687,1,0,0:0:0:0:
64,192,51764,1,0,0:0:0:0:
192,192,51841,1,0,0:0:0:40:Drum_Emphasis2.wav
448,192,51841,1,0,0:0:0:0:
320,192,51918,1,0,0:0:0:0:
192,192,51995,1,0,0:0:0:0:
64,192,52072,1,0,0:0:0:0:
320,192,52149,1,0,0:0:0:40:Drum_Emphasis2.wav
448,192,52149,1,8,0:0:0:50:
192,192,52225,1,0,0:0:0:0:
320,192,52302,1,0,0:0:0:0:
448,192,52379,1,0,0:0:0:0:
64,192,52456,1,0,0:0:0:40:Drum_Emphasis2.wav
320,192,52456,1,0,0:0:0:0:
192,192,52533,1,0,0:0:0:0:
448,192,52610,1,0,0:0:0:0:
64,192,52610,1,0,0:0:0:40:Drum_Emphasis2.wav
320,192,52687,1,0,0:0:0:0:
64,192,52764,1,8,0:0:0:50:
192,192,52764,1,0,0:0:0:40:Drum_Emphasis2.wav
320,192,52841,1,0,0:0:0:0:
448,192,52918,1,0,0:0:0:0:
64,192,52918,128,0,53225:0:0:0:40:Drum_Emphasis2.wav
192,192,53225,1,0,0:0:0:0:
320,192,53379,1,0,0:0:0:40:Drum_Emphasis2.wav
448,192,53379,1,8,0:0:0:50:
64,192,53533,1,0,0:0:0:0:
192,192,53687,1,0,0:0:0:40:Drum_Emphasis2.wav
320,192,53687,1,0,0:0:0:0:
192,192,53841,1,0,0:0:0:40:Drum_Emphasis2.wav
448,192,53841,1,0,0:0:0:0:
192,192,53995,1,0,0:0:0:40:Drum_Emphasis2.wav
448,192,53995,1,8,0:0:0:50:
320,192,54072,1,0,0:0:0:0:
192,192,54149,1,0,0:0:0:0:
64,192,54225,1,0,0:0:0:0:
320,192,54302,1,0,0:0:0:0:
448,192,54302,1,0,0:0:0:40:Drum_Emphasis2.wav
192,192,54379,1,0,0:0:0:0:
448,192,54456,1,0,0:0:0:0:
320,192,54533,1,0,0:0:0:0:
64,192,54610,1,0,0:0:0:40:Drum_Emphasis2.wav
448,192,54610,1,8,0:0:0:50:
192,192,54687,1,0,0:0:0:0:
320,192,54764,1,0,0:0:0:0:
448,192,54841,1,0,0:0:0:0:
64,192,54918,1,0,0:0:0:40:Drum_Emphasis2.wav
192,192,54918,1,0,0:0:0:0:
320,192,54995,1,0,0:0:0:0:
448,192,55072,1,0,0:0:0:0:
64,192,55072,1,0,0:0:0:40:Drum_Emphasis2.wav
192,192,55149,1,0,0:0:0:0:
64,192,55225,1,8,0:0:0:50:
320,192,55225,1,0,0:0:0:40:Drum_Emphasis2.wav
448,192,55302,1,0,0:0:0:0:
192,192,55379,128,0,55687:0:0:0:40:Drum_Emphasis2.wav
320,192,55379,1,0,0:0:0:0:
64,192,55687,1,0,0:0:0:0:
320,192,55841,1,0,0:0:0:40:Drum_Emphasis2.wav
448,192,55841,1,8,0:0:0:50:
64,192,55995,1,0,0:0:0:0:
192,192,56149,1,0,0:0:0:40:Drum_Emphasis2.wav
448,192,56149,1,0,0:0:0:0:
320,192,56302,1,0,0:0:0:0:
192,192,56379,1,0,0:0:0:0:
448,192,56456,1,8,0:0:0:50:
64,192,56456,1,0,0:0:0:40:Drum_Emphasis2.wav
192,192,56610,1,0,0:0:0:0:
320,192,56687,1,0,0:0:0:0:
64,192,56764,1,0,0:0:0:0:
448,192,56764,1,0,0:0:0:40:Drum_Emphasis2.wav
192,192,56841,1,0,0:0:0:0:
320,192,56918,1,0,0:0:0:0:
192,192,56995,1,0,0:0:0:0:
64,192,57072,1,8,0:0:0:50:
448,192,57072,1,0,0:0:0:40:Drum_Emphasis2.wav
320,192,57149,1,0,0:0:0:0:
64,192,57225,1,0,0:0:0:0:
192,192,57302,1,0,0:0:0:0:
448,192,57379,1,0,0:0:0:40:Drum_Emphasis2.wav
320,192,57379,1,0,0:0:0:0:
192,192,57456,1,0,0:0:0:0:
64,192,57533,1,0,0:0:0:0:
448,192,57533,1,0,0:0:0:40:Drum_Emphasis2.wav
320,192,57610,1,0,0:0:0:0:
192,192,57687,1,0,0:0:0:40:Drum_Emphasis2.wav
448,192,57687,1,8,0:0:0:50:
64,192,57764,1,0,0:0:0:0:
448,192,57841,1,0,0:0:0:0:
320,192,57841,128,0,58149:0:0:0:40:Drum_Emphasis2.wav
192,192,58149,1,0,0:0:0:0:
64,192,58302,1,8,0:0:0:50:
448,192,58302,1,0,0:0:0:40:Drum_Emphasis2.wav
192,192,58456,1,0,0:0:0:0:
320,192,58610,1,0,0:0:0:40:Drum_Emphasis2.wav
448,192,58610,1,8,0:0:0:50:
64,192,58764,1,0,0:0:0:0:
320,192,58764,1,0,0:0:0:40:Drum_Emphasis2.wav
64,192,58918,1,8,0:0:0:50:
192,192,58918,1,0,0:0:0:40:Snare_2.wav
448,192,58995,1,0,0:0:0:0:
320,192,58995,1,0,0:0:0:40:Snare_2.wav
64,192,59072,1,0,0:0:0:0:
192,192,59072,1,0,0:0:0:40:Snare_2.wav
448,192,59149,1,0,0:0:0:0:
320,192,59149,1,0,0:0:0:40:Snare_2.wav
64,192,59225,1,4,0:0:0:0:
448,192,59225,1,0,0:0:0:0:
192,192,59225,1,0,0:0:0:40:Drum_Emphasis2.wav
320,192,59379,1,0,0:0:0:0:
64,192,59533,1,0,0:0:0:0:
448,192,59533,1,0,0:0:0:20:Snare_2.wav
192,192,59687,1,0,0:0:0:0:
320,192,59841,1,0,0:0:0:0:
64,192,59841,1,0,0:0:0:40:Drum_Emphasis2.wav
448,192,59995,1,0,0:0:0:0:
320,192,60149,1,0,0:0:0:0:
192,192,60149,1,0,0:0:0:20:Snare_2.wav
448,192,60302,1,0,0:0:0:0:
64,192,60456,1,0,0:0:0:0:
320,192,60456,1,0,0:0:0:40:Drum_Emphasis2.wav
448,192,60610,1,0,0:0:0:0:
192,192,60764,1,0,0:0:0:0:
64,192,60764,1,0,0:0:0:20:Snare_2.wav
320,192,60918,1,0,0:0:0:0:
64,192,61072,1,0,0:0:0:40:Drum_Emphasis2.wav
448,192,61072,1,0,0:0:0:0:
192,192,61225,1,0,0:0:0:0:
64,192,61379,1,0,0:0:0:0:
320,192,61379,1,0,0:0:0:0:
448,192,61379,1,0,0:0:0:45:Snare_2.wav
192,192,61533,1,0,0:0:0:0:
320,192,61687,1,0,0:0:0:0:
448,192,61687,1,0,0:0:0:40:Drum_Emphasis2.wav
64,192,61841,1,0,0:0:0:0:
192,192,61995,1,0,0:0:0:0:
320,192,61995,1,0,0:0:0:0:
448,192,61995,1,0,0:0:0:45:Snare_2.wav
64,192,62149,1,0,0:0:0:0:
448,192,62302,1,0,0:0:0:40:Drum_Emphasis2.wav
192,192,62302,1,0,0:0:0:0:
320,192,62456,1,0,0:0:0:0:
192,192,62610,1,0,0:0:0:0:
64,192,62610,1,0,0:0:0:0:
448,192,62610,1,0,0:0:0:45:Snare_2.wav
320,192,62764,1,0,0:0:0:0:
64,192,62918,1,0,0:0:0:0:
448,192,62918,1,0,0:0:0:40:Drum_Emphasis2.wav
192,192,63072,1,0,0:0:0:0:
448,192,63225,1,0,0:0:0:45:Snare_2.wav
64,192,63225,1,0,0:0:0:0:
320,192,63225,1,0,0:0:0:0:
320,192,63379,1,0,0:0:0:0:
192,192,63533,1,0,0:0:0:0:
448,192,63533,1,0,0:0:0:40:Drum_Emphasis2.wav
64,192,63610,1,0,0:0:0:0:
192,192,63687,1,0,0:0:0:0:
320,192,63764,1,0,0:0:0:0:
64,192,63841,1,0,0:0:0:0:
448,192,63841,1,0,0:0:0:45:Snare_2.wav
320,192,63918,1,0,0:0:0:0:
192,192,63995,1,0,0:0:0:0:
64,192,64072,1,0,0:0:0:0:
448,192,64149,1,0,0:0:0:40:Drum_Emphasis2.wav
192,192,64149,1,0,0:0:0:0:
320,192,64302,1,0,0:0:0:0:
64,192,64456,1,0,0:0:0:0:
448,192,64456,1,0,0:0:0:20:Snare_2.wav
192,192,64610,1,0,0:0:0:0:
448,192,64764,1,0,0:0:0:40:Drum_Emphasis2.wav
320,192,64764,1,0,0:0:0:0:
64,192,64918,1,0,0:0:0:0:
320,192,65072,1,0,0:0:0:20:Snare_2.wav
192,192,65072,1,0,0:0:0:0:
448,192,65225,1,0,0:0:0:0:
64,192,65379,1,0,0:0:0:40:Drum_Emphasis2.wav
320,192,65379,1,0,0:0:0:0:
192,192,65533,1,0,0:0:0:0:
448,192,65687,1,0,0:0:0:0:
320,192,65687,1,0,0:0:0:20:Snare_2.wav
192,192,65841,1,0,0:0:0:0:
64,192,65995,1,0,0:0:0:40:Drum_Emphasis2.wav
320,192,65995,1,0,0:0:0:0:
192,192,66149,1,0,0:0:0:0:
448,192,66302,128,0,67379:0:0:0:0:
320,192,66302,1,0,0:0:0:0:
64,192,66302,1,0,0:0:0:45:Snare_2.wav
64,192,66610,1,0,0:0:0:40:Drum_Emphasis2.wav
320,192,66610,1,0,0:0:0:0:
64,192,66918,1,0,0:0:0:45:Snare_2.wav
192,192,66918,1,0,0:0:0:0:
320,192,67072,1,0,0:0:0:0:
64,192,67225,1,0,0:0:0:0:
192,192,67379,1,0,0:0:0:0:
320,192,67379,1,0,0:0:0:40:Drum_Emphasis2.wav
64,192,67533,1,0,0:0:0:45:Snare_2.wav
320,192,67533,1,0,0:0:0:0:
192,192,67687,128,0,68149:0:0:0:40:Drum_Emphasis2.wav
448,192,67687,1,0,0:0:0:0:
320,192,67995,1,0,0:0:0:0:
64,192,68149,1,0,0:0:0:0:
448,192,68149,1,0,0:0:0:45:Snare_2.wav
320,192,68302,1,0,0:0:0:0:
64,192,68456,1,0,0:0:0:40:Drum_Emphasis2.wav
192,192,68456,1,0,0:0:0:0:
320,192,68533,1,0,0:0:0:0:
192,192,68610,1,0,0:0:0:0:
64,192,68687,1,0,0:0:0:0:
192,192,68764,1,0,0:0:0:45:Snare_2.wav
448,192,68764,1,2,0:0:0:0:
320,192,68841,1,2,0:0:0:0:
64,192,68918,1,2,0:0:0:0:
192,192,68995,1,2,0:0:0:0:
64,192,69072,1,4,0:0:0:0:
320,192,69072,1,0,0:0:0:40:Drum_Emphasis2.wav
192,192,69225,1,0,0:0:0:0:
64,192,69379,1,0,0:0:0:0:
448,192,69379,1,0,0:0:0:45:Snare_2.wav
320,192,69533,1,0,0:0:0:0:
64,192,69687,1,0,0:0:0:40:Drum_Emphasis2.wav
192,192,69687,1,0,0:0:0:0:
448,192,69841,1,0,0:0:0:0:
64,192,69995,1,0,0:0:0:45:Snare_2.wav
320,192,69995,1,0,0:0:0:0:
448,192,70149,1,0,0:0:0:40:Drum_Emphasis2.wav
192,192,70149,1,0,0:0:0:0:
64,192,70302,1,0,0:0:0:0:
448,192,70456,1,0,0:0:0:0:
64,192,70610,1,0,0:0:0:45:Snare_2.wav
192,192,70610,1,0,0:0:0:0:
320,192,70764,1,0,0:0:0:0:
192,192,70918,1,0,0:0:0:0:
448,192,70918,1,0,0:0:0:40:Drum_Emphasis2.wav
320,192,71072,1,0,0:0:0:0:
192,192,71225,1,0,0:0:0:0:
64,192,71225,1,0,0:0:0:45:Snare_2.wav
320,192,71379,1,0,0:0:0:0:
448,192,71379,1,0,0:0:0:0:
64,192,71379,1,0,0:0:0:40:Drum_Emphasis2.wav
192,192,71687,1,0,0:0:0:0:
320,192,71687,1,0,0:0:0:40:Drum_Emphasis2.wav
64,192,71841,1,0,0:0:0:0:
320,192,71841,1,0,0:0:0:40:Drum_Emphasis2.wav
448,192,71841,1,0,0:0:0:45:Snare_2.wav
192,192,71995,1,0,0:0:0:40:Drum_Emphasis2.wav
448,192,71995,1,0,0:0:0:0:
192,192,72149,1,0,0:0:0:40:Drum_Emphasis2.wav
320,192,72149,1,0,0:0:0:0:
64,192,72149,1,0,0:0:0:55:Snare_2.wav
64,192,72302,1,0,0:0:0:0:
192,192,72302,1,0,0:0:0:40:Drum_Emphasis2.wav
320,192,72302,1,0,0:0:0:0:
448,192,72456,1,0,0:0:0:0:
320,192,72456,1,0,0:0:0:40:Drum_Emphasis2.wav
448,192,72610,1,0,0:0:0:0:
192,192,72610,1,0,0:0:0:40:Drum_Emphasis2.wav
64,192,72610,1,0,0:0:0:55:Snare_2.wav
64,192,72918,1,0,0:0:0:0:
192,192,72918,1,0,0:0:0:40:Drum_Emphasis2.wav
448,192,72918,1,0,0:0:0:0:
320,192,73072,1,0,0:0:0:0:
448,192,73072,1,0,0:0:0:45:Snare_2.wav
192,192,73072,1,0,0:0:0:40:Drum_Emphasis2.wav
64,192,73379,1,0,0:0:0:45:Snare_2.wav
192,192,73379,1,0,0:0:0:40:Drum_Emphasis2.wav
320,192,73379,1,0,0:0:0:0:
64,192,73687,1,0,0:0:0:45:Snare_2.wav
320,192,73687,1,0,0:0:0:40:Drum_Emphasis2.wav
448,192,73687,1,0,0:0:0:0:
64,192,73995,1,0,0:0:0:45:Snare_2.wav
192,192,73995,1,0,0:0:0:40:Drum_Emphasis2.wav
448,192,73995,1,0,0:0:0:0:
64,192,74302,1,0,0:0:0:0:
192,192,74610,1,0,0:0:0:0:
320,192,74610,1,0,0:0:0:0:
448,192,74610,1,0,0:0:0:50:Snare_2.wav
320,192,74918,1,0,0:0:0:0:
64,192,75225,1,0,0:0:0:50:Snare_2.wav
192,192,75225,1,0,0:0:0:0:
448,192,75225,1,0,0:0:0:0:
192,192,75533,1,0,0:0:0:0:
448,192,75841,128,0,76456:0:0:0:50:Snare_2.wav
320,192,75841,128,0,77379:0:0:0:0:
64,192,75841,128,0,76456:0:0:0:0:
192,192,76149,1,0,0:0:0:0:
192,192,76456,128,0,77379:0:0:0:50:Snare_2.wav
64,192,76764,1,0,0:0:0:50:Snare_2.wav
448,192,76764,1,0,0:0:0:0:
64,192,77072,1,0,0:0:0:50:Snare_2.wav
448,192,77072,1,0,0:0:0:0:
64,192,77379,128,0,77687:0:0:0:50:Snare_2.wav
192,192,77687,128,0,78302:0:0:0:0:
448,192,77687,128,0,78302:0:0:0:50:Snare_2.wav
320,192,78302,1,0,0:0:0:0:
64,192,78302,1,0,0:0:0:25:Snare_2.wav
192,192,78379,1,0,0:0:0:25:Snare_2.wav
320,192,78456,1,0,0:0:0:25:Snare_2.wav
448,192,78533,1,0,0:0:0:25:Snare_2.wav
64,192,78610,1,0,0:0:0:0:
192,192,78610,1,0,0:0:0:40:Snare_2.wav
320,192,78687,1,0,0:0:0:40:Snare_2.wav
448,192,78687,1,0,0:0:0:0:
64,192,78764,1,0,0:0:0:0:
192,192,78764,1,0,0:0:0:40:Snare_2.wav
320,192,78841,1,0,0:0:0:40:Snare_2.wav
448,192,78841,1,0,0:0:0:0:
64,192,78918,1,8,0:0:0:50:
192,192,78918,1,0,0:0:0:40:Drum_Emphasis2.wav
448,192,78918,1,0,0:0:0:0:
320,192,78995,1,0,0:0:0:0:
192,192,79072,1,0,0:0:0:0:
64,192,79149,1,0,0:0:0:0:
192,192,79225,1,0,0:0:0:40:Drum_Emphasis2.wav
448,192,79225,1,8,0:0:0:50:
320,192,79302,1,0,0:0:0:0:
448,192,79379,1,0,0:0:0:0:
320,192,79456,1,0,0:0:0:0:
64,192,79533,1,0,0:0:0:40:Drum_Emphasis2.wav
448,192,79533,1,8,0:0:0:50:
192,192,79610,1,0,0:0:0:0:
320,192,79687,1,0,0:0:0:0:
448,192,79764,1,0,0:0:0:0:
64,192,79841,1,8,0:0:0:50:
192,192,79841,1,0,0:0:0:40:Drum_Emphasis2.wav
320,192,79918,1,0,0:0:0:0:
448,192,79995,1,8,0:0:0:50:
64,192,79995,1,0,0:0:0:40:Drum_Emphasis2.wav
320,192,80072,1,0,0:0:0:0:
192,192,80149,1,0,0:0:0:0:
64,192,80225,1,0,0:0:0:0:
192,192,80302,1,0,0:0:0:0:
320,192,80379,1,0,0:0:0:0:
64,192,80456,1,0,0:0:0:40:Drum_Emphasis2.wav
448,192,80456,1,8,0:0:0:50:
320,192,80533,1,0,0:0:0:0:
64,192,80610,1,0,0:0:0:0:
192,192,80687,1,0,0:0:0:0:
320,192,80764,1,0,0:0:0:40:Drum_Emphasis2.wav
448,192,80764,1,8,0:0:0:50:
64,192,80841,1,0,0:0:0:0:
192,192,80918,1,0,0:0:0:0:
320,192,80995,1,0,0:0:0:0:
448,192,81072,1,8,0:0:0:50:
192,192,81072,1,0,0:0:0:40:Drum_Emphasis2.wav
64,192,81149,1,0,0:0:0:0:
320,192,81225,1,8,0:0:0:50:
192,192,81225,128,0,81533:0:0:0:40:Drum_Emphasis2.wav
64,192,81533,1,0,0:0:0:0:
320,192,81533,1,0,0:0:0:40:Drum_Emphasis2.wav
192,192,81687,1,0,0:0:0:40:Drum_Emphasis2.wav
448,192,81687,1,8,0:0:0:50:
192,192,81841,1,0,0:0:0:40:Drum_Emphasis2.wav
320,192,81841,1,0,0:0:0:0:
64,192,81995,1,0,0:0:0:0:
448,192,81995,1,8,0:0:0:50:
320,192,81995,1,0,0:0:0:40:Drum_Emphasis2.wav
192,192,82149,1,0,0:0:0:40:Drum_Emphasis2.wav
64,192,82149,1,0,0:0:0:0:
320,192,82302,1,0,0:0:0:40:Drum_Emphasis2.wav
448,192,82302,1,0,0:0:0:0:
64,192,82456,128,8,82764:0:0:0:50:
192,192,82456,1,0,0:0:0:0:
320,192,82456,1,0,0:0:0:40:Drum_Emphasis2.wav
448,192,82764,1,0,0:0:0:0:
320,192,82918,1,0,0:0:0:0:
64,192,82918,1,8,0:0:0:50:
192,192,82918,1,0,0:0:0:40:Drum_Emphasis2.wav
192,192,83072,1,0,0:0:0:0:
320,192,83225,1,0,0:0:0:40:Drum_Emphasis2.wav
448,192,83225,1,0,0:0:0:0:
64,192,83225,1,8,0:0:0:50:
64,192,83533,1,0,0:0:0:40:Drum_Emphasis2.wav
320,192,83533,1,0,0:0:0:0:
192,192,83610,1,0,0:0:0:0:
448,192,83687,1,0,0:0:0:0:
320,192,83764,1,0,0:0:0:0:
64,192,83841,1,0,0:0:0:40:Drum_Emphasis2.wav
448,192,83841,1,8,0:0:0:50:
192,192,83918,1,0,0:0:0:0:
320,192,83995,1,0,0:0:0:0:
448,192,84072,1,0,0:0:0:0:
64,192,84149,1,8,0:0:0:50:
192,192,84149,1,0,0:0:0:40:Drum_Emphasis2.wav
320,192,84225,1,0,0:0:0:0:
192,192,84302,1,0,0:0:0:0:
64,192,84379,1,0,0:0:0:0:
448,192,84456,1,8,0:0:0:50:
320,192,84456,1,0,0:0:0:40:Drum_Emphasis2.wav
192,192,84533,1,0,0:0:0:0:
448,192,84610,1,0,0:0:0:0:
320,192,84687,1,0,0:0:0:0:
64,192,84764,1,8,0:0:0:50:
192,192,84764,1,0,0:0:0:40:Drum_Emphasis2.wav
320,192,84841,1,0,0:0:0:0:
64,192,84918,1,8,0:0:0:50:
448,192,84918,1,0,0:0:0:40:Drum_Emphasis2.wav
192,192,84995,1,0,0:0:0:0:
320,192,85072,1,0,0:0:0:0:
448,192,85149,1,0,0:0:0:0:
320,192,85225,1,0,0:0:0:0:
192,192,85302,1,0,0:0:0:0:
64,192,85379,1,0,0:0:0:40:Drum_Emphasis2.wav
448,192,85379,1,8,0:0:0:50:
320,192,85456,1,0,0:0:0:0:
192,192,85533,1,0,0:0:0:0:
320,192,85610,1,0,0:0:0:0:
64,192,85687,1,0,0:0:0:40:Drum_Emphasis2.wav
448,192,85687,1,8,0:0:0:50:
320,192,85764,1,0,0:0:0:0:
64,192,85841,1,0,0:0:0:0:
192,192,85918,1,0,0:0:0:0:
448,192,85995,1,8,0:0:0:50:
320,192,85995,1,0,0:0:0:40:Drum_Emphasis2.wav
192,192,86072,1,0,0:0:0:0:
64,192,86149,128,0,86456:0:0:0:40:Drum_Emphasis2.wav
448,192,86149,1,8,0:0:0:50:
320,192,86456,128,0,86610:0:0:0:0:
192,192,86610,128,0,86764:0:0:0:40:Drum_Emphasis2.wav
448,192,86610,128,8,86764:0:0:0:50:
64,192,86764,128,0,86918:0:0:0:0:
320,192,86918,128,0,87072:0:0:0:40:Drum_Emphasis2.wav
448,192,86918,128,8,87072:0:0:0:50:
64,192,87072,128,0,87225:0:0:0:0:
192,192,87072,128,0,87225:0:0:0:40:Drum_Emphasis2.wav
320,192,87225,128,0,87379:0:0:0:40:Drum_Emphasis2.wav
448,192,87225,128,0,87379:0:0:0:0:
64,192,87379,128,8,87687:0:0:0:50:
192,192,87379,128,0,87687:0:0:0:40:Drum_Emphasis2.wav
320,192,87687,1,0,0:0:0:40:Drum_Emphasis2.wav
448,192,87687,1,0,0:0:0:0:
64,192,87841,1,8,0:0:0:50:
192,192,87841,1,0,0:0:0:40:Drum_Emphasis2.wav
448,192,87841,1,0,0:0:0:0:
64,192,87995,1,0,0:0:0:0:
320,192,87995,1,0,0:0:0:40:Drum_Emphasis2.wav
192,192,88149,1,0,0:0:0:0:
320,192,88149,1,0,0:0:0:40:Drum_Emphasis2.wav
448,192,88149,1,8,0:0:0:50:
64,192,88302,1,0,0:0:0:0:
320,192,88302,1,0,0:0:0:40:Drum_Emphasis2.wav
448,192,88456,1,2,0:0:0:45:
320,192,88533,1,2,0:0:0:45:
192,192,88610,1,2,0:0:0:45:
64,192,88687,1,2,0:0:0:45:
192,192,88764,1,8,0:0:0:50:
448,192,88764,1,4,0:0:0:0:
320,192,88841,1,0,0:0:0:0:
64,192,88918,1,0,0:0:0:0:
192,192,88995,1,0,0:0:0:0:
320,192,89072,1,0,0:0:0:40:Drum_Emphasis2.wav
448,192,89072,1,8,0:0:0:50:
64,192,89149,1,0,0:0:0:0:
192,192,89225,1,0,0:0:0:0:
320,192,89302,1,0,0:0:0:0:
64,192,89379,1,0,0:0:0:40:Drum_Emphasis2.wav
448,192,89379,1,8,0:0:0:50:
320,192,89456,1,0,0:0:0:0:
64,192,89533,1,0,0:0:0:0:
192,192,89610,1,0,0:0:0:0:
448,192,89687,1,8,0:0:0:50:
320,192,89687,1,0,0:0:0:40:Drum_Emphasis2.wav
192,192,89764,1,0,0:0:0:0:
64,192,89841,1,0,0:0:0:0:
448,192,89841,1,8,0:0:0:50:
320,192,89841,128,0,90149:0:0:0:40:Drum_Emphasis2.wav
64,192,90149,1,0,0:0:0:0:
192,192,90149,1,0,0:0:0:40:Drum_Emphasis2.wav
192,192,90302,1,0,0:0:0:40:Drum_Emphasis2.wav
448,192,90302,1,8,0:0:0:50:
64,192,90456,1,0,0:0:0:40:Drum_Emphasis2.wav
320,192,90456,1,0,0:0:0:0:
64,192,90610,1,0,0:0:0:40:Drum_Emphasis2.wav
448,192,90610,1,8,0:0:0:50:
320,192,90687,1,0,0:0:0:0:
192,192,90764,1,0,0:0:0:0:
64,192,90841,1,0,0:0:0:0:
192,192,90918,1,0,0:0:0:40:Drum_Emphasis2.wav
448,192,90918,1,8,0:0:0:50:
64,192,90995,1,0,0:0:0:0:
448,192,91072,128,8,91379:0:0:0:50:
320,192,91072,128,0,91379:0:0:0:40:Drum_Emphasis2.wav
64,192,91379,1,0,0:0:0:0:
192,192,91379,1,0,0:0:0:40:Drum_Emphasis2.wav
192,192,91533,1,0,0:0:0:40:Drum_Emphasis2.wav
448,192,91533,1,8,0:0:0:50:
64,192,91687,1,0,0:0:0:0:
320,192,91687,1,0,0:0:0:40:Drum_Emphasis2.wav
320,192,91841,1,0,0:0:0:0:
448,192,91841,1,8,0:0:0:50:
192,192,91841,1,0,0:0:0:40:Drum_Emphasis2.wav
64,192,91995,1,0,0:0:0:0:
192,192,91995,1,0,0:0:0:40:Drum_Emphasis2.wav
448,192,92149,1,0,0:0:0:0:
320,192,92149,1,0,0:0:0:40:Drum_Emphasis2.wav
64,192,92302,128,0,92610:0:0:0:0:
192,192,92302,1,0,0:0:0:40:Drum_Emphasis2.wav
448,192,92302,1,8,0:0:0:50:
448,192,92610,128,0,92764:0:0:0:0:
192,192,92764,128,0,92918:0:0:0:40:Drum_Emphasis2.wav
320,192,92764,128,8,92918:0:0:0:50:
448,192,92918,128,0,93072:0:0:0:0:
64,192,93072,128,0,93379:0:0:0:40:Drum_Emphasis2.wav
320,192,93072,128,8,93379:0:0:0:50:
448,192,93379,128,8,93687:0:0:0:50:
192,192,93379,128,0,93687:0:0:0:40:Drum_Emphasis2.wav
64,192,93687,1,0,0:0:0:40:Drum_Emphasis2.wav
320,192,93687,1,8,0:0:0:50:
64,192,93995,1,0,0:0:0:40:Drum_Emphasis2.wav
192,192,93995,1,0,0:0:0:0:
448,192,94302,128,0,94918:0:0:0:40:Drum_Emphasis2.wav
192,192,94302,1,0,0:0:0:0:
320,192,94302,1,0,0:0:0:0:
64,192,94610,1,0,0:0:0:40:Drum_Emphasis2.wav
192,192,94610,1,0,0:0:0:0:
320,192,94918,1,8,0:0:0:50:
64,192,94918,1,0,0:0:0:40:Drum_Emphasis2.wav
320,192,95225,1,0,0:0:0:0:
192,192,95225,1,0,0:0:0:40:Drum_Emphasis2.wav
192,192,95533,128,0,95841:0:0:0:40:Drum_Emphasis2.wav
448,192,95533,1,0,0:0:0:0:
320,192,95841,1,0,0:0:0:40:Drum_Emphasis2.wav
64,192,95841,1,0,0:0:0:0:
192,192,96149,1,8,0:0:0:50:
320,192,96149,128,0,97020:0:0:0:40:Drum_Emphasis2.wav
64,192,96456,1,0,0:0:0:40:Drum_Emphasis2.wav
448,192,96456,1,0,0:0:0:0:
64,192,96764,1,0,0:0:0:40:Drum_Emphasis2.wav
192,192,96764,1,0,0:0:0:0:
448,192,97020,1,0,0:0:0:0:
192,192,97020,1,0,0:0:0:40:Drum_Emphasis2.wav
192,192,97225,128,0,97687:0:0:0:40:Drum_Emphasis2.wav
448,192,97225,128,0,97687:0:0:0:0:
192,192,97995,1,0,0:0:0:0:
320,192,97995,1,0,0:0:0:0:
448,192,97995,1,0,0:0:0:40:Drum_Emphasis2.wav
64,192,98149,1,0,0:0:0:40:Drum_Emphasis2.wav
192,192,98149,1,0,0:0:0:0:
320,192,98149,1,0,0:0:0:0:
64,192,98610,128,0,100764:0:0:0:0:
192,192,98610,1,0,0:0:0:40:Drum_Emphasis2.wav
320,192,98610,1,0,0:0:0:0:
320,192,98764,1,0,0:0:0:0:
192,192,98918,1,0,0:0:0:40:Drum_Emphasis2.wav
448,192,98918,1,8,0:0:0:50:
320,192,99072,1,0,0:0:0:0:
192,192,99225,1,0,0:0:0:0:
448,192,99225,1,0,0:0:0:40:Drum_Emphasis2.wav
448,192,99379,1,0,0:0:0:40:Drum_Emphasis2.wav
320,192,99379,1,0,0:0:0:0:
192,192,99533,1,8,0:0:0:50:
320,192,99610,1,0,0:0:0:0:
448,192,99687,128,0,99995:0:0:0:40:Drum_Emphasis2.wav
320,192,99995,1,0,0:0:0:0:
192,192,100149,1,0,0:0:0:40:Drum_Emphasis2.wav
448,192,100149,1,8,0:0:0:50:
320,192,100302,1,0,0:0:0:0:
192,192,100456,1,0,0:0:0:40:Drum_Emphasis2.wav
448,192,100456,1,0,0:0:0:0:
320,192,100610,1,0,0:0:0:0:
448,192,100687,1,0,0:0:0:0:
192,192,100764,128,0,101072:0:0:0:40:Drum_Emphasis2.wav
320,192,100764,1,8,0:0:0:50:
448,192,101072,128,0,103072:0:0:0:0:
64,192,101072,1,0,0:0:0:0:
320,192,101072,1,0,0:0:0:40:Drum_Emphasis2.wav
192,192,101225,1,0,0:0:0:0:
320,192,101379,1,0,0:0:0:40:Drum_Emphasis2.wav
64,192,101379,1,8,0:0:0:50:
64,192,101533,1,0,0:0:0:0:
192,192,101687,1,0,0:0:0:40:Drum_Emphasis2.wav
320,192,101687,1,0,0:0:0:0:
64,192,101841,1,0,0:0:0:0:
192,192,101841,1,0,0:0:0:40:Drum_Emphasis2.wav
320,192,101995,1,8,0:0:0:50:
192,192,102072,1,0,0:0:0:0:
64,192,102149,128,0,102456:0:0:0:40:Drum_Emphasis2.wav
320,192,102456,1,0,0:0:0:0:
64,192,102610,1,8,0:0:0:50:
192,192,102610,1,0,0:0:0:40:Drum_Emphasis2.wav
320,192,102764,1,0,0:0:0:0:
64,192,102918,1,0,0:0:0:0:
192,192,102918,1,0,0:0:0:40:Drum_Emphasis2.wav
64,192,103072,1,0,0:0:0:0:
320,192,103072,1,0,0:0:0:40:Drum_Emphasis2.wav
320,192,103225,1,0,0:0:0:40:Drum_Emphasis2.wav
448,192,103225,1,8,0:0:0:50:
64,192,103533,128,0,105687:0:0:0:0:
192,192,103533,128,0,105995:0:0:0:0:
448,192,103533,128,0,105995:0:0:0:0:
320,192,105687,128,0,107995:0:0:0:0:
64,192,105995,128,0,107995:0:0:0:0:
192,192,107841,1,0,0:0:0:0:
192,192,107995,1,0,0:0:0:0:
448,192,107995,1,0,0:0:0:0:
64,192,108149,1,0,0:0:0:0:
320,192,108149,1,0,0:0:0:0:
320,192,108302,1,0,0:0:0:0:
448,192,108302,1,0,0:0:0:0:
64,192,108456,1,4,0:0:0:0:
192,192,108456,1,0,0:0:0:40:Drum_Emphasis2.wav
320,192,108610,1,0,0:0:0:0:
192,192,108764,1,0,0:0:0:0:
448,192,108764,1,0,0:0:0:20:Snare_2.wav
64,192,108918,1,0,0:0:0:0:
320,192,109072,128,0,109687:0:0:0:0:
448,192,109072,1,0,0:0:0:40:Drum_Emphasis2.wav
192,192,109379,1,0,0:0:0:0:
448,192,109379,1,0,0:0:0:20:Snare_2.wav
64,192,109533,1,0,0:0:0:0:
192,192,109687,128,0,110302:0:0:0:0:
448,192,109687,1,0,0:0:0:40:Drum_Emphasis2.wav
320,192,109995,1,0,0:0:0:0:
448,192,109995,1,0,0:0:0:20:Snare_2.wav
64,192,110149,1,0,0:0:0:0:
320,192,110302,1,0,0:0:0:0:
448,192,110302,1,0,0:0:0:40:Drum_Emphasis2.wav
448,192,110456,1,0,0:0:0:0:
192,192,110456,1,0,0:0:0:40:Drum_Emphasis2.wav
320,192,110610,1,0,0:0:0:0:
64,192,110610,1,0,0:0:0:35:Snare_2.wav
320,192,110764,1,0,0:0:0:0:
448,192,110764,1,0,0:0:0:40:Drum_Emphasis2.wav
64,192,110918,1,0,0:0:0:0:
192,192,111072,1,0,0:0:0:0:
64,192,111225,1,0,0:0:0:0:
320,192,111225,1,0,0:0:0:0:
448,192,111225,1,0,0:0:0:45:Snare_2.wav
192,192,111379,1,0,0:0:0:0:
64,192,111533,1,0,0:0:0:0:
448,192,111533,1,0,0:0:0:40:Drum_Emphasis2.wav
320,192,111687,1,0,0:0:0:0:
64,192,111841,1,0,0:0:0:0:
192,192,111841,1,0,0:0:0:0:
448,192,111841,1,0,0:0:0:45:Snare_2.wav
448,192,111995,1,0,0:0:0:40:Drum_Emphasis2.wav
320,192,111995,1,0,0:0:0:0:
64,192,112149,1,0,0:0:0:0:
192,192,112302,1,0,0:0:0:40:Drum_Emphasis2.wav
320,192,112302,1,0,0:0:0:0:
64,192,112456,1,0,0:0:0:0:
448,192,112456,1,0,0:0:0:45:Snare_2.wav
192,192,112456,1,0,0:0:0:40:Drum_Emphasis2.wav
320,192,112610,1,0,0:0:0:0:
64,192,112764,1,0,0:0:0:0:
192,192,112764,1,0,0:0:0:40:Drum_Emphasis2.wav
448,192,112841,1,0,0:0:0:0:
320,192,112918,1,0,0:0:0:0:
192,192,112995,1,0,0:0:0:0:
64,192,113072,1,0,0:0:0:0:
448,192,113072,1,0,0:0:0:45:Snare_2.wav
192,192,113149,1,0,0:0:0:0:
320,192,113225,1,0,0:0:0:0:
192,192,113302,1,0,0:0:0:0:
64,192,113379,1,0,0:0:0:0:
320,192,113379,1,0,0:0:0:40:Drum_Emphasis2.wav
448,192,113533,1,0,0:0:0:0:
320,192,113687,1,0,0:0:0:0:
192,192,113687,1,0,0:0:0:20:Snare_2.wav
448,192,113841,1,0,0:0:0:0:
64,192,113995,128,0,114610:0:0:0:0:
320,192,113995,1,0,0:0:0:40:Drum_Emphasis2.wav
448,192,114302,1,0,0:0:0:20:Snare_2.wav
320,192,114302,1,0,0:0:0:0:
192,192,114456,1,0,0:0:0:0:
448,192,114610,1,0,0:0:0:0:
320,192,114610,1,0,0:0:0:40:Drum_Emphasis2.wav
64,192,114764,1,0,0:0:0:0:
448,192,114918,1,0,0:0:0:20:Snare_2.wav
192,192,114918,1,0,0:0:0:0:
320,192,115072,1,0,0:0:0:0:
64,192,115225,1,0,0:0:0:0:
192,192,115225,1,0,0:0:0:40:Drum_Emphasis2.wav
320,192,115379,1,0,0:0:0:0:
64,192,115533,1,0,0:0:0:45:Snare_2.wav
448,192,115533,128,0,116610:0:0:0:0:
192,192,115533,1,0,0:0:0:0:
64,192,115841,1,0,0:0:0:40:Drum_Emphasis2.wav
320,192,115841,1,0,0:0:0:0:
64,192,115995,1,0,0:0:0:0:
320,192,116149,1,0,0:0:0:45:Snare_2.wav
192,192,116149,1,0,0:0:0:0:
320,192,116302,1,0,0:0:0:0:
64,192,116456,1,0,0:0:0:40:Drum_Emphasis2.wav
192,192,116456,1,0,0:0:0:0:
64,192,116610,1,0,0:0:0:40:Drum_Emphasis2.wav
320,192,116610,1,0,0:0:0:0:
192,192,116764,1,0,0:0:0:0:
448,192,116764,1,0,0:0:0:45:Snare_2.wav
320,192,116918,128,0,117687:0:0:0:0:
64,192,116918,1,0,0:0:0:40:Drum_Emphasis2.wav
192,192,117225,1,0,0:0:0:0:
64,192,117379,1,0,0:0:0:0:
448,192,117379,1,0,0:0:0:45:Snare_2.wav
192,192,117533,1,0,0:0:0:0:
64,192,117687,1,0,0:0:0:40:Drum_Emphasis2.wav
448,192,117687,1,0,0:0:0:0:
192,192,117764,1,0,0:0:0:0:
320,192,117841,1,0,0:0:0:0:
448,192,117918,1,0,0:0:0:0:
64,192,117995,1,2,0:0:0:45:
320,192,117995,1,0,0:0:0:45:Snare_2.wav
192,192,118072,1,2,0:0:0:45:
448,192,118149,1,2,0:0:0:45:
320,192,118225,1,2,0:0:0:45:
192,192,118302,128,0,118610:0:0:0:0:
64,192,118302,1,0,0:0:0:0:
320,192,118610,1,0,0:0:0:0:
448,192,118610,1,0,0:0:0:40:Drum_Emphasis2.wav
64,192,118687,1,0,0:0:0:40:Drum_Emphasis2.wav
192,192,118687,1,0,0:0:0:0:
320,192,118764,1,0,0:0:0:0:
448,192,118764,1,0,0:0:0:40:Drum_Emphasis2.wav
64,192,118841,1,0,0:0:0:40:Drum_Emphasis2.wav
192,192,118841,1,0,0:0:0:0:
320,192,118918,1,0,0:0:0:0:
448,192,118918,1,0,0:0:0:40:Drum_Emphasis2.wav
64,192,119379,1,0,0:0:0:0:
192,192,119379,1,0,0:0:0:40:Drum_Emphasis2.wav
448,192,119379,128,0,119687:0:0:0:0:
320,192,119687,1,0,0:0:0:0:
64,192,119841,1,0,0:0:0:0:
448,192,119841,1,0,0:0:0:20:Snare_2.wav
320,192,119995,1,0,0:0:0:0:
192,192,120149,1,0,0:0:0:0:
448,192,120149,1,0,0:0:0:40:Drum_Emphasis2.wav
64,192,120302,1,0,0:0:0:0:
320,192,120456,1,0,0:0:0:40:Snare_2.wav
192,192,120456,1,0,0:0:0:0:
448,192,120610,1,0,0:0:0:0:
64,192,120764,1,0,0:0:0:40:Drum_Emphasis2.wav
320,192,120764,1,0,0:0:0:0:
192,192,120918,1,0,0:0:0:0:
448,192,121072,1,0,0:0:0:45:Snare_2.wav
320,192,121072,1,0,0:0:0:0:
64,192,121225,1,0,0:0:0:0:
192,192,121379,1,0,0:0:0:0:
448,192,121379,1,0,0:0:0:40:Drum_Emphasis2.wav
64,192,121533,1,0,0:0:0:0:
320,192,121687,1,0,0:0:0:0:
448,192,121687,1,0,0:0:0:45:Snare_2.wav
64,192,121841,1,0,0:0:0:0:
320,192,121841,1,0,0:0:0:40:Drum_Emphasis2.wav
192,192,121995,1,0,0:0:0:0:
64,192,122149,1,0,0:0:0:40:Drum_Emphasis2.wav
448,192,122149,1,0,0:0:0:0:
192,192,122302,1,0,0:0:0:45:Snare_2.wav
320,192,122302,1,0,0:0:0:0:
64,192,122456,1,0,0:0:0:40:Drum_Emphasis2.wav
192,192,122456,1,0,0:0:0:0:
320,192,122610,1,0,0:0:0:40:Drum_Emphasis2.wav
448,192,122610,1,0,0:0:0:0:
192,192,122764,1,0,0:0:0:0:
64,192,122918,1,0,0:0:0:45:Snare_2.wav
320,192,122918,1,0,0:0:0:0:
192,192,122995,1,0,0:0:0:0:
448,192,123072,1,0,0:0:0:0:
320,192,123149,1,0,0:0:0:0:
64,192,123225,128,0,123841:0:0:0:0:
192,192,123225,1,0,0:0:0:40:Drum_Emphasis2.wav
320,192,123533,1,0,0:0:0:45:Snare_2.wav
448,192,123533,1,0,0:0:0:0:
320,192,123687,1,0,0:0:0:0:
192,192,123841,1,0,0:0:0:40:Drum_Emphasis2.wav
448,192,123841,1,0,0:0:0:0:
64,192,123995,1,0,0:0:0:0:
320,192,123995,1,0,0:0:0:40:Drum_Emphasis2.wav
64,192,124149,1,0,0:0:0:0:
320,192,124149,1,0,0:0:0:45:Snare_2.wav
64,192,124302,1,0,0:0:0:40:Drum_Emphasis2.wav
192,192,124302,1,0,0:0:0:0:
448,192,124456,1,0,0:0:0:0:
192,192,124610,1,0,0:0:0:0:
320,192,124764,1,0,0:0:0:0:
448,192,124764,1,0,0:0:0:45:Snare_2.wav
64,192,124918,1,0,0:0:0:0:
192,192,125072,1,0,0:0:0:0:
320,192,125072,1,0,0:0:0:40:Drum_Emphasis2.wav
448,192,125149,1,0,0:0:0:0:
320,192,125225,1,0,0:0:0:0:
192,192,125302,1,0,0:0:0:0:
64,192,125379,1,0,0:0:0:0:
448,192,125379,1,0,0:0:0:45:Snare_2.wav
192,192,125456,1,0,0:0:0:0:
320,192,125533,1,0,0:0:0:0:
448,192,125610,1,0,0:0:0:0:
320,192,125687,128,0,126302:0:0:0:40:Drum_Emphasis2.wav
64,192,125687,1,0,0:0:0:0:
448,192,125995,1,0,0:0:0:45:Snare_2.wav
192,192,125995,1,0,0:0:0:0:
192,192,126149,1,0,0:0:0:0:
64,192,126302,1,0,0:0:0:40:Drum_Emphasis2.wav
448,192,126302,1,0,0:0:0:0:
64,192,126456,1,0,0:0:0:40:Drum_Emphasis2.wav
320,192,126456,1,0,0:0:0:0:
320,192,126610,1,0,0:0:0:0:
448,192,126610,1,0,0:0:0:45:Snare_2.wav
64,192,126764,128,0,127841:0:0:0:0:
448,192,126764,128,0,127225:0:0:0:40:Drum_Emphasis2.wav
192,192,127072,1,0,0:0:0:0:
320,192,127225,1,0,0:0:0:45:Snare_2.wav
448,192,127302,1,0,0:0:0:0:
320,192,127379,1,0,0:0:0:0:
448,192,127456,1,0,0:0:0:0:
320,192,127533,128,0,127841:0:0:0:0:
192,192,127841,1,0,0:0:0:45:Snare_2.wav
448,192,127841,1,2,0:0:0:45:
64,192,127918,1,2,0:0:0:45:
192,192,127995,1,2,0:0:0:45:
320,192,128072,1,2,0:0:0:45:
64,192,128149,1,4,0:0:0:0:
192,192,128149,1,0,0:0:0:40:Drum_Emphasis2.wav
448,192,128302,1,0,0:0:0:0:
64,192,128456,1,0,0:0:0:20:Snare_2.wav
320,192,128456,1,0,0:0:0:0:
192,192,128610,1,0,0:0:0:0:
448,192,128764,1,0,0:0:0:40:Drum_Emphasis2.wav
320,192,128764,128,0,129379:0:0:0:0:
64,192,129072,1,0,0:0:0:20:Snare_2.wav
448,192,129072,1,0,0:0:0:0:
64,192,129225,1,0,0:0:0:0:
448,192,129379,1,0,0:0:0:40:Drum_Emphasis2.wav
192,192,129379,128,0,129995:0:0:0:0:
64,192,129687,1,0,0:0:0:20:Snare_2.wav
320,192,129687,1,0,0:0:0:0:
320,192,129841,1,0,0:0:0:0:
448,192,129995,1,0,0:0:0:40:Drum_Emphasis2.wav
64,192,129995,1,0,0:0:0:0:
192,192,130149,1,0,0:0:0:0:
448,192,130302,1,0,0:0:0:45:Snare_2.wav
320,192,130302,1,0,0:0:0:0:
64,192,130302,1,0,0:0:0:0:
192,192,130456,1,0,0:0:0:0:
448,192,130610,1,0,0:0:0:40:Drum_Emphasis2.wav
320,192,130610,1,0,0:0:0:0:
64,192,130764,1,0,0:0:0:0:
448,192,130918,1,0,0:0:0:45:Snare_2.wav
192,192,130918,1,0,0:0:0:0:
320,192,130918,1,0,0:0:0:0:
64,192,131072,1,0,0:0:0:0:
192,192,131225,1,0,0:0:0:40:Drum_Emphasis2.wav
320,192,131225,1,0,0:0:0:0:
448,192,131379,1,0,0:0:0:0:
64,192,131533,1,0,0:0:0:45:Snare_2.wav
192,192,131533,1,0,0:0:0:0:
320,192,131533,1,0,0:0:0:0:
448,192,131687,128,0,131995:0:0:0:40:Drum_Emphasis2.wav
64,192,131687,1,0,0:0:0:0:
320,192,131995,128,0,132149:0:0:0:0:
192,192,132149,128,0,132302:0:0:0:0:
448,192,132149,1,0,0:0:0:45:Snare_2.wav
64,192,132302,128,0,132456:0:0:0:0:
320,192,132456,1,0,0:0:0:0:
448,192,132456,1,0,0:0:0:40:Drum_Emphasis2.wav
192,192,132533,1,0,0:0:0:0:
320,192,132610,1,0,0:0:0:0:
448,192,132687,1,0,0:0:0:0:
64,192,132764,1,0,0:0:0:45:Snare_2.wav
192,192,132764,1,0,0:0:0:0:
448,192,132841,1,0,0:0:0:0:
320,192,132918,1,0,0:0:0:0:
192,192,132995,1,0,0:0:0:0:
64,192,133072,1,0,0:0:0:0:
448,192,133072,1,0,0:0:0:40:Drum_Emphasis2.wav
320,192,133225,128,0,133379:0:0:0:0:
448,192,133379,1,0,0:0:0:20:Snare_2.wav
192,192,133379,1,0,0:0:0:0:
320,192,133533,1,0,0:0:0:0:
192,192,133687,128,0,134302:0:0:0:0:
64,192,133687,1,0,0:0:0:40:Drum_Emphasis2.wav
320,192,133995,1,0,0:0:0:0:
448,192,133995,1,0,0:0:0:20:Snare_2.wav
448,192,134149,1,0,0:0:0:0:
64,192,134302,1,0,0:0:0:40:Drum_Emphasis2.wav
320,192,134302,128,0,134610:0:0:0:0:
192,192,134610,1,0,0:0:0:0:
448,192,134610,1,0,0:0:0:20:Snare_2.wav
64,192,134764,1,0,0:0:0:0:
192,192,134918,1,0,0:0:0:40:Drum_Emphasis2.wav
320,192,134918,1,0,0:0:0:0:
64,192,135072,1,0,0:0:0:0:
192,192,135225,1,0,0:0:0:45:Snare_2.wav
320,192,135225,1,0,0:0:0:0:
448,192,135225,128,0,136302:0:0:0:0:
64,192,135533,1,0,0:0:0:0:
320,192,135533,1,0,0:0:0:40:Drum_Emphasis2.wav
192,192,135687,1,0,0:0:0:0:
64,192,135841,1,0,0:0:0:0:
192,192,135841,1,0,0:0:0:45:Snare_2.wav
64,192,135995,1,0,0:0:0:0:
192,192,136149,1,0,0:0:0:0:
320,192,136149,1,0,0:0:0:40:Drum_Emphasis2.wav
64,192,136302,1,0,0:0:0:0:
320,192,136302,1,0,0:0:0:40:Drum_Emphasis2.wav
64,192,136456,1,0,0:0:0:45:Snare_2.wav
192,192,136456,1,0,0:0:0:0:
448,192,136610,1,0,0:0:0:0:
320,192,136610,128,0,137072:0:0:0:40:Drum_Emphasis2.wav
192,192,136918,1,0,0:0:0:0:
64,192,137072,1,0,0:0:0:0:
448,192,137072,1,0,0:0:0:45:Snare_2.wav
320,192,137225,1,0,0:0:0:0:
64,192,137379,1,0,0:0:0:0:
448,192,137379,1,0,0:0:0:40:Drum_Emphasis2.wav
192,192,137456,1,0,0:0:0:0:
320,192,137533,1,0,0:0:0:0:
448,192,137610,1,0,0:0:0:0:
64,192,137687,1,2,0:0:0:0:
320,192,137687,1,0,0:0:0:45:Snare_2.wav
192,192,137764,1,2,0:0:0:0:
320,192,137841,1,2,0:0:0:0:
448,192,137918,1,2,0:0:0:0:
64,192,137995,1,4,0:0:0:0:
192,192,137995,1,0,0:0:0:40:Drum_Emphasis2.wav
320,192,138149,1,0,0:0:0:0:
192,192,138302,1,0,0:0:0:0:
448,192,138302,1,0,0:0:0:35:Snare_2.wav
320,192,138456,1,0,0:0:0:0:
64,192,138610,1,0,0:0:0:0:
448,192,138610,1,0,0:0:0:40:Drum_Emphasis2.wav
192,192,138764,1,0,0:0:0:0:
64,192,138918,1,0,0:0:0:0:
320,192,138918,1,0,0:0:0:35:Snare_2.wav
192,192,139072,1,0,0:0:0:0:
448,192,139072,1,0,0:0:0:0:
320,192,139072,1,0,0:0:0:40:Drum_Emphasis2.wav
64,192,139225,1,0,0:0:0:0:
320,192,139379,1,0,0:0:0:0:
64,192,139533,1,0,0:0:0:0:
448,192,139533,1,0,0:0:0:45:Snare_2.wav
192,192,139533,1,0,0:0:0:0:
320,192,139687,1,0,0:0:0:0:
64,192,139841,1,0,0:0:0:0:
448,192,139841,1,0,0:0:0:40:Drum_Emphasis2.wav
192,192,139995,1,0,0:0:0:0:
320,192,140149,1,0,0:0:0:0:
448,192,140149,1,0,0:0:0:45:Snare_2.wav
448,192,140302,1,0,0:0:0:40:Drum_Emphasis2.wav
64,192,140302,128,0,140610:0:0:0:0:
192,192,140302,1,0,0:0:0:0:
192,192,140610,1,0,0:0:0:0:
320,192,140610,1,0,0:0:0:40:Drum_Emphasis2.wav
320,192,140764,1,0,0:0:0:40:Drum_Emphasis2.wav
448,192,140764,1,0,0:0:0:45:Snare_2.wav
64,192,140918,1,0,0:0:0:40:Drum_Emphasis2.wav
192,192,140918,1,0,0:0:0:0:
448,192,141072,1,0,0:0:0:45:Snare_2.wav
64,192,141072,1,0,0:0:0:40:Drum_Emphasis2.wav
320,192,141072,1,0,0:0:0:0:
192,192,141225,1,0,0:0:0:40:Drum_Emphasis2.wav
448,192,141225,1,0,0:0:0:0:
64,192,141379,1,0,0:0:0:0:
192,192,141379,1,0,0:0:0:40:Drum_Emphasis2.wav
64,192,141533,1,0,0:0:0:45:Snare_2.wav
448,192,141533,128,0,141841:0:0:0:0:
320,192,141533,1,0,0:0:0:40:Drum_Emphasis2.wav
192,192,141841,5,0,0:0:0:0:
320,192,141841,1,0,0:0:0:40:Drum_Emphasis2.wav
64,192,141995,1,0,0:0:0:45:Snare_2.wav
448,192,141995,1,0,0:0:0:40:Drum_Emphasis2.wav
320,192,141995,1,0,0:0:0:0:
192,192,142302,1,0,0:0:0:45:Snare_2.wav
448,192,142302,1,0,0:0:0:0:
320,192,142302,1,0,0:0:0:40:Drum_Emphasis2.wav
64,192,142610,1,0,0:0:0:0:
320,192,142610,1,0,0:0:0:40:Drum_Emphasis2.wav
192,192,142610,1,0,0:0:0:45:Snare_2.wav
64,192,142918,5,0,0:0:0:40:Drum_Emphasis2.wav
192,192,142918,1,0,0:0:0:45:Snare_2.wav
320,192,143225,1,0,0:0:0:0:
448,192,143225,1,0,0:0:0:45:Snare_2.wav
64,192,143225,1,0,0:0:0:0:
64,192,143533,128,0,143841:0:0:0:0:
448,192,143533,128,0,143841:0:0:0:0:
192,192,143533,1,0,0:0:0:40:Drum_Emphasis2.wav
320,192,143841,1,0,0:0:0:45:Snare_2.wav
192,192,143841,1,0,0:0:0:0:
192,192,144149,1,0,0:0:0:40:Drum_Emphasis2.wav
448,192,144149,1,0,0:0:0:0:
192,192,144456,1,0,0:0:0:45:Snare_2.wav
64,192,144456,1,0,0:0:0:0:
320,192,144456,1,0,0:0:0:0:
320,192,144764,128,0,145072:0:0:0:0:
448,192,144764,128,0,145072:0:0:0:0:
64,192,144764,1,0,0:0:0:40:Drum_Emphasis2.wav
192,192,145072,1,0,0:0:0:0:
64,192,145072,1,0,0:0:0:45:Snare_2.wav
64,192,145379,128,0,145995:0:0:0:0:
192,192,145379,128,0,145995:0:0:0:0:
448,192,145379,128,0,145995:0:0:0:45:Snare_2.wav
320,192,145687,1,0,0:0:0:45:Snare_2.wav
320,192,145995,1,0,0:0:0:45:Snare_2.wav
192,192,146302,5,0,0:0:0:0:
320,192,146302,1,0,0:0:0:50:Snare_2.wav
448,192,146302,1,0,0:0:0:0:
320,192,146610,1,0,0:0:0:0:
448,192,146610,1,0,0:0:0:40:Drum_Emphasis2.wav
64,192,146687,1,0,0:0:0:40:Drum_Emphasis2.wav
192,192,146687,1,0,0:0:0:0:
320,192,146764,1,0,0:0:0:0:
448,192,146764,1,0,0:0:0:40:Drum_Emphasis2.wav
64,192,146841,1,0,0:0:0:40:Drum_Emphasis2.wav
192,192,146841,1,0,0:0:0:0:
320,192,146918,1,0,0:0:0:0:
448,192,146918,1,0,0:0:0:40:Drum_Emphasis2.wav
64,192,146995,1,0,0:0:0:40:Drum_Emphasis2.wav
192,192,146995,1,0,0:0:0:0:
320,192,147072,1,0,0:0:0:0:
448,192,147072,1,0,0:0:0:40:Drum_Emphasis2.wav
64,192,147149,1,0,0:0:0:40:Drum_Emphasis2.wav
192,192,147149,1,0,0:0:0:0:
320,192,147225,1,0,0:0:0:0:
448,192,147225,1,0,0:0:0:40:Drum_Emphasis2.wav
64,192,147533,1,0,0:0:0:0:
448,192,147533,1,2,0:0:0:45:
320,192,147610,1,2,0:0:0:45:
192,192,147687,1,2,0:0:0:45:
64,192,147764,1,2,0:0:0:45:
192,192,147841,1,8,0:0:0:50:
448,192,147841,1,4,0:0:0:0:
320,192,147918,1,0,0:0:0:0:
64,192,147995,1,0,0:0:0:0:
192,192,148072,1,0,0:0:0:0:
320,192,148149,1,0,0:0:0:40:Drum_Emphasis2.wav
448,192,148149,1,8,0:0:0:50:
192,192,148225,1,0,0:0:0:0:
320,192,148302,1,0,0:0:0:0:
448,192,148379,1,0,0:0:0:0:
64,192,148456,1,8,0:0:0:50:
320,192,148456,1,0,0:0:0:40:Drum_Emphasis2.wav
192,192,148533,1,0,0:0:0:0:
448,192,148610,1,0,0:0:0:0:
320,192,148687,1,0,0:0:0:0:
448,192,148764,1,0,0:0:0:40:Drum_Emphasis2.wav
64,192,148764,1,8,0:0:0:50:
192,192,148841,1,0,0:0:0:0:
64,192,148918,1,8,0:0:0:50:
320,192,148918,1,0,0:0:0:40:Drum_Emphasis2.wav
192,192,148995,1,0,0:0:0:0:
320,192,149072,1,0,0:0:0:0:
448,192,149149,1,0,0:0:0:0:
320,192,149225,1,0,0:0:0:0:
192,192,149302,1,0,0:0:0:0:
64,192,149379,1,8,0:0:0:50:
448,192,149379,1,0,0:0:0:40:Drum_Emphasis2.wav
320,192,149456,1,0,0:0:0:0:
64,192,149533,1,0,0:0:0:0:
192,192,149610,1,0,0:0:0:0:
320,192,149687,1,0,0:0:0:40:Drum_Emphasis2.wav
448,192,149687,1,8,0:0:0:50:
64,192,149764,1,0,0:0:0:0:
192,192,149841,1,0,0:0:0:0:
320,192,149918,1,0,0:0:0:0:
448,192,149995,1,0,0:0:0:40:Drum_Emphasis2.wav
64,192,149995,1,8,0:0:0:50:
192,192,150072,1,0,0:0:0:0:
320,192,150149,128,0,150456:0:0:0:40:Drum_Emphasis2.wav
64,192,150149,128,8,150456:0:0:0:50:
192,192,150456,128,0,150610:0:0:0:0:
448,192,150610,128,8,150764:0:0:0:50:
320,192,150610,128,0,150764:0:0:0:40:Drum_Emphasis2.wav
64,192,150764,128,0,150918:0:0:0:0:
192,192,150918,128,0,151072:0:0:0:40:Drum_Emphasis2.wav
448,192,150918,128,8,151072:0:0:0:50:
320,192,151072,128,0,151225:0:0:0:0:
64,192,151225,1,0,0:0:0:0:
448,192,151225,1,0,0:0:0:40:Drum_Emphasis2.wav
192,192,151379,128,0,151687:0:0:0:0:
448,192,151379,1,8,0:0:0:50:
320,192,151379,1,0,0:0:0:40:Drum_Emphasis2.wav
64,192,151687,1,0,0:0:0:40:Drum_Emphasis2.wav
320,192,151687,1,0,0:0:0:0:
192,192,151841,1,0,0:0:0:40:Drum_Emphasis2.wav
448,192,151841,1,8,0:0:0:50:
64,192,151841,1,0,0:0:0:0:
192,192,151995,1,0,0:0:0:40:Drum_Emphasis2.wav
320,192,151995,1,0,0:0:0:0:
64,192,152149,1,0,0:0:0:0:
320,192,152149,1,0,0:0:0:40:Drum_Emphasis2.wav
448,192,152149,1,8,0:0:0:50:
192,192,152302,1,0,0:0:0:0:
64,192,152456,1,0,0:0:0:40:Drum_Emphasis2.wav
320,192,152456,1,2,0:0:0:35:
448,192,152533,1,2,0:0:0:35:
64,192,152610,1,2,0:0:0:35:
192,192,152687,1,2,0:0:0:35:
448,192,152764,1,8,0:0:0:50:
320,192,152764,1,0,0:0:0:40:Drum_Emphasis2.wav
64,192,152841,1,0,0:0:0:0:
192,192,152918,1,0,0:0:0:0:
320,192,152995,1,0,0:0:0:0:
448,192,153072,1,8,0:0:0:50:
64,192,153072,1,0,0:0:0:40:Drum_Emphasis2.wav
192,192,153149,1,0,0:0:0:0:
320,192,153225,1,0,0:0:0:0:
192,192,153302,1,0,0:0:0:0:
448,192,153379,1,8,0:0:0:50:
64,192,153379,1,0,0:0:0:40:Drum_Emphasis2.wav
320,192,153456,1,0,0:0:0:0:
192,192,153533,1,0,0:0:0:0:
64,192,153610,1,0,0:0:0:0:
448,192,153687,1,8,0:0:0:50:
192,192,153687,1,0,0:0:0:40:Drum_Emphasis2.wav
320,192,153764,1,0,0:0:0:0:
64,192,153841,1,0,0:0:0:40:Drum_Emphasis2.wav
448,192,153841,1,8,0:0:0:50:
320,192,153918,1,0,0:0:0:0:
192,192,153995,1,0,0:0:0:0:
64,192,154072,1,0,0:0:0:0:
448,192,154149,1,0,0:0:0:0:
320,192,154225,1,0,0:0:0:0:
64,192,154302,1,8,0:0:0:50:
192,192,154302,1,0,0:0:0:40:Drum_Emphasis2.wav
320,192,154379,1,0,0:0:0:0:
64,192,154456,1,0,0:0:0:0:
192,192,154533,1,0,0:0:0:0:
448,192,154610,1,0,0:0:0:40:Drum_Emphasis2.wav
64,192,154610,1,8,0:0:0:50:
320,192,154687,1,0,0:0:0:0:
192,192,154764,1,0,0:0:0:0:
320,192,154841,1,0,0:0:0:0:
64,192,154918,1,0,0:0:0:40:Drum_Emphasis2.wav
448,192,154918,1,8,0:0:0:50:
192,192,154995,1,0,0:0:0:0:
448,192,155072,128,8,155379:0:0:0:50:
320,192,155072,128,0,155379:0:0:0:40:Drum_Emphasis2.wav
64,192,155379,128,0,155533:0:0:0:0:
320,192,155533,128,8,155687:0:0:0:50:
448,192,155533,128,0,155687:0:0:0:40:Drum_Emphasis2.wav
64,192,155687,128,0,155841:0:0:0:0:
192,192,155841,128,0,155995:0:0:0:40:Drum_Emphasis2.wav
448,192,155841,128,8,155995:0:0:0:50:
64,192,155995,128,0,156149:0:0:0:0:
320,192,155995,128,0,156149:0:0:0:40:Drum_Emphasis2.wav
192,192,156149,128,0,156302:0:0:0:40:Drum_Emphasis2.wav
448,192,156149,128,0,156302:0:0:0:0:
320,192,156302,128,8,156610:0:0:0:50:
64,192,156302,1,0,0:0:0:40:Drum_Emphasis2.wav
192,192,156610,1,0,0:0:0:40:Drum_Emphasis2.wav
448,192,156610,1,0,0:0:0:0:
64,192,156764,1,0,0:0:0:0:
192,192,156764,1,0,0:0:0:40:Drum_Emphasis2.wav
448,192,156764,1,8,0:0:0:50:
64,192,156918,1,0,0:0:0:0:
320,192,156918,1,0,0:0:0:40:Drum_Emphasis2.wav
192,192,157072,1,0,0:0:0:0:
320,192,157072,1,0,0:0:0:40:Drum_Emphasis2.wav
448,192,157072,1,8,0:0:0:50:
64,192,157225,1,0,0:0:0:0:
192,192,157225,1,0,0:0:0:40:Drum_Emphasis2.wav
320,192,157379,1,0,0:0:0:0:
448,192,157379,1,0,0:0:0:40:Drum_Emphasis2.wav
192,192,157456,1,0,0:0:0:0:
64,192,157456,1,0,0:0:0:40:Drum_Emphasis2.wav
320,192,157533,1,0,0:0:0:0:
448,192,157533,1,0,0:0:0:40:Drum_Emphasis2.wav
192,192,157610,1,0,0:0:0:0:
64,192,157610,1,0,0:0:0:40:Drum_Emphasis2.wav
320,192,157687,1,8,0:0:0:50:
448,192,157687,1,4,0:0:0:0:
192,192,157764,1,0,0:0:0:0:
320,192,157841,1,0,0:0:0:0:
448,192,157918,1,0,0:0:0:0:
64,192,157995,1,8,0:0:0:50:
192,192,157995,1,0,0:0:0:40:Drum_Emphasis2.wav
320,192,158072,1,0,0:0:0:0:
448,192,158149,1,0,0:0:0:0:
320,192,158225,1,0,0:0:0:0:
64,192,158302,1,8,0:0:0:50:
192,192,158302,1,0,0:0:0:40:Drum_Emphasis2.wav
448,192,158379,1,0,0:0:0:0:
320,192,158456,1,0,0:0:0:0:
192,192,158533,1,0,0:0:0:0:
64,192,158610,1,0,0:0:0:40:Drum_Emphasis2.wav
448,192,158610,1,8,0:0:0:50:
320,192,158687,1,0,0:0:0:0:
192,192,158764,128,0,159072:0:0:0:40:Drum_Emphasis2.wav
448,192,158764,128,8,159072:0:0:0:50:
64,192,158918,128,0,159072:0:0:0:0:
320,192,159072,1,0,0:0:0:0:
192,192,159225,1,0,0:0:0:40:Drum_Emphasis2.wav
448,192,159225,1,8,0:0:0:50:
64,192,159379,1,0,0:0:0:0:
192,192,159379,1,0,0:0:0:40:Drum_Emphasis2.wav
64,192,159533,1,0,0:0:0:40:Drum_Emphasis2.wav
448,192,159533,1,8,0:0:0:50:
192,192,159610,1,0,0:0:0:0:
320,192,159687,1,0,0:0:0:0:
448,192,159764,1,0,0:0:0:0:
320,192,159841,1,0,0:0:0:40:Drum_Emphasis2.wav
64,192,159841,1,8,0:0:0:50:
192,192,159918,1,0,0:0:0:0:
448,192,159995,128,0,160302:0:0:0:40:Drum_Emphasis2.wav
64,192,159995,1,8,0:0:0:50:
192,192,160302,1,0,0:0:0:0:
320,192,160302,1,0,0:0:0:40:Drum_Emphasis2.wav
64,192,160456,1,8,0:0:0:50:
320,192,160456,1,0,0:0:0:40:Drum_Emphasis2.wav
192,192,160610,1,0,0:0:0:40:Drum_Emphasis2.wav
448,192,160610,1,0,0:0:0:0:
64,192,160764,1,8,0:0:0:50:
192,192,160764,1,0,0:0:0:40:Drum_Emphasis2.wav
64,192,160918,1,0,0:0:0:0:
192,192,160918,1,0,0:0:0:40:Drum_Emphasis2.wav
64,192,161072,1,0,0:0:0:0:
320,192,161072,1,0,0:0:0:40:Drum_Emphasis2.wav
448,192,161072,1,0,0:0:0:0:
192,192,161225,128,0,161533:0:0:0:0:
320,192,161225,1,0,0:0:0:40:Drum_Emphasis2.wav
448,192,161225,1,8,0:0:0:50:
448,192,161533,128,0,161687:0:0:0:0:
64,192,161687,128,8,161841:0:0:0:50:
192,192,161687,128,0,161841:0:0:0:40:Drum_Emphasis2.wav
320,192,161841,128,0,161995:0:0:0:0:
64,192,161995,1,0,0:0:0:0:
192,192,161995,1,0,0:0:0:40:Drum_Emphasis2.wav
448,192,161995,1,8,0:0:0:50:
64,192,162302,1,0,0:0:0:0:
320,192,162302,1,0,0:0:0:40:Drum_Emphasis2.wav
448,192,162302,1,8,0:0:0:50:
192,192,162610,1,0,0:0:0:40:Drum_Emphasis2.wav
320,192,162610,1,8,0:0:0:50:
64,192,162918,1,0,0:0:0:0:
448,192,162918,1,0,0:0:0:0:
192,192,162918,1,0,0:0:0:40:Drum_Emphasis2.wav
192,192,163225,128,0,163841:0:0:0:40:Drum_Emphasis2.wav
320,192,163225,128,0,163841:0:0:0:0:
448,192,163225,128,0,163841:0:0:0:0:
64,192,163533,1,0,0:0:0:40:Drum_Emphasis2.wav
64,192,163841,1,8,0:0:0:50:
320,192,164149,1,0,0:0:0:0:
64,192,164149,1,0,0:0:0:0:
448,192,164149,1,0,0:0:0:40:Drum_Emphasis2.wav
192,192,164456,128,0,164764:0:0:0:0:
448,192,164456,128,0,164764:0:0:0:40:Drum_Emphasis2.wav
320,192,164764,1,0,0:0:0:0:
64,192,164764,1,0,0:0:0:40:Drum_Emphasis2.wav
64,192,165072,128,8,165687:0:0:0:50:
192,192,165072,128,0,165687:0:0:0:40:Drum_Emphasis2.wav
320,192,165379,1,0,0:0:0:40:Drum_Emphasis2.wav
448,192,165379,1,0,0:0:0:0:
320,192,165687,1,0,0:0:0:40:Drum_Emphasis2.wav
192,192,165995,1,0,0:0:0:40:Drum_Emphasis2.wav
448,192,165995,1,0,0:0:0:0:
320,192,166149,128,0,166610:0:0:0:40:Drum_Emphasis2.wav
64,192,166149,128,0,166610:0:0:0:0:
192,192,166456,1,0,0:0:0:0:
448,192,166610,1,0,0:0:0:0:
192,192,166764,1,0,0:0:0:0:
320,192,166918,1,0,0:0:0:0:
448,192,166918,1,0,0:0:0:40:Drum_Emphasis2.wav
64,192,167072,1,0,0:0:0:40:Drum_Emphasis2.wav
192,192,167072,1,0,0:0:0:0:
448,192,167225,5,2,0:0:0:40:
320,192,167264,1,2,0:0:0:40:
192,192,167302,1,2,0:0:0:40:
64,192,167341,1,2,0:0:0:40:
448,192,167379,1,2,0:0:0:40:
320,192,167418,1,2,0:0:0:40:
192,192,167456,1,2,0:0:0:40:
64,192,167495,1,2,0:0:0:40:
320,192,167533,1,8,0:0:0:50:
448,192,167533,1,4,0:0:0:0:
192,192,167610,1,0,0:0:0:0:
320,192,167687,1,0,0:0:0:0:
448,192,167764,1,0,0:0:0:0:
64,192,167841,1,8,0:0:0:50:
320,192,167841,1,0,0:0:0:40:Drum_Emphasis2.wav
192,192,167918,1,0,0:0:0:0:
448,192,167995,1,0,0:0:0:0:
320,192,168072,1,0,0:0:0:0:
192,192,168149,1,0,0:0:0:40:Drum_Emphasis2.wav
448,192,168149,1,8,0:0:0:50:
64,192,168225,1,0,0:0:0:0:
192,192,168302,1,0,0:0:0:0:
320,192,168379,1,0,0:0:0:0:
64,192,168456,1,0,0:0:0:40:Drum_Emphasis2.wav
448,192,168456,1,8,0:0:0:50:
192,192,168533,1,0,0:0:0:0:
320,192,168610,1,0,0:0:0:40:Drum_Emphasis2.wav
448,192,168610,1,8,0:0:0:50:
192,192,168687,1,0,0:0:0:0:
64,192,168764,1,0,0:0:0:0:
192,192,168841,1,0,0:0:0:0:
320,192,168918,1,0,0:0:0:0:
448,192,168995,1,0,0:0:0:0:
64,192,169072,1,8,0:0:0:50:
320,192,169072,1,0,0:0:0:40:Drum_Emphasis2.wav
192,192,169149,1,0,0:0:0:0:
448,192,169225,1,0,0:0:0:0:
320,192,169302,1,0,0:0:0:0:
64,192,169379,1,8,0:0:0:50:
448,192,169379,1,0,0:0:0:40:Drum_Emphasis2.wav
192,192,169456,1,0,0:0:0:0:
320,192,169533,1,0,0:0:0:0:
448,192,169610,1,0,0:0:0:0:
64,192,169687,1,8,0:0:0:50:
320,192,169687,1,0,0:0:0:40:Drum_Emphasis2.wav
192,192,169764,1,0,0:0:0:0:
448,192,169841,128,0,170149:0:0:0:40:Drum_Emphasis2.wav
64,192,169841,128,8,170149:0:0:0:50:
192,192,170149,1,0,0:0:0:0:
320,192,170149,1,0,0:0:0:40:Drum_Emphasis2.wav
64,192,170302,1,8,0:0:0:50:
320,192,170302,1,0,0:0:0:40:Drum_Emphasis2.wav
448,192,170302,1,0,0:0:0:0:
64,192,170456,1,0,0:0:0:0:
192,192,170456,1,0,0:0:0:40:Drum_Emphasis2.wav
192,192,170610,1,0,0:0:0:40:Drum_Emphasis2.wav
448,192,170610,1,8,0:0:0:50:
320,192,170610,1,0,0:0:0:0:
64,192,170764,1,0,0:0:0:0:
320,192,170764,1,0,0:0:0:40:Drum_Emphasis2.wav
448,192,170918,1,0,0:0:0:0:
192,192,170918,1,0,0:0:0:40:Drum_Emphasis2.wav
448,192,171072,1,8,0:0:0:50:
320,192,171072,128,0,171379:0:0:0:40:Drum_Emphasis2.wav
192,192,171379,1,0,0:0:0:0:
64,192,171533,1,0,0:0:0:0:
320,192,171533,1,0,0:0:0:40:Drum_Emphasis2.wav
448,192,171533,1,8,0:0:0:50:
320,192,171687,1,0,0:0:0:40:Drum_Emphasis2.wav
192,192,171687,1,0,0:0:0:0:
64,192,171841,1,0,0:0:0:0:
320,192,171841,1,0,0:0:0:40:Drum_Emphasis2.wav
448,192,171841,1,8,0:0:0:50:
448,192,171995,1,0,0:0:0:0:
64,192,172149,1,0,0:0:0:0:
192,192,172149,1,0,0:0:0:40:Drum_Emphasis2.wav
320,192,172225,1,0,0:0:0:40:Drum_Emphasis2.wav
448,192,172225,1,0,0:0:0:0:
64,192,172302,1,0,0:0:0:0:
192,192,172302,1,0,0:0:0:40:Drum_Emphasis2.wav
320,192,172379,1,0,0:0:0:40:Drum_Emphasis2.wav
448,192,172379,1,0,0:0:0:0:
64,192,172456,1,8,0:0:0:50:
192,192,172456,1,0,0:0:0:40:Drum_Emphasis2.wav
448,192,172533,1,0,0:0:0:0:
320,192,172610,1,0,0:0:0:0:
192,192,172687,1,0,0:0:0:0:
448,192,172764,1,0,0:0:0:40:Drum_Emphasis2.wav
64,192,172764,1,8,0:0:0:50:
320,192,172841,1,0,0:0:0:0:
448,192,172918,1,0,0:0:0:40:Drum_Emphasis2.wav
192,192,172918,1,0,0:0:0:0:
64,192,172995,1,0,0:0:0:0:
448,192,173072,1,8,0:0:0:50:
320,192,173072,1,0,0:0:0:40:Drum_Emphasis2.wav
64,192,173149,1,0,0:0:0:0:
192,192,173225,1,0,0:0:0:0:
320,192,173302,1,0,0:0:0:0:
64,192,173379,1,8,0:0:0:50:
448,192,173379,1,0,0:0:0:40:Drum_Emphasis2.wav
320,192,173456,1,0,0:0:0:0:
64,192,173533,128,8,173841:0:0:0:50:
192,192,173533,128,0,173841:0:0:0:40:Drum_Emphasis2.wav
320,192,173841,1,0,0:0:0:40:Drum_Emphasis2.wav
448,192,173841,1,0,0:0:0:0:
192,192,173995,1,8,0:0:0:50:
320,192,173995,1,0,0:0:0:40:Drum_Emphasis2.wav
64,192,174149,1,0,0:0:0:0:
448,192,174149,1,0,0:0:0:40:Drum_Emphasis2.wav
64,192,174302,1,8,0:0:0:50:
320,192,174302,1,0,0:0:0:40:Drum_Emphasis2.wav
192,192,174379,1,0,0:0:0:0:
320,192,174456,1,0,0:0:0:0:
448,192,174533,1,0,0:0:0:0:
64,192,174610,1,8,0:0:0:50:
192,192,174610,1,0,0:0:0:40:Drum_Emphasis2.wav
320,192,174687,1,0,0:0:0:0:
448,192,174764,128,0,175072:0:0:0:40:Drum_Emphasis2.wav
64,192,174764,1,8,0:0:0:50:
192,192,175072,1,0,0:0:0:0:
320,192,175072,1,0,0:0:0:40:Drum_Emphasis2.wav
64,192,175225,1,0,0:0:0:0:
320,192,175225,1,0,0:0:0:40:Drum_Emphasis2.wav
448,192,175225,1,8,0:0:0:50:
192,192,175379,1,0,0:0:0:40:Drum_Emphasis2.wav
448,192,175379,1,0,0:0:0:0:
64,192,175533,1,8,0:0:0:50:
192,192,175533,1,0,0:0:0:40:Drum_Emphasis2.wav
320,192,175533,1,0,0:0:0:0:
64,192,175687,1,0,0:0:0:0:
192,192,175687,1,0,0:0:0:40:Drum_Emphasis2.wav
320,192,175687,1,0,0:0:0:0:
320,192,175841,1,0,0:0:0:40:Drum_Emphasis2.wav
448,192,175841,1,0,0:0:0:0:
64,192,175995,128,0,176302:0:0:0:0:
192,192,175995,128,0,176302:0:0:0:40:Drum_Emphasis2.wav
448,192,175995,1,8,0:0:0:50:
320,192,176302,1,0,0:0:0:40:Drum_Emphasis2.wav
448,192,176302,1,0,0:0:0:0:
64,192,176456,1,0,0:0:0:0:
320,192,176456,1,0,0:0:0:40:Drum_Emphasis2.wav
448,192,176456,1,8,0:0:0:50:
64,192,176610,1,0,0:0:0:0:
192,192,176610,1,0,0:0:0:40:Drum_Emphasis2.wav
320,192,176764,1,0,0:0:0:0:
448,192,176764,1,8,0:0:0:50:
192,192,176764,1,0,0:0:0:40:Drum_Emphasis2.wav
320,192,176918,1,0,0:0:0:40:Drum_Emphasis2.wav
64,192,176918,1,0,0:0:0:0:
192,192,177072,1,0,0:0:0:40:Drum_Emphasis2.wav
64,192,177072,1,0,0:0:0:0:
320,192,177149,1,0,0:0:0:40:Drum_Emphasis2.wav
448,192,177149,1,0,0:0:0:0:
192,192,177225,1,0,0:0:0:40:Drum_Emphasis2.wav
64,192,177225,1,0,0:0:0:0:
320,192,177302,1,0,0:0:0:40:Drum_Emphasis2.wav
448,192,177302,1,0,0:0:0:0:
64,192,177379,1,4,0:0:0:0:
192,192,177379,1,8,0:0:0:50:
448,192,177456,1,0,0:0:0:0:
320,192,177533,1,0,0:0:0:0:
192,192,177610,1,0,0:0:0:0:
64,192,177687,1,8,0:0:0:50:
320,192,177687,1,0,0:0:0:40:Drum_Emphasis2.wav
448,192,177764,1,0,0:0:0:0:
320,192,177841,1,0,0:0:0:0:
192,192,177918,1,0,0:0:0:0:
64,192,177995,1,8,0:0:0:50:
448,192,177995,1,0,0:0:0:40:Drum_Emphasis2.wav
320,192,178072,1,0,0:0:0:0:
192,192,178149,1,0,0:0:0:0:
320,192,178225,1,0,0:0:0:0:
448,192,178302,1,0,0:0:0:40:Drum_Emphasis2.wav
64,192,178302,1,8,0:0:0:50:
320,192,178379,1,0,0:0:0:0:
192,192,178456,128,0,178918:0:0:0:40:Drum_Emphasis2.wav
448,192,178456,1,0,0:0:0:0:
64,192,178456,128,8,178918:0:0:0:50:
320,192,178764,128,0,178918:0:0:0:40:Drum_Emphasis2.wav
448,192,178918,1,8,0:0:0:50:
320,192,178995,1,0,0:0:0:0:
192,192,179072,1,0,0:0:0:0:
64,192,179149,1,0,0:0:0:0:
448,192,179225,1,8,0:0:0:50:
192,192,179225,1,0,0:0:0:40:Drum_Emphasis2.wav
320,192,179302,1,0,0:0:0:0:
192,192,179379,1,0,0:0:0:0:
320,192,179456,1,0,0:0:0:0:
64,192,179533,1,0,0:0:0:40:Drum_Emphasis2.wav
448,192,179533,1,8,0:0:0:50:
192,192,179610,1,0,0:0:0:0:
320,192,179687,128,0,179995:0:0:0:40:Drum_Emphasis2.wav
448,192,179687,128,8,179995:0:0:0:50:
64,192,179995,1,0,0:0:0:0:
192,192,179995,1,0,0:0:0:40:Drum_Emphasis2.wav
448,192,180149,1,8,0:0:0:50:
192,192,180149,1,0,0:0:0:40:Drum_Emphasis2.wav
64,192,180302,1,0,0:0:0:0:
320,192,180302,1,0,0:0:0:40:Drum_Emphasis2.wav
64,192,180456,1,0,0:0:0:0:
192,192,180456,1,0,0:0:0:40:Drum_Emphasis2.wav
448,192,180456,1,8,0:0:0:50:
64,192,180610,1,0,0:0:0:0:
192,192,180610,1,0,0:0:0:40:Drum_Emphasis2.wav
448,192,180610,1,0,0:0:0:0:
320,192,180764,1,0,0:0:0:40:Drum_Emphasis2.wav
448,192,180764,1,0,0:0:0:0:
64,192,180764,1,0,0:0:0:0:
192,192,180918,128,0,181225:0:0:0:0:
320,192,180918,128,0,181225:0:0:0:40:Drum_Emphasis2.wav
448,192,180918,128,8,181225:0:0:0:50:
64,192,181225,1,0,0:0:0:0:
192,192,181379,1,0,0:0:0:40:Drum_Emphasis2.wav
448,192,181379,1,8,0:0:0:50:
64,192,181533,1,0,0:0:0:0:
448,192,181533,1,0,0:0:0:40:Drum_Emphasis2.wav
320,192,181687,1,8,0:0:0:50:
192,192,181687,1,0,0:0:0:40:Drum_Emphasis2.wav
64,192,181764,1,0,0:0:0:0:
192,192,181841,1,0,0:0:0:0:
320,192,181918,1,0,0:0:0:0:
192,192,181995,1,0,0:0:0:40:Drum_Emphasis2.wav
448,192,181995,1,8,0:0:0:50:
64,192,182072,1,0,0:0:0:0:
448,192,182149,1,0,0:0:0:0:
320,192,182225,1,0,0:0:0:0:
64,192,182302,1,8,0:0:0:50:
192,192,182302,1,0,0:0:0:40:Drum_Emphasis2.wav
448,192,182302,1,0,0:0:0:0:
320,192,182379,1,0,0:0:0:0:
192,192,182456,1,0,0:0:0:0:
64,192,182533,1,0,0:0:0:0:
192,192,182610,1,0,0:0:0:0:
448,192,182610,1,0,0:0:0:40:Drum_Emphasis2.wav
320,192,182687,1,0,0:0:0:0:
64,192,182764,1,0,0:0:0:0:
192,192,182841,1,0,0:0:0:0:
320,192,182918,1,0,0:0:0:0:
448,192,182918,1,0,0:0:0:40:Drum_Emphasis2.wav
64,192,182995,1,0,0:0:0:0:
192,192,183072,1,0,0:0:0:0:
320,192,183149,1,0,0:0:0:0:
64,192,183225,1,0,0:0:0:0:
192,192,183225,1,0,0:0:0:40:Drum_Emphasis2.wav
448,192,183302,1,0,0:0:0:0:
320,192,183379,1,0,0:0:0:0:
192,192,183456,1,0,0:0:0:0:
64,192,183533,1,0,0:0:0:40:Drum_Emphasis2.wav
448,192,183533,1,8,0:0:0:50:
320,192,183610,1,0,0:0:0:0:
64,192,183687,1,0,0:0:0:0:
192,192,183764,1,0,0:0:0:0:
320,192,183841,1,0,0:0:0:0:
448,192,183841,1,0,0:0:0:40:Drum_Emphasis2.wav
64,192,183918,1,0,0:0:0:0:
192,192,183995,1,0,0:0:0:0:
320,192,184072,1,0,0:0:0:0:
64,192,184149,1,0,0:0:0:0:
448,192,184149,1,0,0:0:0:40:Drum_Emphasis2.wav
192,192,184225,1,0,0:0:0:0:
320,192,184302,1,0,0:0:0:0:
192,192,184379,1,0,0:0:0:0:
64,192,184456,1,0,0:0:0:40:Drum_Emphasis2.wav
320,192,184456,1,0,0:0:0:0:
448,192,184533,1,0,0:0:0:0:
192,192,184610,1,0,0:0:0:0:
320,192,184687,1,0,0:0:0:0:
64,192,184764,1,0,0:0:0:40:Drum_Emphasis2.wav
448,192,184764,128,8,185636:0:0:0:50:
192,192,185072,1,0,0:0:0:0:
320,192,185072,1,0,0:0:0:40:Drum_Emphasis2.wav
64,192,185379,1,0,0:0:0:0:
320,192,185379,1,0,0:0:0:40:Drum_Emphasis2.wav
320,192,185636,1,0,0:0:0:40:Drum_Emphasis2.wav
192,192,185636,1,0,0:0:0:0:
64,192,185841,128,0,186302:0:0:0:0:
192,192,185841,128,0,186302:0:0:0:0:
320,192,185841,128,0,186302:0:0:0:40:Drum_Emphasis2.wav
448,192,186302,1,0,0:0:0:40:Drum_Emphasis2.wav
192,192,186456,1,0,0:0:0:40:Drum_Emphasis2.wav
64,192,186610,1,0,0:0:0:0:
320,192,186610,1,0,0:0:0:40:Drum_Emphasis2.wav
448,192,186610,1,0,0:0:0:0:
448,192,186764,128,0,187072:0:0:0:0:
192,192,186764,128,0,187072:0:0:0:40:Drum_Emphasis2.wav
64,192,186764,128,0,187072:0:0:0:0:
