osu file format v14

[General]
AudioFilename: Guriri - Rolling Girl.mp3
AudioLeadIn: 0
PreviewTime: 78918
Countdown: 0
SampleSet: None
StackLeniency: 0.7
Mode: 1
LetterboxInBreaks: 0
WidescreenStoryboard: 0

[Editor]
DistanceSpacing: 0.9
BeatDivisor: 1
GridSize: 8
TimelineZoom: 1.7

[Metadata]
Title:Rolling Girl
TitleUnicode:ローリンガール
Artist:Guriri
ArtistUnicode:グリリ
Creator:RedBall
Version:Kantan
Source:wowaka
Tags:utaite korean guriri gurirock powerful
BeatmapID:1399763
BeatmapSetID:423506

[Difficulty]
HPDrainRate:7
CircleSize:2
OverallDifficulty:3
ApproachRate:5
SliderMultiplier:1.4
SliderTickRate:1

[Events]
//Background and Video events
0,0,"Rolling_Girl_BG.jpg",0,0
Video,-3240,"Rolling Girl PV.AVI"
//Break Periods
//Storyboard Layer 0 (Background)
//Storyboard Layer 1 (Fail)
//Storyboard Layer 2 (Pass)
//Storyboard Layer 3 (Foreground)
//Storyboard Sound Samples

[TimingPoints]
149,307.692307692308,4,1,0,70,1,0
9995,-100,4,1,0,80,0,0
78918,-100,4,1,0,90,0,1
98149,-100,4,1,0,80,0,0
147841,-100,4,1,0,90,0,1
167072,-100,4,1,0,80,0,0
167533,-100,4,1,0,100,0,1
186764,-100,4,1,0,80,0,0

[HitObjects]
256,192,149,5,0,0:0:0:0:
256,192,2610,1,0,0:0:0:0:
256,192,5072,1,8,0:0:0:0:
256,192,5687,12,0,9379,0:0:0:0:
256,192,9995,5,4,0:0:0:0:
256,192,11225,1,8,0:0:0:0:
256,192,11841,1,0,0:0:0:0:
256,192,12149,1,0,0:0:0:0:
256,192,12456,1,0,0:0:0:0:
256,192,13687,1,8,0:0:0:0:
256,192,14302,1,8,0:0:0:0:
256,192,14610,1,8,0:0:0:0:
256,192,14918,1,0,0:0:0:0:
256,192,16149,1,8,0:0:0:0:
256,192,16764,1,0,0:0:0:0:
256,192,17072,1,0,0:0:0:0:
256,192,17379,1,0,0:0:0:0:
256,192,18610,1,8,0:0:0:0:
256,192,19225,1,8,0:0:0:0:
256,192,19533,1,8,0:0:0:0:
256,192,19841,1,4,0:0:0:0:
256,192,21072,1,8,0:0:0:0:
256,192,21687,1,0,0:0:0:0:
256,192,21995,1,0,0:0:0:0:
256,192,22302,1,8,0:0:0:0:
256,192,23533,1,8,0:0:0:0:
256,192,24149,1,8,0:0:0:0:
256,192,24456,1,8,0:0:0:0:
256,192,24764,1,0,0:0:0:0:
256,192,25995,1,8,0:0:0:0:
256,192,26610,1,0,0:0:0:0:
256,192,26918,1,0,0:0:0:0:
256,192,27225,1,8,0:0:0:0:
256,192,28456,1,0,0:0:0:0:
256,192,29072,1,8,0:0:0:0:
256,192,29379,1,8,0:0:0:0:
256,192,29687,1,4,0:0:0:0:
256,192,30918,1,8,0:0:0:0:
256,192,32149,1,0,0:0:0:0:
256,192,32764,1,8,0:0:0:0:
256,192,33379,1,0,0:0:0:0:
256,192,33995,1,0,0:0:0:0:
256,192,34302,1,0,0:0:0:0:
256,192,34610,1,8,0:0:0:0:
256,192,35841,1,8,0:0:0:0:
256,192,37072,1,0,0:0:0:0:
256,192,37687,1,8,0:0:0:0:
256,192,38302,1,0,0:0:0:0:
256,192,38918,1,8,0:0:0:0:
256,192,39225,1,8,0:0:0:0:
256,192,39533,1,12,0:0:0:0:
256,192,40764,1,0,0:0:0:0:
256,192,41379,1,8,0:0:0:0:
256,192,41687,1,8,0:0:0:0:
256,192,41995,1,0,0:0:0:0:
256,192,43225,1,0,0:0:0:0:
256,192,43841,1,0,0:0:0:0:
256,192,44149,1,0,0:0:0:0:
256,192,44456,1,0,0:0:0:0:
256,192,45687,1,0,0:0:0:0:
256,192,46302,1,0,0:0:0:0:
256,192,46610,1,0,0:0:0:0:
256,192,46918,1,8,0:0:0:0:
256,192,48149,1,8,0:0:0:0:
256,192,48764,1,8,0:0:0:0:
256,192,49072,1,8,0:0:0:0:
256,192,49379,1,4,0:0:0:0:
256,192,50610,1,8,0:0:0:0:
256,192,51225,1,0,0:0:0:0:
256,192,51533,1,0,0:0:0:0:
256,192,51841,1,0,0:0:0:0:
256,192,53072,1,8,0:0:0:0:
256,192,53687,1,8,0:0:0:0:
256,192,53995,1,8,0:0:0:0:
256,192,54302,1,0,0:0:0:0:
256,192,55533,1,8,0:0:0:0:
256,192,56149,1,0,0:0:0:0:
256,192,56456,1,0,0:0:0:0:
256,192,56764,1,0,0:0:0:0:
256,192,57995,1,8,0:0:0:0:
256,192,58610,1,8,0:0:0:0:
256,192,58918,1,8,0:0:0:0:
256,192,59225,1,4,0:0:0:0:
256,192,60456,1,0,0:0:0:0:
256,192,61687,1,0,0:0:0:0:
256,192,62302,1,8,0:0:0:0:
256,192,62918,1,0,0:0:0:0:
256,192,63533,1,0,0:0:0:0:
256,192,63841,1,0,0:0:0:0:
256,192,64149,1,0,0:0:0:0:
256,192,65379,1,8,0:0:0:0:
256,192,66610,1,0,0:0:0:0:
256,192,67225,1,8,0:0:0:0:
256,192,67841,1,0,0:0:0:0:
256,192,68456,1,8,0:0:0:0:
256,192,68764,1,8,0:0:0:0:
256,192,69072,1,12,0:0:0:0:
256,192,70302,1,0,0:0:0:0:
256,192,71533,1,8,0:0:0:0:
256,192,72149,1,8,0:0:0:0:
256,192,72764,1,8,0:0:0:0:
256,192,73379,1,0,0:0:0:0:
256,192,73687,1,0,0:0:0:0:
256,192,73995,1,8,0:0:0:0:
256,192,75225,1,8,0:0:0:0:
256,192,76456,1,0,0:0:0:0:
256,192,77687,1,0,0:0:0:0:
256,192,78302,1,8,0:0:0:0:
256,192,78918,1,4,0:0:0:0:
256,192,79533,1,8,0:0:0:0:
256,192,80149,1,0,0:0:0:0:
256,192,80456,1,0,0:0:0:0:
256,192,80764,1,8,0:0:0:0:
256,192,81379,1,0,0:0:0:0:
256,192,81995,1,8,0:0:0:0:
256,192,82610,1,8,0:0:0:0:
256,192,83225,1,8,0:0:0:0:
256,192,83533,1,0,0:0:0:0:
256,192,83841,1,0,0:0:0:0:
256,192,84456,1,8,0:0:0:0:
256,192,85687,1,8,0:0:0:0:
256,192,86302,1,0,0:0:0:0:
256,192,86918,1,0,0:0:0:0:
256,192,87533,1,8,0:0:0:0:
256,192,88149,1,8,0:0:0:0:
256,192,88456,1,8,0:0:0:0:
256,192,88764,1,4,0:0:0:0:
256,192,89379,1,8,0:0:0:0:
256,192,89995,1,8,0:0:0:0:
256,192,90302,1,0,0:0:0:0:
256,192,90610,1,0,0:0:0:0:
256,192,91225,1,8,0:0:0:0:
256,192,91841,1,8,0:0:0:0:
256,192,92456,1,8,0:0:0:0:
256,192,93072,1,8,0:0:0:0:
256,192,93379,1,8,0:0:0:0:
256,192,93687,1,0,0:0:0:0:
256,192,94918,1,0,0:0:0:0:
256,192,96149,1,8,0:0:0:0:
256,192,97379,1,8,0:0:0:0:
256,192,97995,1,0,0:0:0:0:
256,192,98610,1,4,0:0:0:0:
256,192,101072,1,0,0:0:0:0:
256,192,103533,1,8,0:0:0:0:
256,192,105995,1,0,0:0:0:0:
256,192,107841,1,0,0:0:0:0:
256,192,108456,1,4,0:0:0:0:
256,192,109687,1,8,0:0:0:0:
256,192,110918,1,0,0:0:0:0:
256,192,111533,1,8,0:0:0:0:
256,192,112149,1,8,0:0:0:0:
256,192,112764,1,0,0:0:0:0:
256,192,113072,1,0,0:0:0:0:
256,192,113379,1,8,0:0:0:0:
256,192,114610,1,0,0:0:0:0:
256,192,115841,1,0,0:0:0:0:
256,192,116456,1,8,0:0:0:0:
256,192,117072,1,0,0:0:0:0:
256,192,117687,1,8,0:0:0:0:
256,192,117995,1,0,0:0:0:0:
256,192,118302,2,0,L|392:120,2,140
256,192,120149,1,8,0:0:0:0:
256,192,120764,1,0,0:0:0:0:
256,192,121379,1,0,0:0:0:0:
256,192,121995,1,8,0:0:0:0:
256,192,122610,1,0,0:0:0:0:
256,192,122918,1,0,0:0:0:0:
256,192,123225,1,8,0:0:0:0:
256,192,124456,1,0,0:0:0:0:
256,192,125072,1,8,0:0:0:0:
256,192,125379,1,8,0:0:0:0:
256,192,125687,1,0,0:0:0:0:
256,192,126918,1,8,0:0:0:0:
256,192,127533,1,0,0:0:0:0:
256,192,128149,1,4,0:0:0:0:
256,192,129379,1,8,0:0:0:0:
256,192,130610,1,0,0:0:0:0:
256,192,131225,1,8,0:0:0:0:
256,192,131841,1,8,0:0:0:0:
256,192,132456,1,0,0:0:0:0:
256,192,132764,1,0,0:0:0:0:
256,192,133072,1,0,0:0:0:0:
256,192,134302,1,8,0:0:0:0:
256,192,135533,1,0,0:0:0:0:
256,192,136149,1,8,0:0:0:0:
256,192,136764,1,0,0:0:0:0:
256,192,137379,1,8,0:0:0:0:
256,192,137687,1,0,0:0:0:0:
256,192,137995,1,4,0:0:0:0:
256,192,139225,1,8,0:0:0:0:
256,192,140456,1,8,0:0:0:0:
256,192,141072,1,8,0:0:0:0:
256,192,141687,1,8,0:0:0:0:
256,192,142302,1,0,0:0:0:0:
256,192,142610,1,8,0:0:0:0:
256,192,142918,1,0,0:0:0:0:
256,192,144149,1,8,0:0:0:0:
256,192,145379,2,0,L|368:280,2,140
256,192,146610,1,4,0:0:0:0:
256,192,146918,1,4,0:0:0:0:
256,192,147225,1,4,0:0:0:0:
256,192,147841,1,4,0:0:0:0:
256,192,148456,1,8,0:0:0:0:
256,192,149072,1,0,0:0:0:0:
256,192,149379,1,0,0:0:0:0:
256,192,149687,1,8,0:0:0:0:
256,192,150302,1,0,0:0:0:0:
256,192,150918,1,8,0:0:0:0:
256,192,151533,1,8,0:0:0:0:
256,192,152149,1,8,0:0:0:0:
256,192,152456,1,0,0:0:0:0:
256,192,152764,1,0,0:0:0:0:
256,192,153379,1,8,0:0:0:0:
256,192,154610,1,8,0:0:0:0:
256,192,155225,1,0,0:0:0:0:
256,192,155841,1,0,0:0:0:0:
256,192,156456,1,8,0:0:0:0:
256,192,157072,1,8,0:0:0:0:
256,192,157379,1,8,0:0:0:0:
256,192,157687,1,4,0:0:0:0:
256,192,158302,1,8,0:0:0:0:
256,192,158918,1,8,0:0:0:0:
256,192,159225,1,0,0:0:0:0:
256,192,159533,1,0,0:0:0:0:
256,192,160149,1,8,0:0:0:0:
256,192,160764,1,8,0:0:0:0:
256,192,161379,1,8,0:0:0:0:
256,192,161995,1,8,0:0:0:0:
256,192,162302,1,8,0:0:0:0:
256,192,162610,1,0,0:0:0:0:
256,192,163841,1,0,0:0:0:0:
256,192,165072,1,8,0:0:0:0:
256,192,166302,1,8,0:0:0:0:
256,192,166918,1,0,0:0:0:0:
256,192,167533,1,4,0:0:0:0:
256,192,168149,1,8,0:0:0:0:
256,192,168764,1,0,0:0:0:0:
256,192,169072,1,0,0:0:0:0:
256,192,169379,1,8,0:0:0:0:
256,192,169995,1,0,0:0:0:0:
256,192,170610,1,8,0:0:0:0:
256,192,171225,1,8,0:0:0:0:
256,192,171841,1,8,0:0:0:0:
256,192,172149,1,0,0:0:0:0:
256,192,172456,1,0,0:0:0:0:
256,192,173072,1,8,0:0:0:0:
256,192,173687,1,0,0:0:0:0:
256,192,174302,1,8,0:0:0:0:
256,192,174918,1,0,0:0:0:0:
256,192,175533,1,0,0:0:0:0:
256,192,176149,1,12,0:0:0:0:
256,192,176764,1,12,0:0:0:0:
256,192,177072,1,12,0:0:0:0:
256,192,177379,1,4,0:0:0:0:
256,192,177995,1,8,0:0:0:0:
256,192,178610,1,8,0:0:0:0:
256,192,178918,1,0,0:0:0:0:
256,192,179225,1,0,0:0:0:0:
256,192,179841,1,8,0:0:0:0:
256,192,180456,1,8,0:0:0:0:
256,192,181072,1,8,0:0:0:0:
256,192,181687,1,8,0:0:0:0:
256,192,181995,1,8,0:0:0:0:
256,192,182302,1,0,0:0:0:0:
256,184,183533,1,0,0:0:0:0:
256,184,184764,1,8,0:0:0:0:
256,184,185995,1,8,0:0:0:0:
256,184,186610,1,12,0:0:0:0:
