osu file format v14

[General]
AudioFilename: Gabetrousle.mp3
AudioLeadIn: 0
PreviewTime: 25111
Countdown: 1
SampleSet: Soft
StackLeniency: 0.7
Mode: 0
LetterboxInBreaks: 0
WidescreenStoryboard: 1

[Editor]
Bookmarks: 37311,38511
DistanceSpacing: 4.5
BeatDivisor: 8
GridSize: 4
TimelineZoom: 2.1

[Metadata]
Title:Gabetrousle
TitleUnicode:Gabetrousle
Artist:Gurchik
ArtistUnicode:Gurchik
Creator:Tasty Beverage
Version:Woof
Source:Undertale
Tags:pomuta mahiro yasaka
BeatmapID:819409
BeatmapSetID:366331

[Difficulty]
HPDrainRate:7
CircleSize:4
OverallDifficulty:9.2
ApproachRate:9.6
SliderMultiplier:2.3
SliderTickRate:1

[Events]
//Background and Video events
0,0,"o-GABE-SADDEST-DOG-MONOLOGUE-EVER-facebook.jpg",0,0
Video,20,"video.flv"
//Break Periods
//Storyboard Layer 0 (Background)
//Storyboard Layer 1 (Fail)
//Storyboard Layer 2 (Pass)
//Storyboard Layer 3 (Foreground)
//Storyboard Sound Samples

[TimingPoints]
111,400,4,2,0,70,1,0
25311,-200,4,2,0,70,0,0
25711,-80,4,1,0,85,0,1
44911,-133.333333333333,4,2,0,50,0,0

[HitObjects]
168,320,111,6,0,P|210:279|268:268,1,115,4|2,0:0|0:0,0:0:0:0:
464,212,511,2,0,P|421:252|363:263,1,115,2|2,0:0|0:0,0:0:0:0:
343,106,911,2,0,L|372:156,1,57.5,2|0,0:0|0:0,0:0:0:0:
216,92,1111,2,0,L|187:42,1,57.5
224,108,1311,2,0,B|236:140|236:140|200:284,1,172.5,2|0,0:0|0:0,0:0:0:0:
94,210,1711,6,0,L|38:218,1,57.5,10|0,0:0|0:0,0:0:0:0:
202,274,1911,2,0,L|146:282,1,57.5,2|0,0:0|0:0,0:0:0:0:
310,338,2111,2,0,L|254:346,1,57.5,2|0,0:0|0:0,0:0:0:0:
388,244,2311,1,0,0:0:0:0:
388,244,2411,1,0,0:0:0:0:
388,244,2511,2,0,B|412:172|412:172|446:142,1,115,2|2,0:0|0:0,0:0:0:0:
280,172,2911,2,0,B|256:244|256:244|222:274,1,115,2|2,0:0|0:0,0:0:0:0:
208,284,3211,1,0,0:0:0:0:
184,296,3311,6,0,P|156:304|128:300,1,57.5,10|0,0:0|0:0,0:0:0:0:
368,220,3511,2,0,P|396:212|424:216,1,57.5,2|0,0:0|0:0,0:0:0:0:
212,104,3711,2,0,B|180:80|180:80|144:8,1,115,2|0,0:0|0:0,0:0:0:0:
84,204,4111,5,2,0:0:0:0:
91,260,4211,1,0,0:0:0:0:
130,301,4311,1,2,0:0:0:0:
185,312,4411,1,0,0:0:0:0:
237,290,4511,2,0,P|272:280|308:284,1,57.5,2|0,0:0|0:0,0:0:0:0:
464,336,4711,2,0,P|429:346|393:342,1,57.5,2|0,0:0|0:0,0:0:0:0:
402,125,4911,6,0,L|416:240,1,115,10|2,0:0|0:0,0:0:0:0:
293,280,5311,2,0,P|280:216|232:184,1,115,2|0,0:0|0:0,0:0:0:0:
220,176,5611,1,0,0:0:0:0:
192,172,5711,2,0,P|164:168|136:172,1,57.5,2|0,0:0|0:0,0:0:0:0:
0,260,5911,2,0,P|28:264|56:260,1,57.5
163,332,6111,2,0,P|167:304|164:276,1,57.5
28,99,6311,2,0,P|24:127|28:156,1,57.5
220,84,6511,5,8,0:0:0:0:
220,84,6611,1,0,0:0:0:0:
220,84,6711,2,0,P|304:72|344:96,1,115,2|2,0:0|0:0,0:0:0:0:
512,140,7111,2,0,P|428:152|388:128,1,115,2|2,0:0|0:0,0:0:0:0:
284,232,7611,5,2,0:0:0:0:
280,264,7661,1,2,0:0:0:0:
276,300,7711,2,2,L|272:332,2,28.75
168,268,7911,5,0,0:0:0:0:
164,264,8111,2,0,B|148:228|148:228|160:148,1,115,10|2,0:0|0:0,0:0:0:0:
52,36,8511,2,0,B|68:72|68:72|56:152,1,115,2|0,0:0|0:0,0:0:0:0:
52,172,8811,1,0,0:0:0:0:
48,200,8911,2,0,L|36:256,1,57.5,2|0,0:0|0:0,0:0:0:0:
176,160,9111,2,0,L|164:216,1,57.5,2|0,0:0|0:0,0:0:0:0:
304,120,9311,2,0,L|292:176,1,57.5,2|0,0:0|0:0,0:0:0:0:
432,80,9511,2,0,L|420:136,1,57.5,2|0,0:0|0:0,0:0:0:0:
412,268,9711,6,0,B|400:232|400:232|416:156,1,115,10|2,0:0|0:0,0:0:0:0:
316,284,10111,2,0,P|268:300|196:284,1,115,2|0,0:0|0:0,0:0:0:0:
256,192,10411,1,0,0:0:0:0:
256,191,10511,2,0,P|260:163|252:136,1,57.5,2|0,0:0|0:0,0:0:0:0:
115,16,10711,2,0,P|111:44|119:71,1,57.5,2|0,0:0|0:0,0:0:0:0:
96,176,10911,2,0,P|128:184|156:172,1,57.5,2|0,0:0|0:0,0:0:0:0:
284,28,11111,2,0,P|252:20|224:32,1,57.5,2|0,0:0|0:0,0:0:0:0:
384,136,11311,6,0,P|392:184|356:240,1,115,10|2,0:0|0:0,0:0:0:0:
276,164,11711,1,2,0:0:0:0:
247,157,11761,1,2,0:0:0:0:
219,155,11811,1,2,0:0:0:0:
190,158,11861,1,2,0:0:0:0:
162,165,11911,2,2,P|132:172|104:160,1,57.5,2|0,0:0|0:0,0:0:0:0:
96,256,12111,6,0,B|100:340|100:340|72:376,1,115,2|0,0:0|0:0,0:0:0:0:
0,212,12511,2,0,B|-4:128|-4:128|24:92,1,115
196,176,12911,5,8,0:0:0:0:
368,84,13111,1,2,0:0:0:0:
280,260,13311,1,2,0:0:0:0:
240,68,13511,1,2,0:0:0:0:
380,204,13711,2,0,L|436:228,1,57.5,2|0,0:0|0:0,0:0:0:0:
240,68,13911,2,0,L|184:44,1,57.5
260,76,14111,6,0,P|320:92|372:72,1,115,2|0,0:0|0:0,0:0:0:0:
444,144,14511,1,10,0:0:0:0:
324,312,14711,1,2,0:0:0:0:
496,256,14911,1,2,0:0:0:0:
320,136,15111,1,0,0:0:0:0:
384,228,15311,5,2,0:0:0:0:
220,36,15511,1,2,0:0:0:0:
120,272,15711,1,2,0:0:0:0:
320,136,15911,1,2,0:0:0:0:
280,328,16111,6,0,B|296:308|296:308|312:200,1,115,10|0,0:0|0:0,0:0:0:0:
424,188,16411,1,0,0:0:0:0:
424,188,16511,2,0,B|408:208|408:208|392:316,1,115,2|0,0:0|0:0,0:0:0:0:
309,219,16911,1,2,0:0:0:0:
187,187,17111,1,2,0:0:0:0:
187,63,17311,1,2,0:0:0:0:
306,24,17511,1,2,0:0:0:0:
376,123,17711,6,0,P|422:91|440:38,1,115,10|2,0:0|0:0,0:0:0:0:
280,184,18111,2,0,P|233:216|215:269,1,115,2|0,0:0|0:0,0:0:0:0:
332,284,18411,1,0,0:0:0:0:
332,284,18511,2,0,L|388:312,1,57.5,2|0,0:0|0:0,0:0:0:0:
176,136,18711,2,0,L|120:108,1,57.5
272,48,18911,1,0,0:0:0:0:
327,35,19011,1,0,0:0:0:0:
377,59,19111,2,0,P|408:72|436:68,2,57.5,0|0|8,0:0|0:0|0:0,0:0:0:0:
448,188,19511,6,0,P|452:232|444:252,1,57.5,2|0,0:0|0:0,0:0:0:0:
340,256,19711,2,0,P|321:296|304:309,1,57.5,2|0,0:0|0:0,0:0:0:0:
210,260,19911,2,0,P|173:285|152:288,1,57.5,2|0,0:0|0:0,0:0:0:0:
113,66,20111,2,0,P|113:123|136:176,1,115,2|0,0:0|0:0,0:0:0:0:
204,116,20411,1,2,0:0:0:0:
230,106,20461,1,2,0:0:0:0:
259,103,20511,1,2,0:0:0:0:
420,144,20711,5,0,0:0:0:0:
420,144,20911,2,0,B|432:176|432:176|412:268,1,115,10|2,0:0|0:0,0:0:0:0:
300,336,21311,2,0,B|288:304|288:304|308:212,1,115,2|0,0:0|0:0,0:0:0:0:
312,200,21611,1,0,0:0:0:0:
320,172,21711,1,2,0:0:0:0:
408,296,21911,1,2,0:0:0:0:
176,180,22111,1,2,0:0:0:0:
448,180,22311,1,2,0:0:0:0:
212,296,22511,6,0,P|180:303|116:359,1,115,10|2,0:0|0:0,0:0:0:0:
96,180,22911,2,0,P|128:173|192:117,1,115,2|0,0:0|0:0,0:0:0:0:
88,64,23311,1,2,0:0:0:0:
200,260,23511,2,0,P|216:288|216:320,1,57.5,2|0,0:0|0:0,0:0:0:0:
312,296,23711,2,0,P|328:324|328:356,1,57.5,2|0,0:0|0:0,0:0:0:0:
424,324,23911,2,0,P|440:352|440:384,1,57.5,2|0,0:0|0:0,0:0:0:0:
368,224,24111,6,0,P|356:168|376:108,1,115,10|2,0:0|0:0,0:0:0:0:
264,64,24511,1,10,0:0:0:0:
236,72,24561,1,2,0:0:0:0:
208,75,24611,1,2,0:0:0:0:
179,72,24661,1,2,0:0:0:0:
152,64,24711,2,0,P|120:56|84:68,1,57.5,2|2,0:0|0:0,0:0:0:0:
12,88,24911,1,14,0:0:0:0:
268,172,25311,6,0,P|296:200|304:220,1,57.5
308,224,25711,6,0,B|304:312|384:356,1,143.75,12|2,0:0|0:0,0:0:0:0:
448,228,26111,2,0,B|452:140|372:96,1,143.75,10|2,0:0|0:0,0:0:0:0:
276,36,26411,1,0,0:0:0:0:
276,36,26511,2,0,L|202:31,1,71.875,10|0,0:0|0:0,0:0:0:0:
44,100,26711,2,0,L|117:104,1,71.875
196,184,26911,2,0,B|220:216|220:216|196:348,1,143.75,10|8,0:0|0:0,0:0:0:0:
108,236,27211,1,0,0:0:0:0:
108,236,27311,6,0,L|36:248,1,71.875,10|0,0:0|0:0,0:0:0:0:
296,136,27511,2,0,L|368:124,1,71.875,2|0,0:0|0:0,0:0:0:0:
448,56,27711,2,0,P|468:94|446:192,1,143.75,10|0,0:0|0:0,0:0:0:0:
440,208,28011,1,0,0:0:0:0:
428,232,28111,2,0,P|412:272|424:304,1,71.875,10|0,0:0|0:0,0:0:0:0:
300,208,28311,2,0,P|271:240|271:274,1,71.875,10|0,0:0|0:0,0:0:0:0:
187,141,28511,2,0,P|149:161|137:193,1,71.875,10|0,0:0|0:0,0:0:0:0:
102,38,28711,2,0,P|59:44|37:70,1,71.875,10|0,0:0|0:0,0:0:0:0:
40,208,28911,6,0,B|48:328|48:328|68:344,1,143.75,10|0,0:0|0:0,0:0:0:0:
164,276,29211,2,2,L|167:233,2,35.9375,2|2|10,0:0|0:0|0:0,0:0:0:0:
352,316,29511,2,0,P|400:328|476:272,1,143.75,2|10,0:0|0:0,0:0:0:0:
388,212,29911,5,0,0:0:0:0:
164,148,30111,1,10,0:0:0:0:
272,352,30311,1,10,0:0:0:0:
388,212,30511,1,10,0:0:0:0:
56,316,30711,1,2,0:0:0:0:
56,316,30761,1,2,0:0:0:0:
56,316,30811,1,2,0:0:0:0:
56,316,30861,1,2,0:0:0:0:
56,316,30911,2,0,L|127:300,1,71.875,10|0,0:0|0:0,0:0:0:0:
228,44,31111,2,0,L|152:60,1,71.875,2|0,0:0|0:0,0:0:0:0:
144,64,31311,6,0,P|128:128|164:196,1,143.75,10|8,0:0|0:0,0:0:0:0:
284,356,31711,2,0,P|300:292|264:224,1,143.75,8|8,0:0|0:0,0:0:0:0:
192,300,32011,1,0,0:0:0:0:
192,300,32111,2,0,P|152:308|108:292,1,71.875,8|0,0:0|0:0,0:0:0:0:
380,224,32311,5,2,0:0:0:0:
148,140,32511,1,10,0:0:0:0:
192,300,32711,1,2,0:0:0:0:
316,32,32911,1,10,0:0:0:0:
386,262,33111,2,0,L|368:332,1,71.875
294,166,33311,2,0,L|276:236,1,71.875,10|0,0:0|0:0,0:0:0:0:
202,70,33511,2,0,L|184:140,1,71.875,8|0,0:0|0:0,0:0:0:0:
40,236,33711,6,0,P|28:312|72:368,1,143.75,10|2,0:0|0:0,0:0:0:0:
132,288,34011,1,0,0:0:0:0:
132,288,34111,2,0,B|220:216|260:348|364:248,1,215.625,10|0,0:0|0:0,0:0:0:0:
188,372,34511,1,10,0:0:0:0:
284,176,34711,1,2,0:0:0:0:
416,352,34911,1,10,0:0:0:0:
132,288,35111,1,10,0:0:0:0:
413,185,35311,6,0,P|333:205|281:173,1,143.75,10|0,0:0|0:0,0:0:0:0:
360,96,35611,1,2,0:0:0:0:
360,96,35661,1,2,0:0:0:0:
360,96,35711,2,0,B|368:20,1,71.875,10|0,0:0|0:0,0:0:0:0:
220,260,35911,2,0,B|212:336,1,71.875,2|0,0:0|0:0,0:0:0:0:
132,104,36111,1,10,0:0:0:0:
132,104,36511,5,10,0:0:0:0:
216,327,36711,1,10,0:0:0:0:
300,164,36911,1,10,0:0:0:0:
0,232,37111,1,2,0:0:0:0:
304,276,37311,2,0,P|364:260|412:188,1,143.75,10|2,0:0|0:0,0:0:0:0:
416,176,37611,5,0,0:0:0:0:
416,152,37711,1,10,0:0:0:0:
436,340,37911,1,2,0:0:0:0:
260,108,38111,1,10,0:0:0:0:
30,291,38311,5,10,0:0:0:0:
30,291,38411,1,0,0:0:0:0:
30,291,38511,2,0,L|41:220,1,71.875
256,290,38711,2,0,L|244:220,1,71.875,2|0,0:0|0:0,0:0:0:0:
141,216,38911,2,0,B|141:176|141:176|157:132|185:60,1,143.75,10|2,0:0|0:0,0:0:0:0:
420,52,39311,2,0,B|420:92|420:92|404:136|376:208,1,143.75,10|0,0:0|0:0,0:0:0:0:
376,212,39611,1,0,0:0:0:0:
368,232,39711,2,0,P|360:272|364:304,1,71.875,10|0,0:0|0:0,0:0:0:0:
248,160,39911,2,0,P|256:120|252:88,1,71.875,8|0,0:0|0:0,0:0:0:0:
147,117,40111,5,10,0:0:0:0:
468,276,40311,1,2,0:0:0:0:
216,336,40511,2,0,B|200:276|200:276|232:192,1,143.75,10|0,0:0|0:0,0:0:0:0:
240,176,40811,5,0,0:0:0:0:
252,152,40911,2,0,P|268:116|268:80,1,71.875,10|0,0:0|0:0,0:0:0:0:
156,92,41111,1,10,0:0:0:0:
396,184,41311,1,10,0:0:0:0:
100,260,41511,1,10,0:0:0:0:
344,340,41711,2,0,P|416:344|468:288,1,143.75,10|0,0:0|0:0,0:0:0:0:
380,244,42011,1,2,0:0:0:0:
380,244,42061,1,2,0:0:0:0:
380,244,42111,2,0,L|348:172,1,71.875,10|0,0:0|0:0,0:0:0:0:
220,48,42311,2,0,L|249:113,1,71.875,2|0,0:0|0:0,0:0:0:0:
232,228,42511,2,0,P|204:260|100:236,1,143.75,10|0,0:0|0:0,0:0:0:0:
152,156,42911,5,10,0:0:0:0:
336,336,43111,1,10,0:0:0:0:
420,136,43311,1,10,0:0:0:0:
184,256,43511,1,2,0:0:0:0:
148,256,43561,1,2,0:0:0:0:
115,243,43611,1,2,0:0:0:0:
88,219,43661,1,2,0:0:0:0:
73,187,43711,1,10,0:0:0:0:
180,136,43911,5,2,0:0:0:0:
368,376,44111,1,10,0:0:0:0:
452,168,44311,5,8,0:0:0:0:
128,348,44511,1,8,0:0:0:0:
12,28,44711,1,8,0:0:0:0:
160,148,44911,5,0,0:0:0:0:
160,148,45111,2,0,P|196:156|244:144,1,86.2500032901765
392,56,45511,2,0,P|356:48|308:60,1,86.2500032901765
352,180,46011,2,0,L|351:158,3,21.5625008225441
292,260,46311,5,0,0:0:0:0:
292,260,46511,2,0,P|252:268|204:236,1,86.2500032901765
124,184,46911,2,0,L|104:312,1,129.375004935265
100,340,47311,1,0,0:0:0:0:
272,148,47611,6,0,L|264:116,2,21.5625008225441
372,196,47911,2,0,B|388:264|388:264|408:272,1,86.2500032901765
308,356,48311,2,0,B|292:288|292:288|272:280,1,86.2500032901765
164,256,48711,1,0,0:0:0:0:
88,172,48911,1,0,0:0:0:0:
272,108,49311,6,0,P|296:76|316:136,1,129.375004935265
407,292,49711,2,0,L|388:208,1,86.2500032901765
291,340,50111,2,0,L|272:256,1,86.2500032901765
171,384,50511,2,0,L|152:300,1,86.2500032901765
204,112,50911,5,4,0:0:0:0:
