osu file format v14

[General]
AudioFilename: Gabetrousle.mp3
AudioLeadIn: 0
PreviewTime: 24911
Countdown: 1
SampleSet: Soft
StackLeniency: 0.7
Mode: 0
LetterboxInBreaks: 0
WidescreenStoryboard: 1

[Editor]
DistanceSpacing: 0.6
BeatDivisor: 4
GridSize: 4
TimelineZoom: 2.1

[Metadata]
Title:Gabetrousle
TitleUnicode:Gabetrousle
Artist:Gurchik
ArtistUnicode:Gurchik
Creator:Tasty Beverage
Version:Insane
Source:Undertale
Tags:pomuta mahiro yasaka bahamete spaghetti toby fox game bonetrousle
BeatmapID:803945
BeatmapSetID:366331

[Difficulty]
HPDrainRate:6
CircleSize:4.3
OverallDifficulty:7
ApproachRate:9
SliderMultiplier:2.3
SliderTickRate:1

[Events]
//Background and Video events
0,0,"o-GABE-SADDEST-DOG-MONOLOGUE-EVER-facebook.jpg",0,0
Video,0,"video.flv"
//Break Periods
//Storyboard Layer 0 (Background)
//Storyboard Layer 1 (Fail)
//Storyboard Layer 2 (Pass)
//Storyboard Layer 3 (Foreground)
//Storyboard Sound Samples

[TimingPoints]
111,400,4,2,0,70,1,0
19111,-133.333333333333,4,2,0,70,0,0
19311,-100,4,2,0,70,0,0
25311,-200,4,2,0,70,0,0
25711,-80,4,1,0,85,0,1
44111,-133.333333333333,4,1,0,85,0,1
44911,-133.333333333333,4,2,0,50,0,0

[HitObjects]
84,224,111,6,0,P|96:296|136:336,1,115,0|2,0:0|0:0,0:0:0:0:
224,224,511,2,0,P|212:152|172:112,1,115,2|2,0:0|0:0,0:0:0:0:
332,92,911,1,2,0:0:0:0:
424,196,1311,1,2,0:0:0:0:
388,328,1711,6,0,P|336:324|275:275,1,115
180,192,2111,2,0,P|133:158|77:153,1,115
104,264,2511,1,2,0:0:0:0:
216,80,2711,1,2,0:0:0:0:
276,240,2911,1,2,0:0:0:0:
384,148,3111,1,2,0:0:0:0:
276,240,3311,6,0,L|160:212,1,115,2|2,0:0|0:0,0:0:0:0:
260,328,3711,2,0,L|376:356,1,115,2|2,0:0|0:0,0:0:0:0:
480,252,4111,1,2,0:0:0:0:
380,92,4311,1,2,0:0:0:0:
336,180,4511,1,2,0:0:0:0:
476,54,4711,1,2,0:0:0:0:
336,180,4911,6,0,P|280:189|229:163,1,115,2|2,0:0|0:0,0:0:0:0:
108,256,5311,2,0,P|163:246|214:272,1,115,2|2,0:0|0:0,0:0:0:0:
352,336,5711,1,0,0:0:0:0:
428,311,5911,1,0,0:0:0:0:
428,230,6111,1,0,0:0:0:0:
352,205,6311,1,0,0:0:0:0:
204,213,6511,6,0,P|240:256|296:266,1,115
292,152,6911,2,0,P|255:108|200:99,1,115
112,136,7311,1,0,0:0:0:0:
360,64,7611,6,2,P|356:48|364:16,3,28.75
248,80,7911,1,0,0:0:0:0:
248,80,8111,2,0,B|192:60|192:60|148:100,1,115,2|2,0:0|0:0,0:0:0:0:
130,241,8511,2,0,B|186:261|186:261|228:224,1,115,2|0,0:0|0:0,0:0:0:0:
360,152,8911,6,2,P|360:132|344:120,2,28.75
432,220,9111,1,2,0:0:0:0:
388,308,9311,1,2,0:0:0:0:
468,364,9511,1,2,0:0:0:0:
304,348,9711,6,0,P|260:360|180:344,1,115,2|2,0:0|0:0,0:0:0:0:
128,209,10111,2,0,P|183:197|240:208,1,115,2|0,0:0|0:0,0:0:0:0:
356,244,10511,2,2,P|376:252|384:252,2,28.75
452,200,10711,1,2,0:0:0:0:
288,152,10911,1,2,0:0:0:0:
316,328,11111,1,2,0:0:0:0:
356,244,11311,6,0,B|388:268|388:268|416:340,1,115,2|2,0:0|0:0,0:0:0:0:
228,308,11711,2,2,P|208:304|184:288,3,28.75
180,292,11911,2,0,P|146:297|96:232,1,115,2|2,0:0|0:0,0:0:0:0:
212,172,12311,2,0,B|196:140|196:140|212:60,1,115,0|0,2:2|2:2,2:2:0:0:
296,24,12711,2,0,B|312:56|312:56|296:136,1,115,0|0,2:2|2:2,2:2:0:0:
380,288,13111,6,0,P|424:336|480:312,1,115,2|2,0:0|0:0,0:0:0:0:
296,336,13511,2,0,B|240:360|240:360|192:336,1,115,2|2,0:0|0:0,0:0:0:0:
240,240,13911,1,0,0:0:0:0:
304,132,14111,1,2,0:0:0:0:
176,156,14311,1,0,0:0:0:0:
172,44,14511,2,0,P|140:48|80:108,1,115,2|2,0:0|0:0,0:0:0:0:
89,210,14911,2,0,P|121:206|181:146,1,115,2|2,0:0|0:0,0:0:0:0:
252,224,15311,1,0,0:0:0:0:
364,261,15511,1,0,0:0:0:0:
432,166,15711,1,0,0:0:0:0:
364,72,15911,1,0,0:0:0:0:
155,155,16111,6,0,P|183:123|251:107,1,115
320,336,16511,1,0,0:0:0:0:
248,216,16711,1,0,0:0:0:0:
408,232,16911,2,0,B|456:184|428:120,1,115
324,156,17311,2,0,P|274:128|219:139,1,115,2|2,0:0|0:0,0:0:0:0:
64,80,17711,1,2,0:0:0:0:
112,184,17911,1,2,0:0:0:0:
76,292,18111,1,2,0:0:0:0:
156,376,18311,2,0,P|196:376|260:328,1,115,0|2,0:0|0:0,0:0:0:0:
296,168,18711,6,0,P|239:173|195:209,1,115
255,334,19111,2,0,P|300:324|348:344,1,86.25
400,232,19511,2,0,B|392:172|312:160,1,115,2|2,0:0|0:0,0:0:0:0:
212,128,19911,1,2,0:0:0:0:
112,152,20111,2,0,B|40:162|32:222,1,115,2|2,0:0|0:0,0:0:0:0:
128,252,20411,2,2,P|140:272|152:280,4,28.75
260,180,20711,5,0,0:0:0:0:
260,180,20911,2,0,P|296:184|352:248,1,115,2|2,0:0|0:0,0:0:0:0:
341,356,21311,2,0,P|286:344|252:300,1,115,2|0,0:0|0:0,0:0:0:0:
440,308,21711,5,2,0:0:0:0:
428,160,21911,1,2,0:0:0:0:
349,237,22111,1,2,0:0:0:0:
332,88,22311,1,2,0:0:0:0:
240,172,22511,2,0,P|182:172|139:236,1,115,2|2,0:0|0:0,0:0:0:0:
140,332,22911,2,0,P|196:332|236:292,1,115,2|2,0:0|0:0,0:0:0:0:
360,152,23311,6,0,L|480:188,1,115,2|2,0:0|0:0,0:0:0:0:
508,328,23711,2,0,L|388:292,1,115,2|2,0:0|0:0,0:0:0:0:
256,340,24111,1,2,0:0:0:0:
136,224,24311,1,2,0:0:0:0:
176,64,24511,2,2,P|176:44|172:32,6,28.75
172,84,24911,1,0,0:0:0:0:
108,160,25311,2,0,P|104:184|112:220,1,57.5
116,228,25711,6,0,P|144:288|216:324,1,143.75,12|2,0:0|0:0,0:0:0:0:
382,247,26111,2,0,P|351:183|288:152,1,143.75,12|2,0:0|0:0,0:0:0:0:
276,256,26511,1,10,0:0:0:0:
352,84,26711,1,0,0:0:0:0:
176,148,26911,1,0,0:0:0:0:
382,247,27111,1,10,0:0:0:0:
176,148,27311,6,0,P|124:152|104:252,1,143.75,10|2,0:0|0:0,0:0:0:0:
224,332,27711,2,0,P|275:324|292:220,1,143.75,10|2,0:0|0:0,0:0:0:0:
192,240,28111,1,10,0:0:0:0:
308,92,28311,1,2,0:0:0:0:
400,256,28511,1,10,0:0:0:0:
184,124,28711,1,2,0:0:0:0:
136,260,28911,6,2,P|116:272|92:268,2,35.9375,10|2|2,0:0|0:0|0:0,0:0:0:0:
220,232,29111,1,0,0:0:0:0:
228,44,29311,1,10,0:0:0:0:
344,188,29511,1,2,0:0:0:0:
112,136,29711,6,2,P|90:146|72:160,2,35.9375,10|2|2,0:0|0:0|0:0,0:0:0:0:
156,228,29911,1,0,0:0:0:0:
276,168,30111,1,2,0:0:0:0:
408,240,30311,1,2,0:0:0:0:
396,96,30511,2,2,P|408:80|408:52,2,35.9375,10|2|2,0:0|0:0|0:0,0:0:0:0:
280,40,30711,1,0,0:0:0:0:
280,40,30811,1,2,0:0:0:0:
280,40,30911,2,0,P|223:40|156:128,1,143.75,10|0,0:0|0:0,0:0:0:0:
150,220,31311,2,0,P|220:215|268:164,1,143.75,10|0,0:0|0:0,0:0:0:0:
388,168,31711,2,0,B|436:184|436:184|500:292,1,143.75,8|0,0:0|0:0,0:0:0:0:
440,376,32111,2,0,B|392:360|392:360|328:252,1,143.75,8|0,0:0|0:0,0:0:0:0:
280,376,32511,5,10,0:0:0:0:
483,264,32711,1,2,0:0:0:0:
252,184,32911,2,0,P|199:178|104:240,1,143.75,10|0,0:0|0:0,0:0:0:0:
208,292,33311,1,10,0:0:0:0:
300,76,33511,1,0,0:0:0:0:
341,205,33711,6,0,B|351:172|351:172|287:54,1,143.75,10|2,0:0|0:0,0:0:0:0:
224,252,34111,1,0,0:0:0:0:
116,204,34311,1,0,0:0:0:0:
20,260,34511,6,0,P|-8:308|76:360,1,143.75,10|2,0:0|0:0,0:0:0:0:
116,204,34911,2,0,P|144:156|60:104,1,143.75,10|2,0:0|0:0,0:0:0:0:
240,132,35311,1,10,0:0:0:0:
196,316,35511,1,0,0:0:0:0:
336,192,35711,1,2,0:0:0:0:
440,348,35911,1,10,0:0:0:0:
236,224,36111,2,2,P|220:232|188:228,2,43.1250016450883,10|2|2,0:0|0:0|0:0,0:0:0:0:
264,324,36511,6,2,L|276:364,1,35.9375,10|2,0:0|0:0,0:0:0:0:
142,156,36711,2,2,L|108:136,1,35.9375
338,221,36911,2,2,L|376:224,1,35.9375,10|2,0:0|0:0,0:0:0:0:
142,284,37111,2,2,L|108:312,1,35.9375
264,117,37311,2,2,L|276:84,1,35.9375,10|2,0:0|0:0,0:0:0:0:
274,356,37511,1,0,0:0:0:0:
112,134,37711,1,0,0:0:0:0:
373,219,37911,1,0,0:0:0:0:
112,303,38111,1,0,0:0:0:0:
274,81,38311,1,0,0:0:0:0:
226,210,38511,6,0,P|231:145|290:74,1,143.75
438,77,38911,2,0,P|431:147|388:204,1,143.75
292,292,39311,1,10,0:0:0:0:
283,88,39511,1,0,0:0:0:0:
152,224,39711,1,10,0:0:0:0:
80,52,39911,1,0,0:0:0:0:
224,168,40111,6,0,B|236:244|236:244|200:316,1,143.75,10|2,0:0|0:0,0:0:0:0:
84,212,40511,2,0,B|72:136|72:136|108:64,1,143.75,10|2,0:0|0:0,0:0:0:0:
224,168,40911,1,10,0:0:0:0:
360,296,41111,1,2,0:0:0:0:
196,316,41311,1,10,0:0:0:0:
400,124,41511,1,2,0:0:0:0:
194,184,41711,6,0,P|170:256|216:332,1,143.75,10|0,0:0|0:0,0:0:0:0:
292,248,42011,1,0,0:0:0:0:
292,248,42111,2,0,P|316:176|270:100,1,143.75,10|0,0:0|0:0,0:0:0:0:
168,56,42511,2,2,P|144:52|128:56,2,35.9375,10|2|2,0:0|0:0|0:0,0:0:0:0:
88,144,42911,5,0,0:0:0:0:
200,296,43111,1,0,0:0:0:0:
24,240,43311,1,0,0:0:0:0:
219,142,43511,2,0,L|247:106,3,35.9375
207,162,43711,2,0,P|183:210|207:306,1,143.75
296,236,44111,2,0,L|392:220,1,86.2500032901765
400,316,44511,2,0,L|496:300,1,86.2500032901765
199,295,44911,6,0,P|211:335|195:379,1,86.2500032901765,4|2,0:0|0:0,0:0:0:0:
97,329,45311,2,0,P|85:289|101:245,1,86.2500032901765,10|2,0:0|0:0,0:0:0:0:
172,168,45711,2,0,P|204:180|264:156,1,86.2500032901765,10|0,0:0|0:0,0:0:0:0:
340,128,46011,2,2,P|356:120|372:116,4,21.5625008225441,2|2|10|2|2,0:0|0:0|0:0|0:0|0:0,0:0:0:0:
264,252,46511,5,10,0:0:0:0:
180,284,46711,1,2,0:0:0:0:
100,316,46911,1,10,0:0:0:0:
136,148,47311,5,10,0:0:0:0:
308,80,47611,2,2,P|316:64|308:36,1,43.1250016450883,2|10,0:0|0:0,0:0:0:0:
388,116,47911,1,2,0:0:0:0:
464,156,48111,2,0,B|492:200|492:200|480:244,1,86.2500032901765,10|2,0:0|0:0,0:0:0:0:
412,284,48511,2,0,B|388:248|388:248|400:196,1,86.2500032901765,10|2,0:0|0:0,0:0:0:0:
312,212,48911,2,0,P|260:224|160:168,1,172.500006580353,10|10,0:0|0:0,0:0:0:0:
356,112,49711,5,10,0:0:0:0:
432,72,49911,1,2,0:0:0:0:
512,36,50111,1,10,0:0:0:0:
372,312,50511,5,14,0:0:0:0:
372,312,50911,5,14,0:0:0:0:
