osu file format v14

[General]
AudioFilename: audio.mp3
AudioLeadIn: 0
PreviewTime: 77025
Countdown: 0
SampleSet: Soft
StackLeniency: 0.3
Mode: 0
LetterboxInBreaks: 0
WidescreenStoryboard: 1

[Editor]
DistanceSpacing: 1
BeatDivisor: 2
GridSize: 4
TimelineZoom: 1

[Metadata]
Title:No Pantalones
TitleUnicode:No Pantalones
Artist:Gunther
ArtistUnicode:Günther
Creator:Andrea
Version:Natsu's Easy
Source:
Tags:osuplayer111 Saten Gero Natsu Tony Europop Eurodance Mats Söderlund Soderlund Mustache Moustache Sexy Man Donald Duck The Sunshine Girls
BeatmapID:1052134
BeatmapSetID:494103

[Difficulty]
HPDrainRate:2
CircleSize:3
OverallDifficulty:2
ApproachRate:3
SliderMultiplier:1.1
SliderTickRate:1

[Events]
//Background and Video events
0,0,"THE MAN.jpg",0,0
//Break Periods
2,26824,28771
2,77146,79093
2,110733,111997
2,159888,164255
//Storyboard Layer 0 (Background)
//Storyboard Layer 1 (Fail)
//Storyboard Layer 2 (Pass)
//Storyboard Layer 3 (Foreground)
//Storyboard Sound Samples

[TimingPoints]
5050,483.870967741935,4,1,1,60,1,0
5291,-100,4,2,1,40,0,0
8437,-100,4,2,1,5,0,0
8679,-100,4,2,1,40,0,0
9162,-100,4,2,1,50,0,0
13033,-100,4,2,1,60,0,0
16904,-100,4,2,1,70,0,0
20775,-100,4,2,1,80,0,0
24646,-100,4,2,1,90,0,0
30211,-100,4,1,1,80,0,0
45695,-100,4,2,1,80,0,0
61179,-100,4,1,1,80,0,0
80533,-100,4,1,1,80,0,1
96017,-100,4,1,1,80,0,0
129162,-100,4,2,2,80,0,0
165695,-100,4,1,1,80,0,1
180695,-100,4,2,1,80,0,1
181058,-100,4,2,1,80,0,0
181179,-100,4,1,1,80,0,1
194485,-100,4,2,1,80,0,0
196662,-100,4,1,1,80,0,1
209969,-100,4,2,1,80,0,0

[Colours]
Combo1 : 202,154,138
Combo2 : 186,202,138
Combo3 : 138,202,186

[HitObjects]
44,35,5049,6,0,P|27:87|44:139,1,110,4|0,0:0|0:0,0:0:0:0:
140,192,6017,2,0,L|240:192,2,82.5,0|2|0,0:0|0:0|0:0,0:0:0:0:
116,299,7227,2,0,L|184:299,1,55,0|2,0:0|0:0,0:0:0:0:
274,261,7953,2,0,P|310:189|268:120,1,165,0|0,0:0|0:0,0:0:0:0:
174,70,9162,6,0,L|116:70,1,55,0|2,0:0|0:0,0:0:0:0:
60,163,9888,2,0,P|47:201|54:241,2,82.5,0|0|0,0:0|0:0|0:0,0:0:0:0:
159,210,11098,2,0,L|218:210,1,55,2|8,0:0|0:0,0:0:0:0:
281,122,11824,2,0,P|268:83|275:43,2,82.5,2|0|0,0:0|0:0|0:0,0:0:0:0:
381,74,13034,6,0,L|439:74,1,55,0|8,0:0|0:0,0:0:0:0:
495,166,13759,2,0,P|507:204|500:244,2,82.5,2|0|2,0:0|0:0|0:0,0:0:0:0:
396,212,14969,2,0,L|337:211,1,55,0|8,0:0|0:0,0:0:0:0:
229,214,15695,2,0,L|136:247,2,82.5,2|0|0,0:0|0:0|0:0,0:0:0:0:
288,121,16904,6,0,P|295:94|288:68,1,55,0|8,0:0|0:0,0:0:0:0:
182,95,17630,2,0,L|82:95,2,82.5,2|0|0,0:0|0:0|0:0,0:0:0:0:
138,196,18840,2,0,L|66:196,1,55,2|8,0:0|0:0,0:0:0:0:
23,289,19566,2,0,P|10:327|17:367,2,82.5,2|0|0,0:0|0:0|0:0,0:0:0:0:
122,336,20776,6,0,P|149:342|176:338,1,55,0|8,0:0|0:0,0:0:0:0:
256,263,21501,2,0,L|255:172,2,82.5,2|0|0,0:0|0:0|0:0,0:0:0:0:
335,338,22711,2,0,P|362:342|389:336,1,55,0|8,0:0|0:0,0:0:0:0:
478,272,23437,1,2,0:0:0:0:
474,162,23920,2,0,L|445:113,1,55,8|0,0:0|0:0,0:0:0:0:
342,152,24646,6,0,L|371:201,1,55,0|8,0:0|0:0,0:0:0:0:
458,264,25372,2,0,L|506:345,2,82.5,2|0|2,0:0|0:0|0:0,0:0:0:0:
492,91,30211,6,0,P|497:64|494:36,2,55,4|0|8,0:0|0:0|0:0,0:0:0:0:
402,153,31179,2,0,L|303:153,2,82.5,0|0|0,0:0|0:0|0:0,0:0:0:0:
353,251,32388,2,0,L|296:251,1,55,0|8,0:0|0:0,0:0:0:0:
202,306,33114,1,0,0:0:0:0:
207,196,33598,2,0,L|186:144,1,55,8|0,0:0|0:0,0:0:0:0:
255,59,34324,6,0,L|275:110,1,55,0|8,0:0|0:0,0:0:0:0:
359,179,35049,2,0,P|398:171|438:179,2,82.5,0|0|0,0:0|0:0|0:0,0:0:0:0:
256,219,36259,2,0,L|235:270,1,55,0|8,0:0|0:0,0:0:0:0:
184,367,36985,1,0,0:0:0:0:
130,271,37469,2,0,L|109:219,1,55,8|0,0:0|0:0,0:0:0:0:
173,130,38195,6,0,L|193:181,1,55,0|8,0:0|0:0,0:0:0:0:
256,273,38920,2,0,L|255:368,2,82.5,0|0|0,0:0|0:0|0:0,0:0:0:0:
318,181,40130,2,0,L|339:130,1,55,0|8,0:0|0:0,0:0:0:0:
377,26,40856,1,0,0:0:0:0:
271,59,41340,2,0,P|245:65|219:59,1,55,8|0,0:0|0:0,0:0:0:0:
112,30,42066,6,0,P|84:25|58:32,1,55,0|8,0:0|0:0,0:0:0:0:
22,133,42791,2,0,L|8:214,2,82.5,0|0|0,0:0|0:0|0:0,0:0:0:0:
116,190,44001,2,0,L|106:257,1,55,0|8,0:0|0:0,0:0:0:0:
50,338,44727,2,0,P|102:356|154:343,1,110,0|8,0:0|0:0,0:0:0:0:
256,297,45695,5,0,0:0:0:0:
357,343,46179,2,0,P|409:356|461:338,2,110,2|0|2,0:0|0:0|0:0,0:0:0:0:
256,297,47630,1,0,0:0:0:0:
357,253,48114,2,0,P|409:239|460:257,1,110,2|0,0:0|0:0,0:0:0:0:
404,352,49082,1,2,0:0:0:0:
294,342,49566,6,0,B|211:342|211:342|185:328,2,110,0|2|0,0:0|0:0|0:0,0:0:0:0:
357,253,51017,1,2,0:0:0:0:
405,154,51501,2,0,P|351:143|299:160,1,110,0|2,0:0|0:0,0:0:0:0:
212,224,52469,2,0,P|160:240|106:230,1,110,0|2,0:0|0:0,0:0:0:0:
4,192,53437,5,0,0:0:0:0:
98,136,53920,2,0,P|115:84|96:33,2,110,8|0|8,0:0|0:0|0:0,0:0:0:0:
4,192,55372,1,0,0:0:0:0:
98,247,55856,2,0,P|115:299|96:350,2,110,8|0|8,0:0|0:0|0:0,0:0:0:0:
4,192,57308,5,0,0:0:0:0:
97,133,57791,2,0,P|148:117|199:133,1,110,8|0,0:0|0:0,0:0:0:0:
256,228,58759,1,8,0:0:0:0:
312,133,59243,2,0,P|363:117|414:133,1,110,0|8,0:0|0:0,0:0:0:0:
490,214,60211,2,0,L|490:325,1,110,0|2,0:0|0:0,0:0:0:0:
382,347,61179,6,0,P|329:333|275:344,1,110,4|8,0:0|0:0,0:0:0:0:
169,372,62146,2,0,P|182:319|171:265,1,110,0|8,0:0|0:0,0:0:0:0:
89,192,63114,1,0,0:0:0:0:
10,115,63598,2,0,P|-1:61|12:8,2,110,8|0|8,0:0|0:0|0:0,0:0:0:0:
107,63,65049,6,0,L|230:63,2,110,0|8|0,0:0|0:0|0:0,0:0:0:0:
10,115,66501,1,8,0:0:0:0:
89,192,66985,2,0,P|105:245|90:301,1,110,0|8,0:0|0:0,0:0:0:0:
187,352,67953,2,0,L|297:352,1,110,0|8,0:0|0:0,0:0:0:0:
384,284,68920,5,0,0:0:0:0:
321,191,69404,2,0,P|308:139|325:87,1,110,8|0,0:0|0:0,0:0:0:0:
402,8,70372,1,8,0:0:0:0:
478,88,70856,2,0,P|494:139|481:192,1,110,0|8,0:0|0:0,0:0:0:0:
388,253,71824,2,0,L|277:253,1,110,0|8,0:0|0:0,0:0:0:0:
186,314,72791,5,0,0:0:0:0:
110,233,73275,2,0,P|94:181|110:123,2,110,8|0|8,0:0|0:0|0:0,0:0:0:0:
209,180,74727,2,0,P|260:164|319:180,1,110,0|8,0:0|0:0,0:0:0:0:
264,275,75695,2,0,P|248:326|264:385,1,110,0|8,0:0|0:0,0:0:0:0:
359,329,76662,1,0,0:0:0:0:
429,355,80533,6,0,P|456:350|484:352,2,55,4|0|8,0:0|0:0|0:0,0:0:0:0:
335,296,81501,2,0,P|347:242|333:190,1,110,0|8,0:0|0:0,0:0:0:0:
256,111,82469,1,0,0:0:0:0:
178,190,82953,2,0,P|164:242|176:296,2,110,8|0|8,0:0|0:0|0:0,0:0:0:0:
256,111,84404,6,0,L|325:111,2,55,0|0|8,0:0|0:0|0:0,0:0:0:0:
296,214,85372,2,0,L|428:214,1,110,0|8,0:0|0:0,0:0:0:0:
473,127,86340,1,0,0:0:0:0:
497,235,86824,2,0,P|507:289|491:341,1,110,8|0,0:0|0:0,0:0:0:0:
387,376,87791,1,8,0:0:0:0:
310,297,88275,6,0,L|249:297,2,55,0|0|8,0:0|0:0|0:0,0:0:0:0:
280,191,89243,2,0,L|153:191,1,110,0|8,0:0|0:0,0:0:0:0:
72,140,90211,2,0,P|78:114|73:87,2,55,0|0|8,0:0|0:0|0:0,0:0:0:0:
2,226,91179,2,0,P|-11:281|3:333,1,110,0|8,0:0|0:0,0:0:0:0:
103,373,92146,5,0,0:0:0:0:
200,322,92630,2,0,L|269:322,2,55,8|0|0,0:0|0:0|0:0,0:0:0:0:
237,219,93598,2,0,L|349:219,1,110,8|0,0:0|0:0,0:0:0:0:
478,84,96017,6,0,P|484:57|479:30,2,55,4|0|8,0:0|0:0|0:0,0:0:0:0:
378,128,96985,2,0,L|276:128,2,82.5,0|0|0,0:0|0:0|0:0,0:0:0:0:
324,224,98195,2,0,L|268:224,1,55,0|8,0:0|0:0,0:0:0:0:
180,289,98920,1,0,0:0:0:0:
173,179,99404,2,0,L|160:125,1,55,8|0,0:0|0:0,0:0:0:0:
249,61,100130,6,0,L|261:114,1,55,0|8,0:0|0:0,0:0:0:0:
359,163,100856,2,0,P|399:153|439:161,2,82.5,0|0|0,0:0|0:0|0:0,0:0:0:0:
270,227,102066,2,0,L|257:280,1,55,0|8,0:0|0:0,0:0:0:0:
176,355,102791,1,0,0:0:0:0:
104,271,103275,2,0,P|77:265|50:271,1,55,8|0,0:0|0:0,0:0:0:0:
19,166,104001,6,0,L|19:99,1,55,0|8,0:0|0:0,0:0:0:0:
126,87,104727,2,0,L|126:180,2,82.5,0|0|0,0:0|0:0|0:0,0:0:0:0:
234,68,105937,2,0,L|234:133,1,55,0|8,0:0|0:0,0:0:0:0:
234,233,106662,1,0,0:0:0:0:
329,179,107146,2,0,P|355:172|382:178,1,55,8|0,0:0|0:0,0:0:0:0:
385,288,107872,6,0,P|358:294|331:288,1,55,0|8,0:0|0:0,0:0:0:0:
234,233,108598,2,0,L|134:233,2,82.5,0|0|0,0:0|0:0|0:0,0:0:0:0:
329,179,109808,2,0,L|354:115,1,55,0|8,0:0|0:0,0:0:0:0:
389,25,110533,1,0,0:0:0:0:
31,140,113437,6,0,P|15:87|26:34,1,110,4|8,0:0|0:0,0:0:0:0:
124,84,114404,2,0,L|234:84,1,110,0|8,0:0|0:0,0:0:0:0:
323,148,115372,2,0,L|394:149,2,55,0|0|8,0:0|0:0|0:0,0:0:0:0:
219,185,116340,2,0,P|203:237|218:289,1,110,0|8,0:0|0:0,0:0:0:0:
283,378,117308,5,0,0:0:0:0:
358,298,117791,2,0,P|411:285|464:298,1,110,8|0,0:0|0:0,0:0:0:0:
493,192,118759,1,8,0:0:0:0:
464,85,119243,2,0,P|411:98|358:85,1,110,0|8,0:0|0:0,0:0:0:0:
256,42,120211,2,0,P|203:29|150:42,1,110,0|8,0:0|0:0,0:0:0:0:
62,108,121179,5,0,0:0:0:0:
132,192,121662,2,0,P|144:241|128:300,2,110,8|0|8,0:0|0:0|0:0,0:0:0:0:
201,106,123114,2,0,L|311:106,1,110,0|8,0:0|0:0,0:0:0:0:
398,172,124082,2,0,P|385:221|402:280,1,110,0|8,0:0|0:0,0:0:0:0:
478,351,125049,5,0,0:0:0:0:
371,377,125533,2,0,L|258:377,1,110,8|0,0:0|0:0,0:0:0:0:
177,304,126501,1,8,0:0:0:0:
200,196,126985,2,0,P|209:142|199:88,1,110,0|8,0:0|0:0,0:0:0:0:
312,88,127953,2,0,P|302:142|311:196,1,110,0|8,0:0|0:0,0:0:0:0:
310,306,128920,6,0,B|358:344|358:344|405:311|456:334,2,165,2|2|2,0:0|0:0|0:0,0:0:0:0:
202,306,130856,2,0,B|154:344|154:344|107:311|55:334,2,165,2|2|2,1:0|0:0|0:0,0:0:0:0:
311,305,132791,6,0,B|283:197|390:145|390:145|326:122|313:45,1,330,2|2,1:0|0:0,0:0:0:0:
199,45,134727,2,0,B|186:122|122:145|122:145|229:197|201:305,1,330,2|2,1:0|0:0,0:0:0:0:
311,305,136662,6,0,B|370:279|418:309|418:309|466:267,2,165,2|2|2,1:0|0:0|0:0,0:0:0:0:
201,305,138598,2,0,B|142:279|94:309|94:309|46:267,2,165,2|2|2,1:0|0:0|0:0,0:0:0:0:
311,305,140533,6,0,B|254:193|376:193|375:79|375:79|310:33,1,330,2|2,1:0|0:0,0:0:0:0:
200,33,142469,2,0,B|136:79|136:79|136:193|258:193|201:305,1,330,2|2,1:0|0:0,0:0:0:0:
311,305,144404,6,0,P|383:278|466:306,2,165,2|2|2,1:0|0:0|0:0,0:0:0:0:
201,305,146340,2,0,P|129:278|46:306,2,165,2|2|2,1:0|0:0|0:0,0:0:0:0:
311,305,148275,6,0,B|404:231|404:231|297:194|311:61,1,330,2|2,1:0|0:0,0:0:0:0:
200,61,150211,2,0,B|215:194|108:231|108:231|201:305,1,330,2|2,1:0|0:0,0:0:0:0:
311,305,152146,6,0,B|361:320|361:320|413:315|446:242,2,165,2|2|2,1:0|0:0|0:0,0:0:0:0:
201,305,154082,2,0,B|151:320|151:320|99:315|66:242,2,165,2|2|2,1:0|0:0|0:0,0:0:0:0:
311,303,156017,6,0,P|404:181|312:58,1,330,2|2,1:0|0:0,0:0:0:0:
199,58,157953,2,0,P|107:181|200:303,1,330,2|2,1:0|0:0,0:0:0:0:
34,92,165695,6,0,P|28:65|33:38,2,55,4|0|8,0:0|0:0|0:0,0:0:0:0:
105,175,166663,2,0,P|156:157|208:172,1,110,0|8,0:0|0:0,0:0:0:0:
256,271,167631,1,0,0:0:0:0:
303,172,168114,2,0,P|355:157|407:175,2,110,8|0|8,0:0|0:0|0:0,0:0:0:0:
256,271,169566,6,0,L|257:342,2,55,0|0|8,0:0|0:0|0:0,0:0:0:0:
178,191,170533,2,0,P|127:210|72:196,1,110,0|8,0:0|0:0,0:0:0:0:
120,97,171501,1,0,0:0:0:0:
215,42,171985,2,0,P|265:23|321:37,1,110,8|0,0:0|0:0,0:0:0:0:
273,137,172953,1,8,0:0:0:0:
203,222,173437,6,0,P|199:247|208:288,2,55,0|0|8,0:0|0:0|0:0,0:0:0:0:
273,137,174405,2,0,L|394:136,1,110,0|8,0:0|0:0,0:0:0:0:
470,69,175372,2,0,P|466:43|475:3,2,55,0|0|8,0:0|0:0|0:0,0:0:0:0:
500,175,176341,2,0,L|500:298,1,110,0|8,0:0|0:0,0:0:0:0:
425,366,177308,5,0,0:0:0:0:
340,294,177792,2,0,P|313:299|286:296,2,55,8|0|0,0:0|0:0|0:0,0:0:0:0:
442,255,178759,1,8,0:0:0:0:
377,165,179243,2,0,P|360:113|376:61,1,110,0|2,0:0|0:0,0:0:0:0:
266,55,180211,2,0,L|152:55,1,110,0|2,0:0|0:0,0:0:0:0:
49,81,181179,6,0,P|43:54|49:27,2,55,4|0|8,0:0|0:0|0:0,0:0:0:0:
125,159,182146,2,0,P|139:211|126:264,1,110,0|8,0:0|0:0,0:0:0:0:
71,359,183114,2,0,L|12:360,2,55,0|0|8,0:0|0:0|0:0,0:0:0:0:
177,331,184082,2,0,L|293:331,1,110,0|8,0:0|0:0,0:0:0:0:
391,299,185049,6,0,P|398:326|395:353,2,55,0|0|8,0:0|0:0|0:0,0:0:0:0:
314,222,186017,2,0,P|299:169|311:115,1,110,0|8,0:0|0:0,0:0:0:0:
200,115,186985,2,0,P|212:169|197:222,2,110,0|8|0,0:0|0:0|0:0,0:0:0:0:
256,20,188437,1,8,0:0:0:0:
349,75,188920,6,0,P|402:90|454:75,1,110,0|8,0:0|0:0,0:0:0:0:
503,174,189888,2,0,L|502:283,1,110,0|8,0:0|0:0,0:0:0:0:
399,322,190856,2,0,L|399:377,2,55,0|0|8,0:0|0:0|0:0,0:0:0:0:
331,234,191824,2,0,P|278:219|225:230,1,110,0|8,0:0|0:0,0:0:0:0:
139,299,192791,6,0,L|139:369,2,55,0|0|8,0:0|0:0|0:0,0:0:0:0:
83,203,193759,2,0,B|64:151|64:151|108:113|90:51,1,165,0|2,0:0|0:0,0:0:0:0:
490,82,196662,6,0,P|494:59|487:29,2,55,4|0|8,0:0|0:0|0:0,0:0:0:0:
394,136,197630,2,0,L|284:136,1,110,0|8,0:0|0:0,0:0:0:0:
191,76,198598,1,0,0:0:0:0:
132,169,199082,2,0,P|116:224|135:282,2,110,8|0|8,0:0|0:0|0:0,0:0:0:0:
191,76,200533,6,0,L|191:8,2,55,0|0|8,0:0|0:0|0:0,0:0:0:0:
279,139,201501,2,0,P|331:157|383:140,1,110,0|8,0:0|0:0,0:0:0:0:
472,76,202469,2,0,P|464:49|467:22,2,55,0|0|8,0:0|0:0|0:0,0:0:0:0:
495,183,203437,2,0,P|509:231|490:289,1,110,0|8,0:0|0:0,0:0:0:0:
412,363,204404,5,0,0:0:0:0:
308,324,204888,2,0,P|254:311|202:326,2,110,8|0|8,0:0|0:0|0:0,0:0:0:0:
412,363,206340,1,0,0:0:0:0:
483,279,206824,2,0,P|497:228|473:157,2,110,8|0|8,0:0|0:0|0:0,0:0:0:0:
385,227,208275,6,0,L|323:227,2,55,0|0|8,0:0|0:0|0:0,0:0:0:0:
355,120,209243,2,0,L|190:120,1,165,0|2,0:0|0:0,0:0:0:0:
110,195,210453,2,0,P|155:254|99:304,1,165,0|2,0:0|0:0,0:0:0:0:
