osu file format v14

[General]
AudioFilename: Gunther - I'm Not Justin Bieber Bitch.mp3
AudioLeadIn: 0
PreviewTime: 76969
Countdown: 0
SampleSet: None
StackLeniency: 0.6
Mode: 1
LetterboxInBreaks: 0
WidescreenStoryboard: 0

[Editor]
DistanceSpacing: 0.9
BeatDivisor: 4
GridSize: 32
TimelineZoom: 1.7

[Metadata]
Title:I'm Not Justin Bieber B**ch
TitleUnicode:I'm Not Justin Bieber B**ch
Artist:Gunther
ArtistUnicode:Günther
Creator:Stefan
Version:Oni
Source:
Tags:europop eurodance mats söderlund warner bros mustache moustache sexy man söderlund soderlund bitch thenutritiousguy tng darkdunskin
BeatmapID:1892135
BeatmapSetID:906718

[Difficulty]
HPDrainRate:6.9
CircleSize:6.9
OverallDifficulty:6
ApproachRate:6.9
SliderMultiplier:1.4
SliderTickRate:1

[Events]
//Background and Video events
0,0,"BG.jpg",0,2
//Break Periods
//Storyboard Layer 0 (Background)
//Storyboard Layer 1 (Fail)
//Storyboard Layer 2 (Pass)
//Storyboard Layer 3 (Foreground)
//Storyboard Sound Samples

[TimingPoints]
2605,454.132606721163,4,1,0,80,1,0
80715,-100,4,1,0,80,0,1
93431,-100,4,1,0,80,0,0
95248,-100,4,1,0,80,0,1
107963,-100,4,1,0,80,0,0
144294,-100,4,1,0,80,0,1
157010,-100,4,1,0,80,0,0
158826,-100,4,1,0,80,0,1
171542,-100,4,1,0,80,0,0
213322,-100,4,1,0,80,0,1
227854,-100,4,1,0,80,0,0

[Colours]
Combo1 : 202,154,138
Combo2 : 186,202,138
Combo3 : 138,202,186

[HitObjects]
256,192,2604,5,8,0:0:0:0:
256,192,2832,1,0,0:0:0:0:
256,192,3059,1,0,0:0:0:0:
256,192,3286,1,8,0:0:0:0:
256,192,3740,1,8,0:0:0:0:
256,192,3967,1,0,0:0:0:0:
256,192,4194,1,8,0:0:0:0:
256,192,4648,1,8,0:0:0:0:
256,192,5102,1,8,0:0:0:0:
256,192,5556,1,0,0:0:0:0:
256,192,5783,1,8,0:0:0:0:
256,192,6010,1,0,0:0:0:0:
256,192,6238,1,8,0:0:0:0:
256,192,6465,1,0,0:0:0:0:
256,192,6692,1,0,0:0:0:0:
256,192,6919,1,8,0:0:0:0:
256,192,7373,1,8,0:0:0:0:
256,192,7600,1,0,0:0:0:0:
256,192,7827,1,8,0:0:0:0:
256,192,8281,1,8,0:0:0:0:
256,192,8735,1,8,0:0:0:0:
256,192,9189,1,0,0:0:0:0:
256,192,9416,1,8,0:0:0:0:
256,192,9644,1,0,0:0:0:0:
256,192,9871,1,8,0:0:0:0:
256,192,10098,1,0,0:0:0:0:
256,192,10325,1,0,0:0:0:0:
256,192,10552,1,8,0:0:0:0:
256,192,11006,1,8,0:0:0:0:
256,192,11233,1,0,0:0:0:0:
256,192,11460,1,8,0:0:0:0:
256,192,11914,1,8,0:0:0:0:
256,192,12368,1,8,0:0:0:0:
256,192,12822,1,0,0:0:0:0:
256,192,13050,1,8,0:0:0:0:
256,192,13277,1,0,0:0:0:0:
256,192,13504,1,0,0:0:0:0:
256,192,13731,1,8,0:0:0:0:
256,192,13958,1,0,0:0:0:0:
256,192,14185,1,0,0:0:0:0:
256,192,14639,1,8,0:0:0:0:
256,192,14866,1,0,0:0:0:0:
256,192,15093,1,8,0:0:0:0:
256,192,15547,1,0,0:0:0:0:
256,192,16001,1,8,0:0:0:0:
256,192,16456,1,0,0:0:0:0:
256,192,16683,1,8,0:0:0:0:
256,192,16910,1,0,0:0:0:0:
256,192,17137,1,8,0:0:0:0:
256,192,17364,1,0,0:0:0:0:
256,192,17591,1,8,0:0:0:0:
256,192,18045,1,0,0:0:0:0:
256,192,18499,1,0,0:0:0:0:
256,192,18726,1,8,0:0:0:0:
256,192,19180,1,0,0:0:0:0:
256,192,19634,1,8,0:0:0:0:
256,192,20089,1,0,0:0:0:0:
256,192,20316,1,8,0:0:0:0:
256,192,20543,1,0,0:0:0:0:
256,192,20770,1,8,0:0:0:0:
256,192,20997,1,0,0:0:0:0:
256,192,21224,1,8,0:0:0:0:
256,192,21678,1,0,0:0:0:0:
256,192,22132,1,0,0:0:0:0:
256,192,22359,1,8,0:0:0:0:
256,192,22813,1,0,0:0:0:0:
256,192,23268,1,0,0:0:0:0:
256,192,23722,1,8,0:0:0:0:
256,192,23949,1,8,0:0:0:0:
256,192,24176,1,0,0:0:0:0:
256,192,24403,1,8,0:0:0:0:
256,192,24630,1,0,0:0:0:0:
256,192,24857,1,8,0:0:0:0:
256,192,25311,1,0,0:0:0:0:
256,192,25765,1,0,0:0:0:0:
256,192,25992,1,8,0:0:0:0:
256,192,26446,1,0,0:0:0:0:
256,192,26901,1,8,0:0:0:0:
256,192,27355,1,0,0:0:0:0:
256,192,27582,1,8,0:0:0:0:
256,192,27809,1,0,0:0:0:0:
256,192,28036,1,8,0:0:0:0:
256,192,28263,1,0,0:0:0:0:
256,192,28490,1,8,0:0:0:0:
256,192,28944,1,0,0:0:0:0:
256,192,29398,1,0,0:0:0:0:
256,192,29625,1,8,0:0:0:0:
256,192,30080,1,0,0:0:0:0:
256,192,30534,1,8,0:0:0:0:
256,192,30988,1,0,0:0:0:0:
256,192,31215,1,8,0:0:0:0:
256,192,31442,1,0,0:0:0:0:
256,192,31669,1,0,0:0:0:0:
256,192,32123,1,8,0:0:0:0:
256,192,32577,1,0,0:0:0:0:
256,192,33031,1,0,0:0:0:0:
256,192,33258,1,8,0:0:0:0:
256,192,33713,1,0,0:0:0:0:
256,192,34167,1,8,0:0:0:0:
256,192,34621,1,0,0:0:0:0:
256,192,34848,1,8,0:0:0:0:
256,192,35075,1,0,0:0:0:0:
256,192,35302,1,0,0:0:0:0:
256,192,35756,1,8,0:0:0:0:
256,192,36210,1,0,0:0:0:0:
256,192,36664,1,0,0:0:0:0:
256,192,36892,1,8,0:0:0:0:
256,192,37346,1,0,0:0:0:0:
256,192,37800,1,8,0:0:0:0:
256,192,38254,1,0,0:0:0:0:
256,192,38481,1,8,0:0:0:0:
256,192,38708,1,0,0:0:0:0:
256,192,38935,1,0,0:0:0:0:
256,192,39162,1,0,0:0:0:0:
256,192,39389,1,8,0:0:0:0:
256,192,39616,1,0,0:0:0:0:
256,192,39843,1,0,0:0:0:0:
256,192,40070,1,0,0:0:0:0:
256,192,40298,1,0,0:0:0:0:
256,192,40525,1,8,0:0:0:0:
256,192,40752,1,0,0:0:0:0:
256,192,40979,1,0,0:0:0:0:
256,192,41206,1,0,0:0:0:0:
256,192,41433,1,8,0:0:0:0:
256,192,41660,1,0,0:0:0:0:
256,192,41887,1,0,0:0:0:0:
256,192,42114,1,8,0:0:0:0:
256,192,42341,1,0,0:0:0:0:
256,192,42568,1,8,0:0:0:0:
256,192,42682,1,8,0:0:0:0:
256,192,42795,1,0,0:0:0:0:
256,192,42909,1,0,0:0:0:0:
256,192,43022,1,8,0:0:0:0:
256,192,43136,1,0,0:0:0:0:
256,192,43249,1,8,0:0:0:0:
256,192,43363,1,8,0:0:0:0:
256,192,43476,1,0,0:0:0:0:
256,192,43590,1,0,0:0:0:0:
256,192,43704,1,0,0:0:0:0:
256,192,43817,1,0,0:0:0:0:
256,192,43931,1,8,0:0:0:0:
256,192,44044,1,0,0:0:0:0:
256,192,44158,1,8,0:0:0:0:
256,192,44271,1,0,0:0:0:0:
256,192,44385,1,8,0:0:0:0:
256,192,44498,1,0,0:0:0:0:
256,192,44612,1,0,0:0:0:0:
256,192,44725,1,0,0:0:0:0:
256,192,44839,1,8,0:0:0:0:
256,192,44952,1,0,0:0:0:0:
256,192,45066,1,8,0:0:0:0:
256,192,45179,1,8,0:0:0:0:
256,192,45293,1,8,0:0:0:0:
256,192,45406,1,0,0:0:0:0:
256,192,45520,1,0,0:0:0:0:
256,192,45634,1,0,0:0:0:0:
256,192,45747,1,8,0:0:0:0:
256,192,45861,1,0,0:0:0:0:
256,192,45974,1,8,0:0:0:0:
256,192,46201,1,4,0:0:0:0:
256,192,48018,1,8,0:0:0:0:
256,192,48245,1,8,0:0:0:0:
256,192,48472,1,0,0:0:0:0:
256,192,48699,1,8,0:0:0:0:
256,192,48812,1,8,0:0:0:0:
288,192,48926,1,0,0:0:0:0:
256,192,49153,1,0,0:0:0:0:
256,192,49380,1,8,0:0:0:0:
256,192,49607,1,0,0:0:0:0:
256,192,49834,1,8,0:0:0:0:
256,192,50061,1,8,0:0:0:0:
256,192,50288,1,0,0:0:0:0:
256,192,50515,1,8,0:0:0:0:
256,192,50629,1,8,0:0:0:0:
256,192,50743,1,0,0:0:0:0:
256,192,50970,1,0,0:0:0:0:
256,192,51197,1,8,0:0:0:0:
256,192,51424,1,0,0:0:0:0:
256,192,51651,1,8,0:0:0:0:
256,192,51878,1,8,0:0:0:0:
256,192,51991,1,0,0:0:0:0:
256,192,52105,1,8,0:0:0:0:
256,192,52332,1,0,0:0:0:0:
256,192,52559,1,8,0:0:0:0:
256,192,52786,1,8,0:0:0:0:
256,192,52900,1,0,0:0:0:0:
256,192,53013,1,8,0:0:0:0:
256,192,53240,1,0,0:0:0:0:
256,192,53467,1,8,0:0:0:0:
256,192,53694,1,8,0:0:0:0:
256,192,53808,1,0,0:0:0:0:
256,192,53921,1,0,0:0:0:0:
256,192,54149,1,8,0:0:0:0:
256,192,54376,1,0,0:0:0:0:
256,192,54603,1,0,0:0:0:0:
256,192,54716,1,0,0:0:0:0:
256,192,54830,1,8,0:0:0:0:
256,192,54943,1,8,0:0:0:0:
256,192,55057,1,0,0:0:0:0:
256,192,55284,1,8,0:0:0:0:
256,192,55511,1,8,0:0:0:0:
256,192,55624,1,0,0:0:0:0:
256,192,55738,1,0,0:0:0:0:
256,192,55965,1,8,0:0:0:0:
256,192,56192,1,0,0:0:0:0:
256,192,56419,1,8,0:0:0:0:
256,192,56533,1,0,0:0:0:0:
256,192,56646,1,8,0:0:0:0:
256,192,56873,1,0,0:0:0:0:
256,192,57100,1,8,0:0:0:0:
256,192,57327,1,8,0:0:0:0:
256,192,57441,1,0,0:0:0:0:
256,192,57555,1,0,0:0:0:0:
256,192,57782,1,0,0:0:0:0:
256,192,58009,1,0,0:0:0:0:
256,192,58236,1,8,0:0:0:0:
256,192,58349,1,0,0:0:0:0:
256,192,58463,1,8,0:0:0:0:
256,192,58690,1,0,0:0:0:0:
256,192,58803,1,0,0:0:0:0:
256,192,58917,1,8,0:0:0:0:
256,192,59144,1,0,0:0:0:0:
256,192,59371,1,8,0:0:0:0:
256,192,59485,1,0,0:0:0:0:
256,192,59598,1,0,0:0:0:0:
256,192,59825,1,8,0:0:0:0:
256,192,60052,1,0,0:0:0:0:
256,192,60166,1,0,0:0:0:0:
256,192,60279,1,8,0:0:0:0:
256,192,60506,1,0,0:0:0:0:
256,192,60733,1,8,0:0:0:0:
256,192,60847,1,8,0:0:0:0:
256,192,60961,1,0,0:0:0:0:
256,192,61074,1,0,0:0:0:0:
256,192,61188,1,8,0:0:0:0:
256,192,61301,1,0,0:0:0:0:
256,192,61415,1,8,0:0:0:0:
256,192,61528,1,8,0:0:0:0:
256,192,61642,1,0,0:0:0:0:
256,192,61869,1,8,0:0:0:0:
256,192,62096,1,8,0:0:0:0:
256,192,62323,1,0,0:0:0:0:
256,192,62550,1,8,0:0:0:0:
256,192,62891,1,0,0:0:0:0:
256,192,63004,1,8,0:0:0:0:
256,192,63231,1,0,0:0:0:0:
288,192,63458,1,8,0:0:0:0:
256,192,63685,1,0,0:0:0:0:
256,192,63799,1,0,0:0:0:0:
256,192,63912,1,8,0:0:0:0:
256,192,64139,1,0,0:0:0:0:
256,192,64367,1,8,0:0:0:0:
256,192,64707,1,0,0:0:0:0:
256,192,64821,1,8,0:0:0:0:
256,192,65048,1,0,0:0:0:0:
256,192,65275,1,8,0:0:0:0:
256,192,65502,1,0,0:0:0:0:
256,192,65615,1,0,0:0:0:0:
256,192,65729,1,8,0:0:0:0:
256,192,65956,1,0,0:0:0:0:
256,192,66183,1,8,0:0:0:0:
256,192,66297,1,0,0:0:0:0:
256,192,66410,1,8,0:0:0:0:
256,192,66637,1,8,0:0:0:0:
256,192,66864,1,0,0:0:0:0:
256,192,66978,1,0,0:0:0:0:
256,192,67091,1,8,0:0:0:0:
256,192,67318,1,8,0:0:0:0:
256,192,67432,1,0,0:0:0:0:
256,192,67545,1,8,0:0:0:0:
256,192,67773,1,0,0:0:0:0:
256,192,68000,1,8,0:0:0:0:
256,192,68113,1,0,0:0:0:0:
256,192,68227,1,8,0:0:0:0:
256,192,68454,1,8,0:0:0:0:
256,192,68681,1,0,0:0:0:0:
256,192,68908,1,8,0:0:0:0:
256,192,69021,1,0,0:0:0:0:
256,192,69135,1,0,0:0:0:0:
256,192,69248,1,8,0:0:0:0:
256,192,69362,1,8,0:0:0:0:
256,192,69589,1,0,0:0:0:0:
256,192,69816,1,0,0:0:0:0:
256,192,70043,1,0,0:0:0:0:
256,192,70270,1,8,0:0:0:0:
256,192,70497,1,0,0:0:0:0:
256,192,70724,1,0,0:0:0:0:
256,192,70951,1,0,0:0:0:0:
256,192,71179,1,8,0:0:0:0:
256,192,71406,1,0,0:0:0:0:
256,192,71633,1,0,0:0:0:0:
256,192,71860,1,0,0:0:0:0:
256,192,72087,1,8,0:0:0:0:
256,192,72314,1,0,0:0:0:0:
256,192,72541,1,0,0:0:0:0:
256,192,72768,1,8,0:0:0:0:
256,192,72995,1,8,0:0:0:0:
256,192,73222,1,0,0:0:0:0:
256,192,73449,1,8,0:0:0:0:
256,192,73563,1,0,0:0:0:0:
256,192,73676,1,0,0:0:0:0:
256,192,73790,1,0,0:0:0:0:
256,192,73903,1,8,0:0:0:0:
256,192,74017,1,0,0:0:0:0:
256,192,74130,1,0,0:0:0:0:
256,192,74244,1,0,0:0:0:0:
256,192,74357,1,8,0:0:0:0:
256,192,74471,1,0,0:0:0:0:
256,192,74585,1,8,0:0:0:0:
256,192,74698,1,0,0:0:0:0:
256,192,74812,1,8,0:0:0:0:
256,192,74925,1,8,0:0:0:0:
256,192,75039,1,8,0:0:0:0:
256,192,75152,1,0,0:0:0:0:
256,192,75266,1,8,0:0:0:0:
256,192,75379,1,0,0:0:0:0:
256,192,75493,1,8,0:0:0:0:
256,192,75720,1,8,0:0:0:0:
256,192,75833,1,0,0:0:0:0:
256,192,75947,1,8,0:0:0:0:
256,192,76174,1,8,0:0:0:0:
256,192,76288,1,0,0:0:0:0:
256,192,76401,1,8,0:0:0:0:
256,192,76628,1,8,0:0:0:0:
256,192,77082,1,0,0:0:0:0:
256,192,80034,1,8,0:0:0:0:
256,192,80261,1,8,0:0:0:0:
256,192,80715,1,4,0:0:0:0:
256,192,81169,1,0,0:0:0:0:
256,192,81624,1,0,0:0:0:0:
256,192,82078,1,0,0:0:0:0:
256,192,82532,1,8,0:0:0:0:
256,192,82759,1,8,0:0:0:0:
256,192,82872,1,0,0:0:0:0:
256,192,82986,1,0,0:0:0:0:
256,192,83100,1,8,0:0:0:0:
256,192,83327,1,8,0:0:0:0:
256,192,83440,1,0,0:0:0:0:
256,192,83554,1,8,0:0:0:0:
256,192,83667,1,8,0:0:0:0:
256,192,83894,1,8,0:0:0:0:
256,192,84348,1,4,0:0:0:0:
256,192,84803,1,0,0:0:0:0:
256,192,85257,1,0,0:0:0:0:
256,192,85711,1,0,0:0:0:0:
256,192,86165,1,8,0:0:0:0:
256,192,86392,1,8,0:0:0:0:
256,192,86505,1,0,0:0:0:0:
256,192,86619,1,0,0:0:0:0:
256,192,86733,1,8,0:0:0:0:
256,192,86960,1,8,0:0:0:0:
256,192,87073,1,0,0:0:0:0:
256,192,87187,1,8,0:0:0:0:
256,192,87300,1,8,0:0:0:0:
256,192,87527,1,8,0:0:0:0:
256,192,87754,1,0,0:0:0:0:
256,192,87981,1,4,0:0:0:0:
256,192,88436,1,0,0:0:0:0:
256,192,88890,1,0,0:0:0:0:
256,192,89344,1,0,0:0:0:0:
256,192,89798,1,8,0:0:0:0:
256,192,90025,1,8,0:0:0:0:
256,192,90139,1,0,0:0:0:0:
256,192,90252,1,0,0:0:0:0:
256,192,90366,1,8,0:0:0:0:
256,192,90593,1,8,0:0:0:0:
256,192,90706,1,0,0:0:0:0:
256,192,90820,1,8,0:0:0:0:
256,192,90933,1,8,0:0:0:0:
256,192,91160,1,8,0:0:0:0:
256,192,91614,1,4,0:0:0:0:
256,192,92069,1,0,0:0:0:0:
256,192,92523,1,0,0:0:0:0:
256,192,92977,1,0,0:0:0:0:
256,192,93431,1,8,0:0:0:0:
256,192,93658,1,0,0:0:0:0:
256,192,93885,1,0,0:0:0:0:
256,192,94112,1,0,0:0:0:0:
256,192,94339,1,8,0:0:0:0:
256,192,94566,1,0,0:0:0:0:
256,192,94793,1,8,0:0:0:0:
256,192,95248,1,8,0:0:0:0:
256,192,95475,1,8,0:0:0:0:
256,192,95588,1,0,0:0:0:0:
256,192,95702,1,0,0:0:0:0:
256,192,95815,1,8,0:0:0:0:
256,192,95929,1,0,0:0:0:0:
256,192,96042,1,8,0:0:0:0:
256,192,96156,1,0,0:0:0:0:
256,192,96269,1,8,0:0:0:0:
256,192,96383,1,8,0:0:0:0:
256,192,96610,1,8,0:0:0:0:
256,192,96837,1,0,0:0:0:0:
256,192,97064,1,8,0:0:0:0:
256,192,97291,1,8,0:0:0:0:
256,192,97405,1,0,0:0:0:0:
256,192,97518,1,0,0:0:0:0:
256,192,97632,1,8,0:0:0:0:
256,192,97745,1,0,0:0:0:0:
256,192,97859,1,8,0:0:0:0:
256,192,97972,1,0,0:0:0:0:
256,192,98086,1,8,0:0:0:0:
256,192,98199,1,8,0:0:0:0:
256,192,98426,1,8,0:0:0:0:
256,192,98654,1,0,0:0:0:0:
256,192,98881,1,8,0:0:0:0:
256,192,99108,1,8,0:0:0:0:
256,192,99221,1,0,0:0:0:0:
256,192,99335,1,0,0:0:0:0:
256,192,99448,1,8,0:0:0:0:
256,192,99562,1,0,0:0:0:0:
256,192,99675,1,8,0:0:0:0:
256,192,99789,1,0,0:0:0:0:
256,192,99902,1,8,0:0:0:0:
256,192,100016,1,8,0:0:0:0:
256,192,100243,1,8,0:0:0:0:
256,192,100470,1,0,0:0:0:0:
256,192,100697,1,8,0:0:0:0:
256,192,100924,1,8,0:0:0:0:
256,192,101038,1,0,0:0:0:0:
256,192,101151,1,0,0:0:0:0:
256,192,101265,1,8,0:0:0:0:
256,192,101378,1,0,0:0:0:0:
256,192,101492,1,8,0:0:0:0:
256,192,101605,1,0,0:0:0:0:
256,192,101719,1,8,0:0:0:0:
256,192,101832,1,8,0:0:0:0:
256,192,102060,1,8,0:0:0:0:
256,192,102287,1,0,0:0:0:0:
256,192,102514,1,8,0:0:0:0:
256,192,102741,1,8,0:0:0:0:
256,192,102854,1,0,0:0:0:0:
256,192,102968,1,0,0:0:0:0:
256,192,103081,1,8,0:0:0:0:
256,192,103308,1,8,0:0:0:0:
256,192,103535,1,8,0:0:0:0:
256,192,103649,1,0,0:0:0:0:
256,192,103763,1,0,0:0:0:0:
256,192,103876,1,8,0:0:0:0:
256,192,104103,1,0,0:0:0:0:
256,192,104330,1,8,0:0:0:0:
256,192,104557,1,8,0:0:0:0:
256,192,104671,1,0,0:0:0:0:
256,192,104784,1,0,0:0:0:0:
256,192,104898,1,8,0:0:0:0:
256,192,105125,1,8,0:0:0:0:
256,192,105352,1,8,0:0:0:0:
256,192,105466,1,0,0:0:0:0:
256,192,105579,1,0,0:0:0:0:
256,192,105693,1,8,0:0:0:0:
256,192,105920,1,0,0:0:0:0:
256,192,106147,1,8,0:0:0:0:
256,192,106260,1,0,0:0:0:0:
256,192,106374,1,8,0:0:0:0:
256,192,106487,1,0,0:0:0:0:
256,192,106601,1,0,0:0:0:0:
256,192,106714,1,8,0:0:0:0:
256,192,106828,1,0,0:0:0:0:
256,192,106941,1,8,0:0:0:0:
256,192,107055,1,8,0:0:0:0:
256,192,107169,1,0,0:0:0:0:
256,192,107282,1,8,0:0:0:0:
256,192,107396,1,0,0:0:0:0:
256,192,107509,1,0,0:0:0:0:
256,192,107623,1,8,0:0:0:0:
256,192,107736,1,0,0:0:0:0:
256,192,107850,1,8,0:0:0:0:
256,192,107963,1,0,0:0:0:0:
256,192,111596,1,8,0:0:0:0:
256,192,111823,1,8,0:0:0:0:
256,192,112050,1,0,0:0:0:0:
256,192,112278,1,8,0:0:0:0:
256,192,112391,1,8,0:0:0:0:
288,192,112505,1,0,0:0:0:0:
256,192,112732,1,0,0:0:0:0:
256,192,112959,1,8,0:0:0:0:
256,192,113186,1,0,0:0:0:0:
256,192,113413,1,8,0:0:0:0:
256,192,113640,1,8,0:0:0:0:
256,192,113867,1,0,0:0:0:0:
256,192,114094,1,8,0:0:0:0:
256,192,114208,1,8,0:0:0:0:
256,192,114321,1,0,0:0:0:0:
256,192,114548,1,0,0:0:0:0:
256,192,114775,1,8,0:0:0:0:
256,192,115002,1,0,0:0:0:0:
256,192,115229,1,8,0:0:0:0:
256,192,115456,1,8,0:0:0:0:
256,192,115570,1,0,0:0:0:0:
256,192,115684,1,8,0:0:0:0:
256,192,115911,1,0,0:0:0:0:
256,192,116138,1,8,0:0:0:0:
256,192,116365,1,8,0:0:0:0:
256,192,116478,1,0,0:0:0:0:
256,192,116592,1,8,0:0:0:0:
256,192,116819,1,0,0:0:0:0:
256,192,117046,1,8,0:0:0:0:
256,192,117273,1,8,0:0:0:0:
256,192,117387,1,0,0:0:0:0:
256,192,117500,1,0,0:0:0:0:
256,192,117727,1,8,0:0:0:0:
256,192,117954,1,0,0:0:0:0:
256,192,118181,1,0,0:0:0:0:
256,192,118295,1,0,0:0:0:0:
256,192,118408,1,8,0:0:0:0:
256,192,118522,1,8,0:0:0:0:
256,192,118635,1,0,0:0:0:0:
256,192,118862,1,8,0:0:0:0:
256,192,119090,1,8,0:0:0:0:
256,192,119203,1,0,0:0:0:0:
256,192,119317,1,0,0:0:0:0:
256,192,119544,1,8,0:0:0:0:
256,192,119771,1,0,0:0:0:0:
256,192,119998,1,8,0:0:0:0:
256,192,120111,1,0,0:0:0:0:
256,192,120225,1,8,0:0:0:0:
256,192,120452,1,0,0:0:0:0:
256,192,120679,1,8,0:0:0:0:
256,192,120906,1,8,0:0:0:0:
256,192,121020,1,0,0:0:0:0:
256,192,121133,1,0,0:0:0:0:
256,192,121360,1,0,0:0:0:0:
256,192,121587,1,0,0:0:0:0:
256,192,121814,1,8,0:0:0:0:
256,192,121928,1,0,0:0:0:0:
256,192,122041,1,8,0:0:0:0:
256,192,122268,1,0,0:0:0:0:
256,192,122382,1,0,0:0:0:0:
256,192,122496,1,8,0:0:0:0:
256,192,122723,1,0,0:0:0:0:
256,192,122950,1,8,0:0:0:0:
256,192,123063,1,0,0:0:0:0:
256,192,123177,1,0,0:0:0:0:
256,192,123404,1,8,0:0:0:0:
256,192,123631,1,0,0:0:0:0:
256,192,123744,1,0,0:0:0:0:
256,192,123858,1,8,0:0:0:0:
256,192,124085,1,0,0:0:0:0:
256,192,124312,1,8,0:0:0:0:
256,192,124426,1,8,0:0:0:0:
256,192,124539,1,0,0:0:0:0:
256,192,124653,1,0,0:0:0:0:
256,192,124766,1,8,0:0:0:0:
256,192,124880,1,0,0:0:0:0:
256,192,124993,1,8,0:0:0:0:
256,192,125107,1,8,0:0:0:0:
256,192,125220,1,0,0:0:0:0:
256,192,125447,1,8,0:0:0:0:
256,192,125674,1,8,0:0:0:0:
256,192,125902,1,0,0:0:0:0:
256,192,126129,1,8,0:0:0:0:
256,192,126242,1,0,0:0:0:0:
256,192,126356,1,8,0:0:0:0:
256,192,126583,1,8,0:0:0:0:
256,192,126810,1,0,0:0:0:0:
288,192,127037,1,8,0:0:0:0:
256,192,127264,1,0,0:0:0:0:
256,192,127377,1,0,0:0:0:0:
256,192,127491,1,8,0:0:0:0:
256,192,127718,1,0,0:0:0:0:
256,192,127945,1,8,0:0:0:0:
256,192,128059,1,0,0:0:0:0:
256,192,128172,1,8,0:0:0:0:
256,192,128399,1,8,0:0:0:0:
256,192,128626,1,0,0:0:0:0:
256,192,128853,1,8,0:0:0:0:
256,192,129080,1,0,0:0:0:0:
256,192,129194,1,0,0:0:0:0:
256,192,129307,1,8,0:0:0:0:
256,192,129535,1,0,0:0:0:0:
256,192,129762,1,8,0:0:0:0:
256,192,129875,1,0,0:0:0:0:
256,192,129989,1,8,0:0:0:0:
256,192,130216,1,8,0:0:0:0:
256,192,130443,1,0,0:0:0:0:
256,192,130556,1,0,0:0:0:0:
256,192,130670,1,8,0:0:0:0:
256,192,130897,1,8,0:0:0:0:
256,192,131010,1,0,0:0:0:0:
256,192,131124,1,8,0:0:0:0:
256,192,131351,1,0,0:0:0:0:
256,192,131578,1,8,0:0:0:0:
256,192,131692,1,0,0:0:0:0:
256,192,131805,1,8,0:0:0:0:
256,192,132032,1,8,0:0:0:0:
256,192,132259,1,0,0:0:0:0:
256,192,132486,1,8,0:0:0:0:
256,192,132713,1,8,0:0:0:0:
256,192,132827,1,0,0:0:0:0:
256,192,132941,1,8,0:0:0:0:
256,192,133054,1,0,0:0:0:0:
256,192,133168,1,0,0:0:0:0:
256,192,133395,1,0,0:0:0:0:
256,192,133622,1,0,0:0:0:0:
256,192,133849,1,8,0:0:0:0:
256,192,134076,1,0,0:0:0:0:
256,192,134303,1,0,0:0:0:0:
256,192,134530,1,0,0:0:0:0:
256,192,134757,1,8,0:0:0:0:
256,192,134984,1,0,0:0:0:0:
256,192,135211,1,0,0:0:0:0:
256,192,135438,1,0,0:0:0:0:
256,192,135665,1,8,0:0:0:0:
256,192,135892,1,0,0:0:0:0:
256,192,136119,1,0,0:0:0:0:
256,192,136347,1,8,0:0:0:0:
256,192,136574,1,8,0:0:0:0:
256,192,136801,1,0,0:0:0:0:
256,192,137028,1,8,0:0:0:0:
256,192,137141,1,0,0:0:0:0:
256,192,137255,1,8,0:0:0:0:
256,192,137368,1,0,0:0:0:0:
256,192,137482,1,8,0:0:0:0:
256,192,137595,1,0,0:0:0:0:
256,192,137709,1,8,0:0:0:0:
256,192,137822,1,0,0:0:0:0:
256,192,137936,1,8,0:0:0:0:
256,192,138050,1,0,0:0:0:0:
256,192,138163,1,8,0:0:0:0:
256,192,138277,1,0,0:0:0:0:
256,192,138390,1,8,0:0:0:0:
256,192,138504,1,8,0:0:0:0:
256,192,138617,1,8,0:0:0:0:
256,192,138731,1,0,0:0:0:0:
256,192,138844,1,8,0:0:0:0:
256,192,138958,1,0,0:0:0:0:
256,192,139071,1,8,0:0:0:0:
256,192,139298,1,8,0:0:0:0:
256,192,139412,1,0,0:0:0:0:
256,192,139525,1,8,0:0:0:0:
256,192,139753,1,8,0:0:0:0:
256,192,139866,1,0,0:0:0:0:
256,192,139980,1,8,0:0:0:0:
256,192,140207,1,8,0:0:0:0:
256,192,140661,1,0,0:0:0:0:
256,192,143613,1,8,0:0:0:0:
256,192,143840,1,8,0:0:0:0:
256,192,144294,1,4,0:0:0:0:
256,192,144748,1,0,0:0:0:0:
256,192,145202,1,0,0:0:0:0:
256,192,145656,1,0,0:0:0:0:
256,192,146110,1,8,0:0:0:0:
256,192,146337,1,8,0:0:0:0:
256,192,146451,1,0,0:0:0:0:
256,192,146565,1,0,0:0:0:0:
256,192,146678,1,8,0:0:0:0:
256,192,146905,1,8,0:0:0:0:
256,192,147019,1,0,0:0:0:0:
256,192,147132,1,8,0:0:0:0:
256,192,147246,1,8,0:0:0:0:
256,192,147473,1,8,0:0:0:0:
256,192,147927,1,4,0:0:0:0:
256,192,148381,1,0,0:0:0:0:
256,192,148835,1,0,0:0:0:0:
256,192,149289,1,0,0:0:0:0:
256,192,149743,1,8,0:0:0:0:
256,192,149971,1,8,0:0:0:0:
256,192,150084,1,0,0:0:0:0:
256,192,150198,1,0,0:0:0:0:
256,192,150311,1,8,0:0:0:0:
256,192,150538,1,8,0:0:0:0:
256,192,150652,1,0,0:0:0:0:
256,192,150765,1,8,0:0:0:0:
256,192,150879,1,8,0:0:0:0:
256,192,151106,1,8,0:0:0:0:
256,192,151333,1,0,0:0:0:0:
256,192,151560,1,4,0:0:0:0:
256,192,152014,1,0,0:0:0:0:
256,192,152468,1,0,0:0:0:0:
256,192,152922,1,0,0:0:0:0:
256,192,153377,1,8,0:0:0:0:
256,192,153604,1,8,0:0:0:0:
256,192,153717,1,0,0:0:0:0:
256,192,153831,1,0,0:0:0:0:
256,192,153944,1,8,0:0:0:0:
256,192,154171,1,8,0:0:0:0:
256,192,154285,1,0,0:0:0:0:
256,192,154398,1,8,0:0:0:0:
256,192,154512,1,8,0:0:0:0:
256,192,154739,1,8,0:0:0:0:
256,192,155193,1,4,0:0:0:0:
256,192,155647,1,0,0:0:0:0:
256,192,156101,1,0,0:0:0:0:
256,192,156555,1,0,0:0:0:0:
256,192,157010,1,8,0:0:0:0:
256,192,157237,1,0,0:0:0:0:
256,192,157464,1,0,0:0:0:0:
256,192,157691,1,0,0:0:0:0:
256,192,157918,1,8,0:0:0:0:
256,192,158145,1,0,0:0:0:0:
256,192,158372,1,8,0:0:0:0:
256,192,158826,1,8,0:0:0:0:
256,192,159053,1,8,0:0:0:0:
256,192,159167,1,0,0:0:0:0:
256,192,159280,1,0,0:0:0:0:
256,192,159394,1,8,0:0:0:0:
256,192,159507,1,0,0:0:0:0:
256,192,159621,1,8,0:0:0:0:
256,192,159734,1,0,0:0:0:0:
256,192,159848,1,8,0:0:0:0:
256,192,159961,1,8,0:0:0:0:
256,192,160189,1,8,0:0:0:0:
256,192,160416,1,0,0:0:0:0:
256,192,160643,1,8,0:0:0:0:
256,192,160870,1,8,0:0:0:0:
256,192,160983,1,0,0:0:0:0:
256,192,161097,1,0,0:0:0:0:
256,192,161210,1,8,0:0:0:0:
256,192,161324,1,0,0:0:0:0:
256,192,161437,1,8,0:0:0:0:
256,192,161551,1,0,0:0:0:0:
256,192,161664,1,8,0:0:0:0:
256,192,161778,1,8,0:0:0:0:
256,192,162005,1,8,0:0:0:0:
256,192,162232,1,0,0:0:0:0:
256,192,162459,1,8,0:0:0:0:
256,192,162686,1,8,0:0:0:0:
256,192,162800,1,0,0:0:0:0:
256,192,162913,1,0,0:0:0:0:
256,192,163027,1,8,0:0:0:0:
256,192,163140,1,0,0:0:0:0:
256,192,163254,1,8,0:0:0:0:
256,192,163367,1,0,0:0:0:0:
256,192,163481,1,8,0:0:0:0:
256,192,163595,1,8,0:0:0:0:
256,192,163822,1,8,0:0:0:0:
256,192,164049,1,0,0:0:0:0:
256,192,164276,1,8,0:0:0:0:
256,192,164503,1,8,0:0:0:0:
256,192,164616,1,0,0:0:0:0:
256,192,164730,1,0,0:0:0:0:
256,192,164843,1,8,0:0:0:0:
256,192,164957,1,0,0:0:0:0:
256,192,165070,1,8,0:0:0:0:
256,192,165184,1,0,0:0:0:0:
256,192,165298,1,8,0:0:0:0:
256,192,165411,1,8,0:0:0:0:
256,192,165638,1,8,0:0:0:0:
256,192,165865,1,0,0:0:0:0:
256,192,166092,1,8,0:0:0:0:
256,192,166319,1,8,0:0:0:0:
256,192,166433,1,0,0:0:0:0:
256,192,166546,1,0,0:0:0:0:
256,192,166660,1,8,0:0:0:0:
256,192,166887,1,8,0:0:0:0:
256,192,167114,1,8,0:0:0:0:
256,192,167228,1,0,0:0:0:0:
256,192,167341,1,0,0:0:0:0:
256,192,167455,1,8,0:0:0:0:
256,192,167682,1,0,0:0:0:0:
256,192,167909,1,8,0:0:0:0:
256,192,168136,1,8,0:0:0:0:
256,192,168249,1,0,0:0:0:0:
256,192,168363,1,0,0:0:0:0:
256,192,168476,1,8,0:0:0:0:
256,192,168704,1,8,0:0:0:0:
256,192,168931,1,8,0:0:0:0:
256,192,169044,1,0,0:0:0:0:
256,192,169158,1,0,0:0:0:0:
256,192,169271,1,8,0:0:0:0:
256,192,169498,1,0,0:0:0:0:
256,192,169725,1,8,0:0:0:0:
256,192,169839,1,0,0:0:0:0:
256,192,169952,1,8,0:0:0:0:
256,192,170066,1,0,0:0:0:0:
256,192,170179,1,0,0:0:0:0:
256,192,170293,1,8,0:0:0:0:
256,192,170406,1,0,0:0:0:0:
256,192,170520,1,8,0:0:0:0:
256,192,170634,1,8,0:0:0:0:
256,192,170747,1,0,0:0:0:0:
256,192,170861,1,8,0:0:0:0:
256,192,170974,1,0,0:0:0:0:
256,192,171088,1,0,0:0:0:0:
256,192,171201,1,8,0:0:0:0:
256,192,171315,1,0,0:0:0:0:
256,192,171428,1,8,0:0:0:0:
256,192,171542,1,0,0:0:0:0:
256,192,171769,1,0,0:0:0:0:
256,192,171996,1,8,0:0:0:0:
256,192,172223,1,0,0:0:0:0:
256,192,172450,1,0,0:0:0:0:
256,192,172677,1,8,0:0:0:0:
256,192,172904,1,8,0:0:0:0:
256,192,173358,1,4,0:0:0:0:
256,192,176991,1,8,0:0:0:0:
256,192,177218,1,0,0:0:0:0:
256,192,177446,1,0,0:0:0:0:
256,192,177673,1,8,0:0:0:0:
256,192,178127,1,0,0:0:0:0:
256,192,178354,1,8,0:0:0:0:
256,192,178581,1,0,0:0:0:0:
256,192,178808,1,8,0:0:0:0:
256,192,179035,1,0,0:0:0:0:
256,192,179262,1,0,0:0:0:0:
256,192,179489,1,8,0:0:0:0:
256,192,179943,1,0,0:0:0:0:
256,192,180170,1,8,0:0:0:0:
256,192,180397,1,0,0:0:0:0:
256,192,180624,1,8,0:0:0:0:
256,192,180852,1,0,0:0:0:0:
256,192,181079,1,0,0:0:0:0:
256,192,181306,1,8,0:0:0:0:
256,192,181760,1,8,0:0:0:0:
256,192,181987,1,0,0:0:0:0:
256,192,182214,1,8,0:0:0:0:
256,192,182668,1,0,0:0:0:0:
256,192,183122,1,8,0:0:0:0:
256,192,183576,1,0,0:0:0:0:
256,192,183803,1,8,0:0:0:0:
256,192,184030,1,0,0:0:0:0:
256,192,184258,1,8,0:0:0:0:
256,192,184485,1,0,0:0:0:0:
256,192,184712,1,8,0:0:0:0:
256,192,185166,1,0,0:0:0:0:
256,192,185620,1,0,0:0:0:0:
256,192,185847,1,8,0:0:0:0:
256,192,186301,1,0,0:0:0:0:
256,192,186755,1,8,0:0:0:0:
256,192,187209,1,0,0:0:0:0:
256,192,187436,1,8,0:0:0:0:
256,192,187664,1,0,0:0:0:0:
256,192,187891,1,8,0:0:0:0:
256,192,188118,1,0,0:0:0:0:
256,192,188345,1,8,0:0:0:0:
256,192,188799,1,0,0:0:0:0:
256,192,189253,1,0,0:0:0:0:
256,192,189480,1,8,0:0:0:0:
256,192,189934,1,0,0:0:0:0:
256,192,190388,1,0,0:0:0:0:
256,192,190842,1,8,0:0:0:0:
256,192,191070,1,8,0:0:0:0:
256,192,191297,1,0,0:0:0:0:
256,192,191524,1,8,0:0:0:0:
256,192,191751,1,0,0:0:0:0:
256,192,191978,1,8,0:0:0:0:
256,192,192432,1,0,0:0:0:0:
256,192,192886,1,0,0:0:0:0:
256,192,193113,1,8,0:0:0:0:
256,192,193567,1,0,0:0:0:0:
256,192,194021,1,8,0:0:0:0:
256,192,194476,1,0,0:0:0:0:
256,192,194703,1,8,0:0:0:0:
256,192,194930,1,0,0:0:0:0:
256,192,195157,1,8,0:0:0:0:
256,192,195384,1,0,0:0:0:0:
256,192,195611,1,8,0:0:0:0:
256,192,195838,1,0,0:0:0:0:
256,192,196065,1,8,0:0:0:0:
256,192,196292,1,0,0:0:0:0:
256,192,196519,1,8,0:0:0:0:
256,192,196746,1,0,0:0:0:0:
256,192,196973,1,8,0:0:0:0:
256,192,197200,1,8,0:0:0:0:
256,192,197427,1,8,0:0:0:0:
256,192,197654,1,8,0:0:0:0:
256,192,197882,1,8,0:0:0:0:
256,192,197995,1,8,0:0:0:0:
256,192,198109,1,0,0:0:0:0:
256,192,198222,1,0,0:0:0:0:
256,192,198336,1,8,0:0:0:0:
256,192,198449,1,8,0:0:0:0:
256,192,198563,1,0,0:0:0:0:
256,192,198676,1,0,0:0:0:0:
256,192,198790,1,8,0:0:0:0:
256,192,199130,1,0,0:0:0:0:
256,192,199244,1,8,0:0:0:0:
256,192,199471,1,0,0:0:0:0:
256,192,199698,1,8,0:0:0:0:
256,192,199925,1,0,0:0:0:0:
256,192,200152,1,0,0:0:0:0:
256,192,200266,1,0,0:0:0:0:
256,192,200379,1,8,0:0:0:0:
256,192,200606,1,0,0:0:0:0:
256,192,200947,1,0,0:0:0:0:
256,192,201060,1,8,0:0:0:0:
256,192,201288,1,0,0:0:0:0:
256,192,201515,1,8,0:0:0:0:
256,192,201742,1,0,0:0:0:0:
256,192,201855,1,0,0:0:0:0:
256,192,201969,1,8,0:0:0:0:
256,192,202196,1,8,0:0:0:0:
256,192,202309,1,0,0:0:0:0:
256,192,202423,1,8,0:0:0:0:
256,192,202763,1,0,0:0:0:0:
256,192,202877,1,8,0:0:0:0:
256,192,203104,1,0,0:0:0:0:
256,192,203218,1,0,0:0:0:0:
256,192,203331,1,8,0:0:0:0:
256,192,203558,1,0,0:0:0:0:
256,192,203785,1,8,0:0:0:0:
256,192,204012,1,0,0:0:0:0:
256,192,204239,1,8,0:0:0:0:
256,192,204580,1,0,0:0:0:0:
256,192,204694,1,8,0:0:0:0:
256,192,204921,1,0,0:0:0:0:
256,192,205148,1,8,0:0:0:0:
256,192,205375,1,0,0:0:0:0:
256,192,205488,1,0,0:0:0:0:
256,192,205602,1,8,0:0:0:0:
256,192,205829,1,0,0:0:0:0:
256,192,206056,1,8,0:0:0:0:
256,192,206397,1,0,0:0:0:0:
256,192,206510,1,8,0:0:0:0:
256,192,206737,1,0,0:0:0:0:
256,192,206964,1,8,0:0:0:0:
256,192,207191,1,0,0:0:0:0:
256,192,207305,1,0,0:0:0:0:
256,192,207418,1,0,0:0:0:0:
256,192,207645,1,8,0:0:0:0:
256,192,207872,1,0,0:0:0:0:
256,192,208213,1,0,0:0:0:0:
256,192,208327,1,8,0:0:0:0:
256,192,208554,1,0,0:0:0:0:
256,192,208781,1,8,0:0:0:0:
256,192,209008,1,0,0:0:0:0:
256,192,209121,1,0,0:0:0:0:
256,192,209235,1,8,0:0:0:0:
256,192,209462,1,0,0:0:0:0:
256,192,209689,1,8,0:0:0:0:
256,192,209916,1,8,0:0:0:0:
256,192,210030,1,0,0:0:0:0:
256,192,210143,1,8,0:0:0:0:
256,192,210370,1,8,0:0:0:0:
256,192,210597,1,8,0:0:0:0:
256,192,210824,1,0,0:0:0:0:
256,192,210938,1,0,0:0:0:0:
256,192,211051,1,8,0:0:0:0:
256,192,211278,1,0,0:0:0:0:
256,192,211505,1,8,0:0:0:0:
256,192,211619,1,8,0:0:0:0:
256,192,211733,1,0,0:0:0:0:
256,192,211846,1,0,0:0:0:0:
256,192,211960,1,8,0:0:0:0:
256,192,212073,1,8,0:0:0:0:
256,192,212187,1,0,0:0:0:0:
256,192,212300,1,0,0:0:0:0:
256,192,212414,1,8,0:0:0:0:
256,192,212527,1,8,0:0:0:0:
256,192,212641,1,0,0:0:0:0:
256,192,212754,1,0,0:0:0:0:
256,192,212868,1,8,0:0:0:0:
256,192,212981,1,0,0:0:0:0:
256,192,213095,1,8,0:0:0:0:
256,192,213322,1,4,0:0:0:0:
256,192,213549,1,0,0:0:0:0:
256,192,213663,1,0,0:0:0:0:
256,192,213776,1,8,0:0:0:0:
256,192,214003,1,0,0:0:0:0:
256,192,214230,1,8,0:0:0:0:
256,192,214344,1,8,0:0:0:0:
256,192,214571,1,0,0:0:0:0:
256,192,214684,1,8,0:0:0:0:
256,192,214911,1,0,0:0:0:0:
256,192,215139,1,8,0:0:0:0:
256,192,215366,1,0,0:0:0:0:
256,192,215479,1,0,0:0:0:0:
256,192,215593,1,8,0:0:0:0:
256,192,215820,1,0,0:0:0:0:
256,192,216047,1,8,0:0:0:0:
256,192,216274,1,0,0:0:0:0:
256,192,216387,1,0,0:0:0:0:
256,192,216501,1,8,0:0:0:0:
256,192,216728,1,8,0:0:0:0:
256,192,216842,1,0,0:0:0:0:
256,192,216955,1,8,0:0:0:0:
256,192,217182,1,0,0:0:0:0:
256,192,217296,1,0,0:0:0:0:
256,192,217409,1,8,0:0:0:0:
256,192,217636,1,0,0:0:0:0:
256,192,217863,1,8,0:0:0:0:
256,192,217977,1,8,0:0:0:0:
256,192,218204,1,0,0:0:0:0:
256,192,218317,1,8,0:0:0:0:
256,192,218545,1,0,0:0:0:0:
256,192,218772,1,8,0:0:0:0:
256,192,218999,1,0,0:0:0:0:
256,192,219112,1,0,0:0:0:0:
256,192,219226,1,8,0:0:0:0:
256,192,219453,1,0,0:0:0:0:
256,192,219680,1,8,0:0:0:0:
256,192,219907,1,0,0:0:0:0:
256,192,220020,1,0,0:0:0:0:
256,192,220134,1,8,0:0:0:0:
256,192,220361,1,8,0:0:0:0:
256,192,220475,1,0,0:0:0:0:
256,192,220588,1,8,0:0:0:0:
256,192,220815,1,0,0:0:0:0:
256,192,221042,1,8,0:0:0:0:
256,192,221269,1,8,0:0:0:0:
256,192,221383,1,8,0:0:0:0:
256,192,221496,1,0,0:0:0:0:
256,192,221610,1,0,0:0:0:0:
256,192,221723,1,0,0:0:0:0:
256,192,221837,1,0,0:0:0:0:
256,192,221951,1,8,0:0:0:0:
256,192,222178,1,8,0:0:0:0:
256,192,222405,1,8,0:0:0:0:
256,192,222632,1,0,0:0:0:0:
256,192,222859,1,8,0:0:0:0:
256,192,223086,1,8,0:0:0:0:
256,192,223199,1,8,0:0:0:0:
256,192,223313,1,0,0:0:0:0:
256,192,223426,1,0,0:0:0:0:
256,192,223540,1,0,0:0:0:0:
256,192,223654,1,0,0:0:0:0:
256,192,223767,1,8,0:0:0:0:
256,192,223994,1,8,0:0:0:0:
256,192,224221,1,8,0:0:0:0:
256,192,224335,1,8,0:0:0:0:
256,192,224448,1,0,0:0:0:0:
256,192,224562,1,0,0:0:0:0:
256,192,224675,1,8,0:0:0:0:
256,192,224789,1,0,0:0:0:0:
256,192,224902,1,8,0:0:0:0:
256,192,225016,1,8,0:0:0:0:
256,192,225129,1,0,0:0:0:0:
256,192,225243,1,0,0:0:0:0:
256,192,225357,1,0,0:0:0:0:
256,192,225470,1,0,0:0:0:0:
256,192,225584,1,8,0:0:0:0:
256,192,225697,1,0,0:0:0:0:
256,192,225811,1,8,0:0:0:0:
256,192,225924,1,0,0:0:0:0:
256,192,226038,1,8,0:0:0:0:
256,192,226151,1,0,0:0:0:0:
256,192,226265,1,0,0:0:0:0:
256,192,226378,1,0,0:0:0:0:
256,192,226492,1,8,0:0:0:0:
256,192,226605,1,0,0:0:0:0:
256,192,226719,1,8,0:0:0:0:
256,192,226832,1,8,0:0:0:0:
256,192,226946,1,8,0:0:0:0:
256,192,227060,1,0,0:0:0:0:
256,192,227173,1,0,0:0:0:0:
256,192,227287,1,0,0:0:0:0:
256,192,227400,1,8,0:0:0:0:
256,192,227627,1,8,0:0:0:0:
