osu file format v14

[General]
AudioFilename: Gunther - I'm Not Justin Bieber Bitch.mp3
AudioLeadIn: 0
PreviewTime: 76969
Countdown: 0
SampleSet: None
StackLeniency: 0.6
Mode: 1
LetterboxInBreaks: 0
WidescreenStoryboard: 0

[Editor]
Bookmarks: 2491,17023,31555,47904,62436,69703,80602,95134,111483,118749,126015,144180,176878,183349,198676,213208
DistanceSpacing: 0.9
BeatDivisor: 4
GridSize: 32
TimelineZoom: 1.7

[Metadata]
Title:I'm Not Justin Bieber B**ch
TitleUnicode:I'm Not Justin Bieber B**ch
Artist:Gunther
ArtistUnicode:Günther
Creator:Stefan
Version:Dunskin's Oni
Source:
Tags:europop eurodance mats söderlund warner bros mustache moustache sexy man söderlund soderlund bitch thenutritiousguy tng darkdunskin
BeatmapID:1892134
BeatmapSetID:906718

[Difficulty]
HPDrainRate:5
CircleSize:5
OverallDifficulty:5
ApproachRate:6.9
SliderMultiplier:1.4
SliderTickRate:1

[Events]
//Background and Video events
0,0,"BG.jpg",0,2
//Break Periods
//Storyboard Layer 0 (Background)
//Storyboard Layer 1 (Fail)
//Storyboard Layer 2 (Pass)
//Storyboard Layer 3 (Foreground)
//Storyboard Sound Samples

[TimingPoints]
2605,454.132606721163,4,1,0,80,1,0
80715,-100,4,1,0,80,0,1
93431,-100,4,1,0,80,0,0
95248,-100,4,1,0,80,0,1
107963,-100,4,1,0,80,0,0
144294,-100,4,1,0,80,0,1
157010,-100,4,1,0,80,0,0
158826,-100,4,1,0,80,0,1
171542,-100,4,1,0,80,0,0

[Colours]
Combo1 : 202,154,138
Combo2 : 186,202,138
Combo3 : 138,202,186

[HitObjects]
256,192,1469,12,0,2377,0:0:0:0:
256,192,2603,5,4,0:0:0:0:
256,192,2832,1,0,0:0:0:0:
256,192,3059,1,0,0:0:0:0:
256,192,3286,1,8,0:0:0:0:
256,192,3740,1,0,0:0:0:0:
256,192,3967,1,0,0:0:0:0:
256,192,4194,1,8,0:0:0:0:
256,192,4648,1,0,0:0:0:0:
256,192,4875,1,0,0:0:0:0:
256,192,5102,1,8,0:0:0:0:
256,192,5556,1,0,0:0:0:0:
256,192,5783,1,0,0:0:0:0:
256,192,5897,1,0,0:0:0:0:
256,192,6010,1,0,0:0:0:0:
256,192,6238,5,8,0:0:0:0:
256,192,6467,1,0,0:0:0:0:
256,192,6694,1,0,0:0:0:0:
256,192,6921,1,8,0:0:0:0:
256,192,7375,1,0,0:0:0:0:
256,192,7602,1,0,0:0:0:0:
256,192,7829,1,8,0:0:0:0:
256,192,8283,1,0,0:0:0:0:
256,192,8510,1,0,0:0:0:0:
256,192,8737,1,8,0:0:0:0:
256,192,9191,1,0,0:0:0:0:
256,192,9418,1,0,0:0:0:0:
256,192,9530,1,0,0:0:0:0:
256,192,9645,1,0,0:0:0:0:
256,192,9871,5,4,0:0:0:0:
256,192,10100,1,0,0:0:0:0:
256,192,10327,1,0,0:0:0:0:
256,192,10554,1,8,0:0:0:0:
256,192,11008,1,0,0:0:0:0:
256,192,11235,1,0,0:0:0:0:
256,192,11462,1,8,0:0:0:0:
256,192,11916,1,0,0:0:0:0:
256,192,12143,1,0,0:0:0:0:
256,192,12370,1,8,0:0:0:0:
256,192,12824,1,0,0:0:0:0:
256,192,13051,1,0,0:0:0:0:
256,192,13163,1,0,0:0:0:0:
256,192,13278,1,0,0:0:0:0:
256,192,13506,1,8,0:0:0:0:
256,192,13733,1,0,0:0:0:0:
256,192,13960,1,0,0:0:0:0:
256,192,14187,1,8,0:0:0:0:
256,192,14639,1,0,0:0:0:0:
256,192,14866,1,0,0:0:0:0:
256,192,15093,1,8,0:0:0:0:
256,192,15547,1,0,0:0:0:0:
256,192,15774,1,0,0:0:0:0:
256,192,16001,1,8,0:0:0:0:
256,192,16456,1,0,0:0:0:0:
256,192,16683,1,0,0:0:0:0:
256,192,16796,1,0,0:0:0:0:
256,192,16910,1,0,0:0:0:0:
256,192,17137,5,4,0:0:0:0:
256,192,17364,1,0,0:0:0:0:
256,192,17477,1,0,0:0:0:0:
256,192,17591,1,8,0:0:0:0:
256,192,17818,1,8,0:0:0:0:
256,192,18272,1,0,0:0:0:0:
256,192,18499,1,0,0:0:0:0:
256,192,18726,1,8,0:0:0:0:
256,192,19180,1,0,0:0:0:0:
256,192,19407,1,0,0:0:0:0:
256,192,19634,1,8,0:0:0:0:
256,192,20089,1,0,0:0:0:0:
256,192,20316,1,0,0:0:0:0:
256,192,20429,1,0,0:0:0:0:
256,192,20543,1,0,0:0:0:0:
256,192,20770,1,8,0:0:0:0:
256,192,20997,1,0,0:0:0:0:
256,192,21110,1,0,0:0:0:0:
256,192,21224,1,8,0:0:0:0:
256,192,21451,1,8,0:0:0:0:
256,192,21905,1,0,0:0:0:0:
256,192,22132,1,0,0:0:0:0:
256,192,22359,1,8,0:0:0:0:
256,192,22813,1,0,0:0:0:0:
256,192,23040,1,0,0:0:0:0:
256,192,23268,1,8,0:0:0:0:
256,192,23722,1,0,0:0:0:0:
256,192,23949,1,0,0:0:0:0:
256,192,24062,1,0,0:0:0:0:
256,192,24176,1,0,0:0:0:0:
256,192,24403,1,4,0:0:0:0:
256,192,24630,1,0,0:0:0:0:
256,192,24743,1,0,0:0:0:0:
256,192,24857,1,8,0:0:0:0:
256,192,25084,1,8,0:0:0:0:
256,192,25538,1,0,0:0:0:0:
256,192,25765,1,0,0:0:0:0:
256,192,25992,1,8,0:0:0:0:
256,192,26446,1,0,0:0:0:0:
256,192,26673,1,0,0:0:0:0:
256,192,26900,1,8,0:0:0:0:
256,192,27355,1,0,0:0:0:0:
256,192,27582,1,0,0:0:0:0:
256,192,27695,1,0,0:0:0:0:
256,192,27809,1,0,0:0:0:0:
256,192,28036,1,8,0:0:0:0:
256,192,28263,1,0,0:0:0:0:
256,192,28376,1,0,0:0:0:0:
256,192,28490,1,8,0:0:0:0:
256,192,28717,1,8,0:0:0:0:
256,192,29171,1,0,0:0:0:0:
256,192,29398,1,0,0:0:0:0:
256,192,29625,1,8,0:0:0:0:
256,192,30079,1,0,0:0:0:0:
256,192,30306,1,0,0:0:0:0:
256,192,30534,1,8,0:0:0:0:
256,192,30988,1,0,0:0:0:0:
256,192,31215,1,0,0:0:0:0:
256,192,31328,1,0,0:0:0:0:
256,192,31442,1,0,0:0:0:0:
256,192,31669,5,4,0:0:0:0:
256,192,31896,1,0,0:0:0:0:
256,192,32009,1,0,0:0:0:0:
256,192,32123,1,8,0:0:0:0:
256,192,32350,1,8,0:0:0:0:
256,192,32804,1,8,0:0:0:0:
256,192,33031,1,0,0:0:0:0:
256,192,33145,1,0,0:0:0:0:
256,192,33258,1,8,0:0:0:0:
256,192,33712,1,8,0:0:0:0:
256,192,33939,1,0,0:0:0:0:
256,192,34053,1,0,0:0:0:0:
256,192,34166,1,8,0:0:0:0:
256,192,34621,1,8,0:0:0:0:
256,192,34848,1,0,0:0:0:0:
256,192,34961,1,8,0:0:0:0:
256,192,35075,1,0,0:0:0:0:
256,192,35302,1,8,0:0:0:0:
256,192,35529,1,0,0:0:0:0:
256,192,35642,1,0,0:0:0:0:
256,192,35756,1,8,0:0:0:0:
256,192,35983,1,8,0:0:0:0:
256,192,36437,1,8,0:0:0:0:
256,192,36664,1,0,0:0:0:0:
256,192,36778,1,0,0:0:0:0:
256,192,36891,1,8,0:0:0:0:
128,160,37345,1,8,0:0:0:0:
256,192,37572,1,0,0:0:0:0:
256,192,37686,1,0,0:0:0:0:
256,192,37800,1,8,0:0:0:0:
256,192,38254,1,8,0:0:0:0:
256,192,38481,1,0,0:0:0:0:
256,192,38594,1,8,0:0:0:0:
256,192,38708,1,0,0:0:0:0:
256,192,38935,5,4,0:0:0:0:
256,192,39162,1,0,0:0:0:0:
256,192,39275,1,0,0:0:0:0:
256,192,39389,1,8,0:0:0:0:
256,192,39616,1,8,0:0:0:0:
256,192,40070,1,8,0:0:0:0:
256,192,40297,1,0,0:0:0:0:
256,192,40411,1,0,0:0:0:0:
256,192,40524,1,8,0:0:0:0:
256,192,40978,1,8,0:0:0:0:
256,192,41205,1,0,0:0:0:0:
256,192,41319,1,0,0:0:0:0:
256,192,41432,1,8,0:0:0:0:
256,192,41887,1,8,0:0:0:0:
256,192,42114,1,0,0:0:0:0:
256,192,42227,1,8,0:0:0:0:
256,192,42341,1,0,0:0:0:0:
256,192,42568,1,8,0:0:0:0:
256,192,42795,1,0,0:0:0:0:
256,192,42908,1,0,0:0:0:0:
256,192,43022,1,8,0:0:0:0:
256,192,43249,1,8,0:0:0:0:
256,192,43703,1,8,0:0:0:0:
256,192,43930,1,0,0:0:0:0:
256,192,44044,1,0,0:0:0:0:
256,192,44157,1,8,0:0:0:0:
128,160,44611,1,8,0:0:0:0:
256,192,44838,1,0,0:0:0:0:
256,192,44952,1,0,0:0:0:0:
256,192,45066,1,8,0:0:0:0:
256,192,45520,1,8,0:0:0:0:
256,192,45747,1,0,0:0:0:0:
256,192,45860,1,8,0:0:0:0:
256,192,45974,1,0,0:0:0:0:
256,192,46201,12,0,47791,0:0:0:0:
256,192,48018,5,4,0:0:0:0:
256,192,48245,1,8,0:0:0:0:
256,192,48358,1,0,0:0:0:0:
256,192,48472,1,0,0:0:0:0:
256,192,48699,1,8,0:0:0:0:
256,192,48812,1,0,0:0:0:0:
256,192,48926,1,0,0:0:0:0:
256,192,49153,1,8,0:0:0:0:
256,192,49380,1,0,0:0:0:0:
256,192,49607,1,8,0:0:0:0:
256,192,49834,1,4,0:0:0:0:
256,192,50061,1,8,0:0:0:0:
256,192,50175,1,0,0:0:0:0:
256,192,50288,1,0,0:0:0:0:
256,192,50515,1,8,0:0:0:0:
256,192,50629,1,0,0:0:0:0:
256,192,50743,1,0,0:0:0:0:
256,192,50970,1,8,0:0:0:0:
256,192,51197,1,0,0:0:0:0:
256,192,51424,1,8,0:0:0:0:
256,192,51651,5,4,0:0:0:0:
256,192,51878,1,8,0:0:0:0:
256,192,51991,1,0,0:0:0:0:
256,192,52105,1,0,0:0:0:0:
256,192,52332,1,8,0:0:0:0:
256,192,52445,1,0,0:0:0:0:
256,192,52559,1,0,0:0:0:0:
256,192,52786,1,8,0:0:0:0:
256,192,52900,1,0,0:0:0:0:
256,192,53013,1,0,0:0:0:0:
256,192,53127,1,0,0:0:0:0:
256,192,53240,1,8,0:0:0:0:
256,192,53467,1,4,0:0:0:0:
256,192,53694,1,8,0:0:0:0:
256,192,53808,1,0,0:0:0:0:
256,192,53921,1,0,0:0:0:0:
256,192,54148,1,8,0:0:0:0:
256,192,54262,1,0,0:0:0:0:
256,192,54376,1,0,0:0:0:0:
256,192,54603,1,8,0:0:0:0:
256,192,54830,1,0,0:0:0:0:
256,192,55057,1,8,0:0:0:0:
256,192,55284,1,4,0:0:0:0:
256,192,55511,1,4,0:0:0:0:
256,192,55738,1,8,0:0:0:0:
256,192,55965,1,8,0:0:0:0:
256,192,56079,1,0,0:0:0:0:
256,192,56192,1,0,0:0:0:0:
256,192,56419,1,8,0:0:0:0:
256,192,56646,1,0,0:0:0:0:
256,192,56873,1,8,0:0:0:0:
256,192,57100,1,4,0:0:0:0:
256,192,57327,1,4,0:0:0:0:
256,192,57555,1,8,0:0:0:0:
256,192,57782,1,8,0:0:0:0:
256,192,57895,1,0,0:0:0:0:
256,192,58009,1,0,0:0:0:0:
256,192,58236,1,8,0:0:0:0:
256,192,58463,1,0,0:0:0:0:
256,192,58690,1,8,0:0:0:0:
256,192,58917,1,4,0:0:0:0:
256,192,59144,1,4,0:0:0:0:
256,192,59371,1,8,0:0:0:0:
256,192,59598,1,8,0:0:0:0:
256,192,59712,1,0,0:0:0:0:
256,192,59825,1,0,0:0:0:0:
256,192,60052,1,8,0:0:0:0:
256,192,60279,1,0,0:0:0:0:
256,192,60506,1,8,0:0:0:0:
256,192,60733,1,4,0:0:0:0:
256,192,60961,1,8,0:0:0:0:
256,192,61074,1,8,0:0:0:0:
256,192,61188,1,0,0:0:0:0:
256,192,61415,1,8,0:0:0:0:
256,192,61528,1,8,0:0:0:0:
256,192,61642,1,0,0:0:0:0:
256,192,61869,1,8,0:0:0:0:
256,192,61982,1,8,0:0:0:0:
256,192,62096,1,0,0:0:0:0:
256,192,62209,1,0,0:0:0:0:
256,192,62323,1,8,0:0:0:0:
256,192,62550,5,4,0:0:0:0:
256,192,62891,1,0,0:0:0:0:
256,192,63004,1,8,0:0:0:0:
256,192,63231,1,0,0:0:0:0:
256,192,63458,1,8,0:0:0:0:
256,192,63685,1,8,0:0:0:0:
256,192,63799,1,8,0:0:0:0:
256,192,63912,1,0,0:0:0:0:
256,192,64139,1,8,0:0:0:0:
256,192,64367,1,4,0:0:0:0:
256,192,64707,1,0,0:0:0:0:
256,192,64821,1,8,0:0:0:0:
256,192,65048,1,0,0:0:0:0:
256,192,65275,1,8,0:0:0:0:
256,192,65502,1,8,0:0:0:0:
256,192,65615,1,8,0:0:0:0:
256,192,65729,1,0,0:0:0:0:
256,192,65956,1,8,0:0:0:0:
256,192,66183,1,4,0:0:0:0:
256,192,66410,1,0,0:0:0:0:
256,192,66524,1,0,0:0:0:0:
256,192,66637,1,8,0:0:0:0:
256,192,66864,1,0,0:0:0:0:
256,192,66978,1,0,0:0:0:0:
256,192,67091,1,8,0:0:0:0:
256,192,67318,1,0,0:0:0:0:
256,192,67432,1,0,0:0:0:0:
256,192,67545,1,8,0:0:0:0:
256,192,67773,1,0,0:0:0:0:
256,192,68000,1,4,0:0:0:0:
256,192,68340,1,0,0:0:0:0:
256,192,68453,1,8,0:0:0:0:
256,192,68680,1,0,0:0:0:0:
256,192,68907,1,8,0:0:0:0:
256,192,69134,1,8,0:0:0:0:
256,192,69248,1,8,0:0:0:0:
256,192,69361,1,0,0:0:0:0:
256,192,69588,1,8,0:0:0:0:
256,192,69816,5,4,0:0:0:0:
256,192,70043,1,0,0:0:0:0:
256,192,70156,1,0,0:0:0:0:
256,192,70270,1,8,0:0:0:0:
256,192,70497,1,0,0:0:0:0:
256,192,70724,1,4,0:0:0:0:
256,192,70951,1,0,0:0:0:0:
256,192,71064,1,0,0:0:0:0:
256,192,71179,1,8,0:0:0:0:
256,192,71405,1,0,0:0:0:0:
256,192,71633,1,4,0:0:0:0:
256,192,71860,1,0,0:0:0:0:
256,192,71973,1,0,0:0:0:0:
256,192,72088,1,8,0:0:0:0:
256,192,72314,1,0,0:0:0:0:
256,192,72541,1,4,0:0:0:0:
256,192,72768,1,0,0:0:0:0:
256,192,72881,1,0,0:0:0:0:
256,192,72996,1,8,0:0:0:0:
256,192,73222,1,0,0:0:0:0:
256,192,73449,1,8,0:0:0:0:
256,192,73563,1,0,0:0:0:0:
256,192,73676,1,0,0:0:0:0:
256,192,73790,1,0,0:0:0:0:
256,192,73903,1,8,0:0:0:0:
256,192,74017,1,0,0:0:0:0:
256,192,74130,1,0,0:0:0:0:
256,192,74244,1,0,0:0:0:0:
256,192,74357,1,8,0:0:0:0:
256,192,74471,1,0,0:0:0:0:
256,192,74584,1,0,0:0:0:0:
256,192,74698,1,0,0:0:0:0:
256,192,74811,1,8,0:0:0:0:
256,192,74925,1,0,0:0:0:0:
256,192,75038,1,0,0:0:0:0:
256,192,75152,1,0,0:0:0:0:
256,192,75265,1,8,0:0:0:0:
256,192,75379,1,8,0:0:0:0:
256,192,75493,1,0,0:0:0:0:
256,192,75606,1,0,0:0:0:0:
256,192,75720,1,8,0:0:0:0:
256,192,75833,1,8,0:0:0:0:
256,192,75947,1,0,0:0:0:0:
256,192,76060,1,0,0:0:0:0:
256,192,76174,1,8,0:0:0:0:
256,192,76288,1,8,0:0:0:0:
256,192,76401,1,0,0:0:0:0:
256,192,76515,1,0,0:0:0:0:
256,192,76628,1,8,0:0:0:0:
256,192,77082,1,4,0:0:0:0:
256,192,78899,1,12,0:0:0:0:
256,192,79126,1,12,0:0:0:0:
256,192,79353,1,4,0:0:0:0:
256,192,79580,1,4,0:0:0:0:
256,192,79807,1,12,0:0:0:0:
256,192,80034,1,4,0:0:0:0:
256,192,80261,1,12,0:0:0:0:
256,192,80715,5,4,0:0:0:0:
256,192,80942,1,0,0:0:0:0:
256,192,81169,1,4,0:0:0:0:
256,192,81397,1,0,0:0:0:0:
256,192,81624,1,4,0:0:0:0:
256,192,81851,1,0,0:0:0:0:
256,192,82078,1,4,0:0:0:0:
256,192,82305,1,0,0:0:0:0:
256,192,82532,1,8,0:0:0:0:
256,192,82759,1,8,0:0:0:0:
256,192,82872,1,0,0:0:0:0:
256,192,82986,1,0,0:0:0:0:
256,192,83100,1,8,0:0:0:0:
256,192,83327,1,0,0:0:0:0:
256,192,83554,1,8,0:0:0:0:
256,192,83781,1,0,0:0:0:0:
256,192,83894,1,8,0:0:0:0:
256,192,84121,1,0,0:0:0:0:
256,192,84348,5,4,0:0:0:0:
256,192,84575,1,0,0:0:0:0:
256,192,84802,1,4,0:0:0:0:
256,192,85030,1,0,0:0:0:0:
256,192,85257,1,4,0:0:0:0:
256,192,85484,1,0,0:0:0:0:
256,192,85711,1,4,0:0:0:0:
256,192,85938,1,0,0:0:0:0:
256,192,86165,1,8,0:0:0:0:
256,192,86278,1,8,0:0:0:0:
256,192,86392,1,0,0:0:0:0:
256,192,86505,1,0,0:0:0:0:
256,192,86619,1,8,0:0:0:0:
256,192,86733,1,8,0:0:0:0:
256,192,86846,1,0,0:0:0:0:
256,192,86960,1,0,0:0:0:0:
256,192,87073,1,8,0:0:0:0:
256,192,87187,1,8,0:0:0:0:
256,192,87300,1,0,0:0:0:0:
256,192,87527,1,8,0:0:0:0:
256,192,87754,1,0,0:0:0:0:
256,192,87981,5,4,0:0:0:0:
256,192,88208,1,0,0:0:0:0:
256,192,88435,1,4,0:0:0:0:
256,192,88663,1,0,0:0:0:0:
256,192,88890,1,4,0:0:0:0:
256,192,89117,1,0,0:0:0:0:
256,192,89344,1,4,0:0:0:0:
256,192,89571,1,0,0:0:0:0:
256,192,89798,1,8,0:0:0:0:
256,192,90025,1,8,0:0:0:0:
256,192,90138,1,0,0:0:0:0:
256,192,90252,1,0,0:0:0:0:
256,192,90366,1,8,0:0:0:0:
256,192,90593,1,0,0:0:0:0:
256,192,90820,1,8,0:0:0:0:
256,192,91047,1,0,0:0:0:0:
256,192,91160,1,8,0:0:0:0:
256,192,91387,1,0,0:0:0:0:
256,192,91614,5,4,0:0:0:0:
256,192,91841,1,0,0:0:0:0:
256,192,92068,1,4,0:0:0:0:
256,192,92296,1,0,0:0:0:0:
256,192,92523,1,4,0:0:0:0:
256,192,92750,1,0,0:0:0:0:
256,192,92977,1,4,0:0:0:0:
256,192,93204,1,0,0:0:0:0:
256,192,93431,1,12,0:0:0:0:
256,192,93658,1,12,0:0:0:0:
256,192,93885,1,4,0:0:0:0:
256,192,94112,1,4,0:0:0:0:
256,192,94339,1,12,0:0:0:0:
256,192,94566,1,4,0:0:0:0:
256,192,94793,1,12,0:0:0:0:
256,192,95248,1,4,0:0:0:0:
256,192,95475,1,8,0:0:0:0:
256,192,95588,1,0,0:0:0:0:
256,192,95702,1,0,0:0:0:0:
256,192,95816,1,8,0:0:0:0:
256,192,96043,1,0,0:0:0:0:
256,192,96270,1,8,0:0:0:0:
256,192,96497,1,0,0:0:0:0:
256,192,96610,1,8,0:0:0:0:
256,192,96723,1,8,0:0:0:0:
256,192,96837,1,0,0:0:0:0:
256,192,97064,1,8,0:0:0:0:
256,192,97291,1,8,0:0:0:0:
256,192,97404,1,0,0:0:0:0:
256,192,97518,1,0,0:0:0:0:
256,192,97632,1,8,0:0:0:0:
256,192,97859,1,0,0:0:0:0:
256,192,98086,1,8,0:0:0:0:
256,192,98313,1,0,0:0:0:0:
256,192,98426,1,8,0:0:0:0:
256,192,98654,1,0,0:0:0:0:
256,192,98881,1,4,0:0:0:0:
256,192,99108,1,8,0:0:0:0:
256,192,99221,1,0,0:0:0:0:
256,192,99335,1,0,0:0:0:0:
256,192,99449,1,8,0:0:0:0:
256,192,99676,1,0,0:0:0:0:
256,192,99903,1,8,0:0:0:0:
256,192,100130,1,0,0:0:0:0:
256,192,100243,1,8,0:0:0:0:
256,192,100357,1,8,0:0:0:0:
256,192,100470,1,0,0:0:0:0:
256,192,100697,1,8,0:0:0:0:
256,192,100811,1,8,0:0:0:0:
256,192,100924,1,0,0:0:0:0:
256,192,101038,1,0,0:0:0:0:
256,192,101151,1,8,0:0:0:0:
256,192,101265,1,8,0:0:0:0:
256,192,101378,1,0,0:0:0:0:
256,192,101492,1,0,0:0:0:0:
256,192,101605,1,8,0:0:0:0:
256,192,101719,1,8,0:0:0:0:
256,192,101832,1,0,0:0:0:0:
256,192,102060,1,8,0:0:0:0:
256,192,102287,1,0,0:0:0:0:
256,192,102514,1,4,0:0:0:0:
256,192,102741,1,8,0:0:0:0:
256,192,102854,1,0,0:0:0:0:
256,192,102968,1,0,0:0:0:0:
256,192,103082,1,8,0:0:0:0:
256,192,103309,1,0,0:0:0:0:
256,192,103536,1,8,0:0:0:0:
256,192,103763,1,0,0:0:0:0:
256,192,103876,1,8,0:0:0:0:
256,192,103990,1,8,0:0:0:0:
256,192,104103,1,0,0:0:0:0:
256,192,104330,1,8,0:0:0:0:
256,192,104557,1,8,0:0:0:0:
256,192,104670,1,0,0:0:0:0:
256,192,104784,1,0,0:0:0:0:
256,192,104898,1,8,0:0:0:0:
256,192,105125,1,0,0:0:0:0:
256,192,105352,1,8,0:0:0:0:
256,192,105579,1,0,0:0:0:0:
256,192,105692,1,8,0:0:0:0:
256,192,105920,1,0,0:0:0:0:
256,192,106147,1,4,0:0:0:0:
256,192,106374,1,8,0:0:0:0:
256,192,106487,1,0,0:0:0:0:
256,192,106714,1,0,0:0:0:0:
256,192,106828,1,8,0:0:0:0:
256,192,106941,1,0,0:0:0:0:
256,192,107169,1,0,0:0:0:0:
256,192,107282,1,8,0:0:0:0:
256,192,107396,1,0,0:0:0:0:
256,192,107623,1,0,0:0:0:0:
256,192,107736,1,8,0:0:0:0:
256,192,107963,1,12,0:0:0:0:
256,192,108190,1,12,0:0:0:0:
256,192,108417,1,4,0:0:0:0:
256,192,108644,1,4,0:0:0:0:
256,192,108872,1,12,0:0:0:0:
256,192,109099,1,4,0:0:0:0:
256,192,109326,1,12,0:0:0:0:
256,192,109780,12,0,111369,0:0:0:0:
256,192,111596,5,4,0:0:0:0:
256,192,111823,1,8,0:0:0:0:
256,192,111936,1,0,0:0:0:0:
256,192,112050,1,0,0:0:0:0:
256,192,112277,1,8,0:0:0:0:
256,192,112390,1,0,0:0:0:0:
256,192,112504,1,0,0:0:0:0:
256,192,112731,1,8,0:0:0:0:
256,192,112958,1,0,0:0:0:0:
256,192,113186,1,8,0:0:0:0:
256,192,113412,1,4,0:0:0:0:
256,192,113639,1,8,0:0:0:0:
256,192,113753,1,0,0:0:0:0:
256,192,113866,1,0,0:0:0:0:
256,192,114093,1,8,0:0:0:0:
256,192,114207,1,0,0:0:0:0:
256,192,114321,1,0,0:0:0:0:
256,192,114548,1,8,0:0:0:0:
256,192,114775,1,0,0:0:0:0:
256,192,115002,1,8,0:0:0:0:
256,192,115229,5,4,0:0:0:0:
256,192,115456,1,8,0:0:0:0:
256,192,115569,1,0,0:0:0:0:
256,192,115683,1,0,0:0:0:0:
256,192,115910,1,8,0:0:0:0:
256,192,116023,1,0,0:0:0:0:
256,192,116137,1,0,0:0:0:0:
256,192,116364,1,8,0:0:0:0:
256,192,116478,1,0,0:0:0:0:
256,192,116591,1,0,0:0:0:0:
256,192,116705,1,0,0:0:0:0:
256,192,116818,1,8,0:0:0:0:
256,192,117045,1,4,0:0:0:0:
256,192,117273,1,8,0:0:0:0:
256,192,117387,1,0,0:0:0:0:
256,192,117500,1,0,0:0:0:0:
256,192,117727,1,8,0:0:0:0:
256,192,117954,1,0,0:0:0:0:
256,192,118068,1,8,0:0:0:0:
256,192,118181,1,0,0:0:0:0:
256,192,118408,1,8,0:0:0:0:
256,192,118635,1,0,0:0:0:0:
256,192,118862,1,4,0:0:0:0:
256,192,119089,1,4,0:0:0:0:
256,192,119316,1,8,0:0:0:0:
256,192,119543,1,8,0:0:0:0:
256,192,119657,1,0,0:0:0:0:
256,192,119770,1,0,0:0:0:0:
256,192,119997,1,8,0:0:0:0:
256,192,120224,1,0,0:0:0:0:
256,192,120451,1,8,0:0:0:0:
256,192,120678,1,4,0:0:0:0:
256,192,120905,1,4,0:0:0:0:
256,192,121133,1,8,0:0:0:0:
256,192,121360,1,8,0:0:0:0:
256,192,121473,1,0,0:0:0:0:
256,192,121587,1,0,0:0:0:0:
256,192,121814,1,8,0:0:0:0:
256,192,122041,1,0,0:0:0:0:
256,192,122268,1,8,0:0:0:0:
256,192,122495,1,4,0:0:0:0:
256,192,122722,1,4,0:0:0:0:
256,192,122949,1,8,0:0:0:0:
256,192,123176,1,8,0:0:0:0:
256,192,123290,1,0,0:0:0:0:
256,192,123403,1,0,0:0:0:0:
256,192,123630,1,8,0:0:0:0:
256,192,123857,1,0,0:0:0:0:
256,192,124084,1,8,0:0:0:0:
256,192,124311,1,4,0:0:0:0:
256,192,124539,1,8,0:0:0:0:
256,192,124652,1,0,0:0:0:0:
256,192,124766,1,8,0:0:0:0:
256,192,124993,1,8,0:0:0:0:
256,192,125106,1,0,0:0:0:0:
256,192,125220,1,8,0:0:0:0:
256,192,125447,1,8,0:0:0:0:
256,192,125561,1,0,0:0:0:0:
256,192,125674,1,8,0:0:0:0:
256,192,125787,1,0,0:0:0:0:
256,192,125901,1,8,0:0:0:0:
256,192,126128,5,4,0:0:0:0:
256,192,126356,1,0,0:0:0:0:
256,192,126583,1,12,0:0:0:0:
256,192,126810,1,0,0:0:0:0:
256,192,127037,1,4,0:0:0:0:
256,192,127264,1,0,0:0:0:0:
256,192,127491,1,12,0:0:0:0:
256,192,127718,1,0,0:0:0:0:
256,192,127945,1,4,0:0:0:0:
256,192,128172,1,0,0:0:0:0:
256,192,128399,1,12,0:0:0:0:
256,192,128626,1,0,0:0:0:0:
256,192,128853,1,4,0:0:0:0:
256,192,129080,1,0,0:0:0:0:
256,192,129307,1,12,0:0:0:0:
256,192,129534,1,0,0:0:0:0:
256,192,129761,1,4,0:0:0:0:
256,192,129988,1,0,0:0:0:0:
256,192,130216,1,12,0:0:0:0:
256,192,130443,1,0,0:0:0:0:
256,192,130670,1,4,0:0:0:0:
256,192,130897,1,0,0:0:0:0:
256,192,131124,1,12,0:0:0:0:
256,192,131351,1,0,0:0:0:0:
256,192,131578,1,4,0:0:0:0:
256,192,131805,1,0,0:0:0:0:
256,192,132032,1,12,0:0:0:0:
256,192,132259,1,0,0:0:0:0:
256,192,132486,1,4,0:0:0:0:
256,192,132713,1,0,0:0:0:0:
256,192,132941,1,12,0:0:0:0:
256,192,133168,1,0,0:0:0:0:
256,192,133395,1,4,0:0:0:0:
256,192,133735,1,0,0:0:0:0:
256,192,133849,1,8,0:0:0:0:
256,192,134076,1,0,0:0:0:0:
256,192,134303,1,4,0:0:0:0:
256,192,134644,1,0,0:0:0:0:
256,192,134757,1,8,0:0:0:0:
256,192,134984,1,0,0:0:0:0:
256,192,135211,1,4,0:0:0:0:
256,192,135552,1,0,0:0:0:0:
256,192,135665,1,8,0:0:0:0:
256,192,135892,1,0,0:0:0:0:
256,192,136119,1,4,0:0:0:0:
256,192,136460,1,0,0:0:0:0:
256,192,136573,1,8,0:0:0:0:
256,192,136800,1,0,0:0:0:0:
256,192,137027,1,8,0:0:0:0:
256,192,137141,1,0,0:0:0:0:
256,192,137255,1,0,0:0:0:0:
256,192,137368,1,0,0:0:0:0:
256,192,137482,1,8,0:0:0:0:
256,192,137595,1,0,0:0:0:0:
256,192,137709,1,0,0:0:0:0:
256,192,137822,1,0,0:0:0:0:
256,192,137936,1,8,0:0:0:0:
256,192,138050,1,0,0:0:0:0:
256,192,138163,1,0,0:0:0:0:
256,192,138277,1,0,0:0:0:0:
256,192,138390,1,8,0:0:0:0:
256,192,138504,1,0,0:0:0:0:
256,192,138617,1,0,0:0:0:0:
256,192,138731,1,0,0:0:0:0:
256,192,138844,1,8,0:0:0:0:
256,192,138958,1,8,0:0:0:0:
256,192,139071,1,0,0:0:0:0:
256,192,139185,1,0,0:0:0:0:
256,192,139298,1,8,0:0:0:0:
256,192,139412,1,8,0:0:0:0:
256,192,139525,1,0,0:0:0:0:
256,192,139639,1,0,0:0:0:0:
256,192,139753,1,8,0:0:0:0:
256,192,139866,1,8,0:0:0:0:
256,192,139980,1,0,0:0:0:0:
256,192,140093,1,0,0:0:0:0:
256,192,140207,1,8,0:0:0:0:
256,192,140661,1,4,0:0:0:0:
256,192,142477,1,12,0:0:0:0:
256,192,142704,1,12,0:0:0:0:
256,192,142931,1,4,0:0:0:0:
256,192,143159,1,4,0:0:0:0:
256,192,143386,1,12,0:0:0:0:
256,192,143613,1,4,0:0:0:0:
256,192,143840,1,12,0:0:0:0:
256,192,144294,5,4,0:0:0:0:
256,192,144521,1,0,0:0:0:0:
256,192,144748,1,4,0:0:0:0:
256,192,144976,1,0,0:0:0:0:
256,192,145203,1,4,0:0:0:0:
256,192,145430,1,0,0:0:0:0:
256,192,145657,1,4,0:0:0:0:
256,192,145884,1,0,0:0:0:0:
256,192,146111,1,8,0:0:0:0:
256,192,146338,1,8,0:0:0:0:
256,192,146451,1,8,0:0:0:0:
256,192,146565,1,0,0:0:0:0:
256,192,146679,1,8,0:0:0:0:
256,192,146906,1,0,0:0:0:0:
256,192,147133,1,8,0:0:0:0:
256,192,147360,1,0,0:0:0:0:
256,192,147473,1,8,0:0:0:0:
256,192,147700,1,0,0:0:0:0:
256,192,147927,5,4,0:0:0:0:
256,192,148154,1,0,0:0:0:0:
256,192,148381,1,4,0:0:0:0:
256,192,148609,1,0,0:0:0:0:
256,192,148836,1,4,0:0:0:0:
256,192,149063,1,0,0:0:0:0:
256,192,149290,1,4,0:0:0:0:
256,192,149517,1,0,0:0:0:0:
256,192,149744,1,8,0:0:0:0:
256,192,149857,1,8,0:0:0:0:
256,192,149971,1,0,0:0:0:0:
256,192,150084,1,0,0:0:0:0:
256,192,150198,1,8,0:0:0:0:
256,192,150312,1,8,0:0:0:0:
256,192,150425,1,0,0:0:0:0:
256,192,150539,1,0,0:0:0:0:
256,192,150652,1,8,0:0:0:0:
256,192,150766,1,8,0:0:0:0:
256,192,150879,1,0,0:0:0:0:
256,192,151106,1,8,0:0:0:0:
256,192,151333,1,0,0:0:0:0:
256,192,151560,5,4,0:0:0:0:
256,192,151787,1,0,0:0:0:0:
256,192,152014,1,4,0:0:0:0:
256,192,152242,1,0,0:0:0:0:
256,192,152469,1,4,0:0:0:0:
256,192,152696,1,0,0:0:0:0:
256,192,152923,1,4,0:0:0:0:
256,192,153150,1,0,0:0:0:0:
256,192,153377,1,8,0:0:0:0:
256,192,153604,1,8,0:0:0:0:
256,192,153717,1,8,0:0:0:0:
256,192,153831,1,0,0:0:0:0:
256,192,153945,1,8,0:0:0:0:
256,192,154172,1,0,0:0:0:0:
256,192,154399,1,8,0:0:0:0:
256,192,154626,1,0,0:0:0:0:
256,192,154739,1,8,0:0:0:0:
256,192,154966,1,0,0:0:0:0:
256,192,155193,5,4,0:0:0:0:
256,192,155420,1,0,0:0:0:0:
256,192,155647,1,4,0:0:0:0:
256,192,155875,1,0,0:0:0:0:
256,192,156102,1,4,0:0:0:0:
256,192,156329,1,0,0:0:0:0:
256,192,156556,1,4,0:0:0:0:
256,192,156783,1,0,0:0:0:0:
256,192,157010,1,12,0:0:0:0:
256,192,157237,1,12,0:0:0:0:
256,192,157464,1,4,0:0:0:0:
256,192,157691,1,4,0:0:0:0:
256,192,157918,1,12,0:0:0:0:
256,192,158145,1,4,0:0:0:0:
256,192,158372,1,12,0:0:0:0:
256,192,158827,1,4,0:0:0:0:
256,192,159054,1,8,0:0:0:0:
256,192,159167,1,8,0:0:0:0:
256,192,159280,1,0,0:0:0:0:
256,192,159395,1,8,0:0:0:0:
256,192,159622,1,0,0:0:0:0:
256,192,159849,1,8,0:0:0:0:
256,192,160076,1,0,0:0:0:0:
256,192,160189,1,0,0:0:0:0:
256,192,160302,1,8,0:0:0:0:
256,192,160416,1,0,0:0:0:0:
256,192,160643,1,8,0:0:0:0:
256,192,160870,1,8,0:0:0:0:
256,192,160983,1,8,0:0:0:0:
256,192,161097,1,0,0:0:0:0:
256,192,161211,1,8,0:0:0:0:
256,192,161438,1,0,0:0:0:0:
256,192,161665,1,8,0:0:0:0:
256,192,161892,1,0,0:0:0:0:
256,192,162005,1,8,0:0:0:0:
256,192,162233,1,0,0:0:0:0:
256,192,162460,1,4,0:0:0:0:
256,192,162687,1,8,0:0:0:0:
256,192,162800,1,8,0:0:0:0:
256,192,162913,1,0,0:0:0:0:
256,192,163028,1,8,0:0:0:0:
256,192,163255,1,0,0:0:0:0:
256,192,163482,1,8,0:0:0:0:
256,192,163709,1,0,0:0:0:0:
256,192,163822,1,0,0:0:0:0:
256,192,163935,1,8,0:0:0:0:
256,192,164049,1,0,0:0:0:0:
256,192,164276,1,8,0:0:0:0:
256,192,164390,1,8,0:0:0:0:
256,192,164503,1,0,0:0:0:0:
256,192,164617,1,0,0:0:0:0:
256,192,164730,1,8,0:0:0:0:
256,192,164844,1,8,0:0:0:0:
256,192,164957,1,0,0:0:0:0:
256,192,165071,1,0,0:0:0:0:
256,192,165184,1,8,0:0:0:0:
256,192,165298,1,8,0:0:0:0:
256,192,165411,1,0,0:0:0:0:
256,192,165639,1,8,0:0:0:0:
256,192,165866,1,0,0:0:0:0:
256,192,166093,1,4,0:0:0:0:
256,192,166320,1,8,0:0:0:0:
256,192,166433,1,8,0:0:0:0:
256,192,166546,1,0,0:0:0:0:
256,192,166661,1,8,0:0:0:0:
256,192,166888,1,0,0:0:0:0:
256,192,167115,1,8,0:0:0:0:
256,192,167342,1,0,0:0:0:0:
256,192,167455,1,0,0:0:0:0:
256,192,167568,1,8,0:0:0:0:
256,192,167682,1,0,0:0:0:0:
256,192,167909,1,8,0:0:0:0:
256,192,168136,1,8,0:0:0:0:
256,192,168249,1,8,0:0:0:0:
256,192,168363,1,0,0:0:0:0:
256,192,168477,1,8,0:0:0:0:
256,192,168704,1,0,0:0:0:0:
256,192,168931,1,8,0:0:0:0:
256,192,169158,1,0,0:0:0:0:
256,192,169271,1,8,0:0:0:0:
256,192,169499,1,0,0:0:0:0:
256,192,169726,1,4,0:0:0:0:
256,192,169953,1,8,0:0:0:0:
256,192,170066,1,0,0:0:0:0:
256,192,170293,1,0,0:0:0:0:
256,192,170407,1,8,0:0:0:0:
256,192,170520,1,0,0:0:0:0:
256,192,170748,1,0,0:0:0:0:
256,192,170861,1,8,0:0:0:0:
256,192,170975,1,0,0:0:0:0:
256,192,171202,1,0,0:0:0:0:
256,192,171315,1,8,0:0:0:0:
256,192,171542,1,12,0:0:0:0:
256,192,171769,1,12,0:0:0:0:
256,192,171996,1,4,0:0:0:0:
256,192,172223,1,4,0:0:0:0:
256,192,172451,1,12,0:0:0:0:
256,192,172678,1,4,0:0:0:0:
256,192,172905,1,12,0:0:0:0:
256,192,173358,1,4,0:0:0:0:
256,192,176991,5,4,0:0:0:0:
256,192,177218,1,0,0:0:0:0:
256,192,177446,1,0,0:0:0:0:
256,192,177673,1,8,0:0:0:0:
256,192,178127,1,8,0:0:0:0:
256,192,178354,1,0,0:0:0:0:
256,192,178581,1,8,0:0:0:0:
256,192,178808,1,4,0:0:0:0:
256,192,179035,1,0,0:0:0:0:
256,192,179262,1,0,0:0:0:0:
256,192,179489,1,8,0:0:0:0:
256,192,179943,1,8,0:0:0:0:
256,192,180170,1,0,0:0:0:0:
256,192,180397,1,8,0:0:0:0:
256,192,180624,1,4,0:0:0:0:
256,192,180851,1,0,0:0:0:0:
256,192,181078,1,0,0:0:0:0:
256,192,181305,1,8,0:0:0:0:
256,192,181760,1,8,0:0:0:0:
256,192,181987,1,0,0:0:0:0:
256,192,182214,1,8,0:0:0:0:
256,192,182441,1,8,0:0:0:0:
256,192,182668,1,0,0:0:0:0:
256,192,182895,1,0,0:0:0:0:
256,192,183122,1,8,0:0:0:0:
256,192,183576,1,8,0:0:0:0:
256,192,183803,1,0,0:0:0:0:
256,192,183917,1,8,0:0:0:0:
256,192,184030,1,0,0:0:0:0:
256,192,184257,1,4,0:0:0:0:
256,192,184484,1,0,0:0:0:0:
256,192,184711,1,0,0:0:0:0:
256,192,184938,1,8,0:0:0:0:
256,192,185393,1,8,0:0:0:0:
256,192,185620,1,0,0:0:0:0:
256,192,185847,1,8,0:0:0:0:
256,192,186301,1,0,0:0:0:0:
256,192,186528,1,0,0:0:0:0:
256,192,186755,1,8,0:0:0:0:
256,192,187209,1,8,0:0:0:0:
256,192,187436,1,0,0:0:0:0:
256,192,187550,1,8,0:0:0:0:
256,192,187664,1,0,0:0:0:0:
256,192,187890,1,4,0:0:0:0:
256,192,188117,1,0,0:0:0:0:
256,192,188344,1,0,0:0:0:0:
256,192,188571,1,8,0:0:0:0:
256,192,189026,1,8,0:0:0:0:
256,192,189253,1,0,0:0:0:0:
256,192,189480,1,8,0:0:0:0:
256,192,189934,1,0,0:0:0:0:
256,192,190161,1,0,0:0:0:0:
256,192,190388,1,8,0:0:0:0:
256,192,190842,1,8,0:0:0:0:
256,192,191069,1,0,0:0:0:0:
256,192,191183,1,8,0:0:0:0:
256,192,191297,1,0,0:0:0:0:
256,192,191524,1,4,0:0:0:0:
256,192,191750,1,0,0:0:0:0:
256,192,191977,1,0,0:0:0:0:
256,192,192204,1,8,0:0:0:0:
256,192,192659,1,8,0:0:0:0:
256,192,192886,1,0,0:0:0:0:
256,192,193113,1,8,0:0:0:0:
256,192,193567,1,0,0:0:0:0:
256,192,193794,1,0,0:0:0:0:
256,192,194021,1,8,0:0:0:0:
256,192,194476,1,8,0:0:0:0:
256,192,194703,1,0,0:0:0:0:
256,192,194816,1,8,0:0:0:0:
244,162,194930,1,0,0:0:0:0:
256,192,195157,1,4,0:0:0:0:
256,192,195384,1,0,0:0:0:0:
256,192,195611,1,0,0:0:0:0:
256,192,195838,1,8,0:0:0:0:
256,192,196292,1,8,0:0:0:0:
256,192,196519,1,0,0:0:0:0:
256,192,196746,1,8,0:0:0:0:
256,192,197200,1,0,0:0:0:0:
256,192,197427,1,0,0:0:0:0:
256,192,197654,1,8,0:0:0:0:
256,192,198109,1,8,0:0:0:0:
256,192,198336,1,0,0:0:0:0:
256,192,198449,1,8,0:0:0:0:
256,192,198563,1,0,0:0:0:0:
256,192,198790,5,4,0:0:0:0:
256,192,199130,1,0,0:0:0:0:
256,192,199243,1,8,0:0:0:0:
256,192,199471,1,8,0:0:0:0:
256,192,199698,1,0,0:0:0:0:
256,192,199812,1,0,0:0:0:0:
256,192,199925,1,0,0:0:0:0:
256,192,200152,1,8,0:0:0:0:
256,192,200379,1,8,0:0:0:0:
256,192,200606,1,0,0:0:0:0:
256,192,200947,1,0,0:0:0:0:
256,192,201060,1,8,0:0:0:0:
256,192,201288,1,8,0:0:0:0:
256,192,201515,1,0,0:0:0:0:
256,192,201628,1,8,0:0:0:0:
256,192,201742,1,0,0:0:0:0:
256,192,201969,1,8,0:0:0:0:
256,192,202082,1,0,0:0:0:0:
256,192,202196,1,8,0:0:0:0:
256,192,202423,1,4,0:0:0:0:
256,192,202763,1,0,0:0:0:0:
256,192,202876,1,8,0:0:0:0:
256,192,203104,1,8,0:0:0:0:
256,192,203331,1,0,0:0:0:0:
256,192,203445,1,0,0:0:0:0:
256,192,203558,1,0,0:0:0:0:
256,192,203785,1,8,0:0:0:0:
256,192,204012,1,8,0:0:0:0:
256,192,204239,1,0,0:0:0:0:
256,192,204580,1,0,0:0:0:0:
256,192,204693,1,8,0:0:0:0:
256,192,204921,1,8,0:0:0:0:
256,192,205148,1,0,0:0:0:0:
256,192,205261,1,8,0:0:0:0:
256,192,205375,1,0,0:0:0:0:
256,192,205602,1,8,0:0:0:0:
256,192,205715,1,0,0:0:0:0:
256,192,205829,1,8,0:0:0:0:
256,192,206056,1,4,0:0:0:0:
256,192,206397,1,0,0:0:0:0:
256,192,206510,1,8,0:0:0:0:
256,192,206738,1,8,0:0:0:0:
256,192,206965,1,0,0:0:0:0:
256,192,207079,1,0,0:0:0:0:
256,192,207192,1,0,0:0:0:0:
256,192,207419,1,8,0:0:0:0:
256,192,207646,1,8,0:0:0:0:
256,192,207873,1,0,0:0:0:0:
256,192,208214,1,0,0:0:0:0:
256,192,208327,1,8,0:0:0:0:
256,192,208555,1,8,0:0:0:0:
256,192,208782,1,0,0:0:0:0:
256,192,208895,1,8,0:0:0:0:
256,192,209009,1,0,0:0:0:0:
256,192,209236,1,8,0:0:0:0:
256,192,209349,1,0,0:0:0:0:
256,192,209463,1,8,0:0:0:0:
256,192,209690,1,4,0:0:0:0:
256,192,210030,1,0,0:0:0:0:
256,192,210143,1,8,0:0:0:0:
256,192,210371,1,8,0:0:0:0:
256,192,210598,1,0,0:0:0:0:
256,192,210712,1,0,0:0:0:0:
256,192,210825,1,0,0:0:0:0:
256,192,211052,1,8,0:0:0:0:
256,192,211279,1,8,0:0:0:0:
256,192,211506,1,0,0:0:0:0:
256,192,211847,1,0,0:0:0:0:
256,192,211960,1,8,0:0:0:0:
256,192,212188,1,8,0:0:0:0:
256,192,212415,1,0,0:0:0:0:
256,192,212528,1,0,0:0:0:0:
256,192,212641,1,0,0:0:0:0:
256,192,212754,1,0,0:0:0:0:
256,192,212868,1,8,0:0:0:0:
256,192,212982,1,8,0:0:0:0:
256,192,213095,1,8,0:0:0:0:
256,192,213323,5,4,0:0:0:0:
256,192,213549,1,0,0:0:0:0:
256,192,213663,1,0,0:0:0:0:
256,192,213776,1,8,0:0:0:0:
256,192,214004,1,8,0:0:0:0:
256,192,214231,1,0,0:0:0:0:
256,192,214345,1,8,0:0:0:0:
256,192,214571,1,8,0:0:0:0:
256,192,214685,1,0,0:0:0:0:
256,192,214912,1,8,0:0:0:0:
256,192,215139,1,0,0:0:0:0:
256,192,215366,1,0,0:0:0:0:
256,192,215480,1,0,0:0:0:0:
256,192,215593,1,8,0:0:0:0:
256,192,215821,1,8,0:0:0:0:
256,192,216048,1,0,0:0:0:0:
256,192,216160,1,8,0:0:0:0:
256,192,216275,1,0,0:0:0:0:
256,192,216502,1,8,0:0:0:0:
256,192,216615,1,0,0:0:0:0:
256,192,216729,1,8,0:0:0:0:
256,192,216955,5,4,0:0:0:0:
256,192,217181,1,0,0:0:0:0:
256,192,217295,1,0,0:0:0:0:
256,192,217408,1,8,0:0:0:0:
256,192,217636,1,8,0:0:0:0:
256,192,217863,1,0,0:0:0:0:
256,192,217977,1,8,0:0:0:0:
256,192,218203,1,8,0:0:0:0:
256,192,218317,1,8,0:0:0:0:
256,192,218544,1,8,0:0:0:0:
256,192,218771,1,0,0:0:0:0:
256,192,218998,1,0,0:0:0:0:
256,192,219112,1,0,0:0:0:0:
256,192,219225,1,8,0:0:0:0:
256,192,219453,1,8,0:0:0:0:
256,192,219680,1,0,0:0:0:0:
256,192,219793,1,8,0:0:0:0:
256,192,219907,1,0,0:0:0:0:
256,192,220134,1,8,0:0:0:0:
256,192,220247,1,0,0:0:0:0:
256,192,220361,1,8,0:0:0:0:
256,192,220588,5,4,0:0:0:0:
256,192,220814,1,0,0:0:0:0:
256,192,220928,1,0,0:0:0:0:
256,192,221041,1,8,0:0:0:0:
256,192,221269,1,8,0:0:0:0:
256,192,221496,1,0,0:0:0:0:
256,192,221610,1,8,0:0:0:0:
256,192,221836,1,8,0:0:0:0:
256,192,221950,1,0,0:0:0:0:
256,192,222177,1,8,0:0:0:0:
256,192,222404,1,0,0:0:0:0:
256,192,222631,1,0,0:0:0:0:
256,192,222745,1,0,0:0:0:0:
256,192,222858,1,8,0:0:0:0:
256,192,223086,1,8,0:0:0:0:
256,192,223313,1,0,0:0:0:0:
256,192,223426,1,0,0:0:0:0:
256,192,223540,1,0,0:0:0:0:
256,192,223767,1,8,0:0:0:0:
256,192,223880,1,0,0:0:0:0:
256,192,223994,1,8,0:0:0:0:
256,192,224221,5,4,0:0:0:0:
256,192,224447,1,0,0:0:0:0:
256,192,224561,1,0,0:0:0:0:
256,192,224674,1,8,0:0:0:0:
256,192,224902,1,8,0:0:0:0:
256,192,225129,1,0,0:0:0:0:
256,192,225243,1,8,0:0:0:0:
256,192,225469,1,8,0:0:0:0:
256,192,225583,1,8,0:0:0:0:
256,192,225810,1,8,0:0:0:0:
256,192,226037,1,0,0:0:0:0:
256,192,226264,1,0,0:0:0:0:
256,192,226378,1,0,0:0:0:0:
256,192,226491,1,8,0:0:0:0:
256,192,226719,1,8,0:0:0:0:
256,192,226946,1,0,0:0:0:0:
256,192,227059,1,8,0:0:0:0:
256,192,227173,1,0,0:0:0:0:
256,192,227400,1,8,0:0:0:0:
256,192,227513,1,0,0:0:0:0:
256,192,227627,1,8,0:0:0:0:
256,192,227854,1,8,0:0:0:0:
256,192,228081,1,8,0:0:0:0:
256,192,228308,1,0,0:0:0:0:
256,192,228535,1,0,0:0:0:0:
256,192,228763,1,8,0:0:0:0:
256,192,228990,1,0,0:0:0:0:
256,192,229217,1,8,0:0:0:0:
