osu file format v14

[General]
AudioFilename: Gunther - I'm Not Justin Bieber Bitch.mp3
AudioLeadIn: 0
PreviewTime: 76969
Countdown: 0
SampleSet: None
StackLeniency: 0.6
Mode: 1
LetterboxInBreaks: 0
WidescreenStoryboard: 0

[Editor]
Bookmarks: 2491,17023,31555,47904,62436,69703,80602,95134,111483,118749,126015,144180,176878,183349,198676,213208
DistanceSpacing: 0.9
BeatDivisor: 4
GridSize: 32
TimelineZoom: 1.7

[Metadata]
Title:I'm Not Justin Bieber B**ch
TitleUnicode:I'm Not Justin Bieber B**ch
Artist:Gunther
ArtistUnicode:Günther
Creator:Stefan
Version:Dunskin's Muzukashii
Source:
Tags:europop eurodance mats söderlund warner bros mustache moustache sexy man söderlund soderlund bitch thenutritiousguy tng darkdunskin
BeatmapID:1892133
BeatmapSetID:906718

[Difficulty]
HPDrainRate:5
CircleSize:5
OverallDifficulty:5
ApproachRate:6.9
SliderMultiplier:1.4
SliderTickRate:1

[Events]
//Background and Video events
0,0,"BG.jpg",0,2
//Break Periods
//Storyboard Layer 0 (Background)
//Storyboard Layer 1 (Fail)
//Storyboard Layer 2 (Pass)
//Storyboard Layer 3 (Foreground)
//Storyboard Sound Samples

[TimingPoints]
2605,454.132606721163,4,1,0,80,1,0
80715,-100,4,1,0,80,0,1
93431,-100,4,1,0,80,0,0
95248,-100,4,1,0,80,0,1
107963,-100,4,1,0,80,0,0
144294,-100,4,1,0,80,0,1
157010,-100,4,1,0,80,0,0
158826,-100,4,1,0,80,0,1
171542,-100,4,1,0,80,0,0

[Colours]
Combo1 : 202,154,138
Combo2 : 186,202,138
Combo3 : 138,202,186

[HitObjects]
256,192,1469,12,0,2377,0:0:0:0:
256,192,2603,5,4,0:0:0:0:
256,192,3059,1,0,0:0:0:0:
256,192,3286,1,8,0:0:0:0:
256,192,3740,1,0,0:0:0:0:
256,192,4194,1,8,0:0:0:0:
256,192,4648,1,0,0:0:0:0:
256,192,5102,1,8,0:0:0:0:
256,192,5556,1,0,0:0:0:0:
256,192,6010,1,8,0:0:0:0:
256,192,6238,5,0,0:0:0:0:
256,192,6692,1,0,0:0:0:0:
256,192,6921,1,8,0:0:0:0:
256,192,7375,1,0,0:0:0:0:
256,192,7829,1,8,0:0:0:0:
256,192,8283,1,0,0:0:0:0:
256,192,8737,1,8,0:0:0:0:
256,192,9191,1,0,0:0:0:0:
256,192,9645,1,8,0:0:0:0:
256,192,9871,5,4,0:0:0:0:
256,192,10327,1,0,0:0:0:0:
256,192,10554,1,8,0:0:0:0:
256,192,11008,1,0,0:0:0:0:
256,192,11462,1,8,0:0:0:0:
256,192,11916,1,0,0:0:0:0:
256,192,12370,1,8,0:0:0:0:
256,192,12824,1,0,0:0:0:0:
256,192,13278,1,8,0:0:0:0:
256,192,13506,1,0,0:0:0:0:
256,192,13960,1,0,0:0:0:0:
256,192,14187,1,8,0:0:0:0:
256,192,14639,1,0,0:0:0:0:
256,192,15093,1,8,0:0:0:0:
256,192,15547,1,0,0:0:0:0:
256,192,16001,1,8,0:0:0:0:
256,192,16456,1,0,0:0:0:0:
256,192,16683,1,8,0:0:0:0:
256,192,16910,1,0,0:0:0:0:
256,192,17137,5,4,0:0:0:0:
256,192,17591,1,8,0:0:0:0:
256,192,17818,1,8,0:0:0:0:
256,192,18272,1,0,0:0:0:0:
256,192,18726,1,8,0:0:0:0:
256,192,19180,1,0,0:0:0:0:
256,192,19634,1,8,0:0:0:0:
256,192,20089,1,0,0:0:0:0:
256,192,20316,1,8,0:0:0:0:
256,192,20543,1,0,0:0:0:0:
256,192,20770,1,8,0:0:0:0:
256,192,21224,1,8,0:0:0:0:
256,192,21451,1,8,0:0:0:0:
256,192,21905,1,0,0:0:0:0:
256,192,22359,1,8,0:0:0:0:
256,192,22813,1,0,0:0:0:0:
256,192,23268,1,8,0:0:0:0:
256,192,23722,1,0,0:0:0:0:
256,192,23949,1,8,0:0:0:0:
256,192,24176,1,0,0:0:0:0:
256,192,24403,1,4,0:0:0:0:
256,192,24857,1,8,0:0:0:0:
256,192,25084,1,8,0:0:0:0:
256,192,25538,1,0,0:0:0:0:
256,192,25992,1,8,0:0:0:0:
256,192,26446,1,0,0:0:0:0:
256,192,26900,1,8,0:0:0:0:
256,192,27355,1,0,0:0:0:0:
256,192,27582,1,8,0:0:0:0:
256,192,27809,1,0,0:0:0:0:
256,192,28036,1,8,0:0:0:0:
256,192,28490,1,8,0:0:0:0:
256,192,28717,1,8,0:0:0:0:
256,192,29171,1,0,0:0:0:0:
256,192,29625,1,8,0:0:0:0:
256,192,30079,1,0,0:0:0:0:
256,192,30534,1,8,0:0:0:0:
256,192,30988,1,0,0:0:0:0:
256,192,31215,1,8,0:0:0:0:
256,192,31442,1,0,0:0:0:0:
256,192,31669,5,4,0:0:0:0:
256,192,32123,1,8,0:0:0:0:
256,192,32350,1,8,0:0:0:0:
256,192,32804,1,8,0:0:0:0:
256,192,33031,1,0,0:0:0:0:
256,192,33258,1,8,0:0:0:0:
256,192,33712,1,8,0:0:0:0:
256,192,33939,1,0,0:0:0:0:
256,192,34166,1,8,0:0:0:0:
256,192,34621,1,8,0:0:0:0:
256,192,34848,1,0,0:0:0:0:
256,192,35075,1,0,0:0:0:0:
256,192,35302,1,8,0:0:0:0:
256,192,35756,1,8,0:0:0:0:
256,192,35983,1,8,0:0:0:0:
256,192,36437,1,8,0:0:0:0:
256,192,36664,1,0,0:0:0:0:
256,192,36891,1,8,0:0:0:0:
128,160,37345,1,8,0:0:0:0:
256,192,37572,1,0,0:0:0:0:
256,192,37800,1,8,0:0:0:0:
256,192,38254,1,8,0:0:0:0:
256,192,38481,1,0,0:0:0:0:
256,192,38708,1,0,0:0:0:0:
256,192,38935,5,4,0:0:0:0:
256,192,39389,1,8,0:0:0:0:
256,192,39616,1,8,0:0:0:0:
256,192,40070,1,8,0:0:0:0:
256,192,40297,1,0,0:0:0:0:
256,192,40524,1,8,0:0:0:0:
256,192,40978,1,8,0:0:0:0:
256,192,41205,1,0,0:0:0:0:
256,192,41432,1,8,0:0:0:0:
256,192,41887,1,8,0:0:0:0:
256,192,42114,1,0,0:0:0:0:
256,192,42341,1,0,0:0:0:0:
256,192,42568,1,8,0:0:0:0:
256,192,43022,1,8,0:0:0:0:
256,192,43249,1,8,0:0:0:0:
256,192,43703,1,8,0:0:0:0:
256,192,43930,1,0,0:0:0:0:
256,192,44157,1,8,0:0:0:0:
128,160,44611,1,8,0:0:0:0:
256,192,44838,1,0,0:0:0:0:
256,192,45066,1,8,0:0:0:0:
256,192,45520,1,8,0:0:0:0:
256,192,45747,1,0,0:0:0:0:
256,192,45974,1,8,0:0:0:0:
256,192,46201,12,0,47791,0:0:0:0:
256,192,48018,5,4,0:0:0:0:
256,192,48245,1,8,0:0:0:0:
256,192,48472,1,8,0:0:0:0:
256,192,48699,1,8,0:0:0:0:
256,192,49153,1,8,0:0:0:0:
256,192,49380,1,0,0:0:0:0:
256,192,49607,1,8,0:0:0:0:
256,192,49834,1,4,0:0:0:0:
256,192,50061,1,8,0:0:0:0:
256,192,50288,1,8,0:0:0:0:
256,192,50515,1,8,0:0:0:0:
256,192,50970,1,8,0:0:0:0:
256,192,51197,1,0,0:0:0:0:
256,192,51424,1,8,0:0:0:0:
256,192,51651,5,4,0:0:0:0:
256,192,51878,1,8,0:0:0:0:
256,192,52105,1,8,0:0:0:0:
256,192,52332,1,8,0:0:0:0:
256,192,52559,1,0,0:0:0:0:
256,192,52786,1,8,0:0:0:0:
256,192,53013,1,8,0:0:0:0:
256,192,53240,1,8,0:0:0:0:
256,192,53467,1,4,0:0:0:0:
256,192,53694,1,8,0:0:0:0:
256,192,53921,1,8,0:0:0:0:
256,192,54148,1,8,0:0:0:0:
256,192,54603,1,8,0:0:0:0:
256,192,54830,1,0,0:0:0:0:
256,192,55057,1,8,0:0:0:0:
256,192,55284,1,4,0:0:0:0:
256,192,55511,1,12,0:0:0:0:
256,192,55738,1,8,0:0:0:0:
256,192,55965,1,8,0:0:0:0:
256,192,56419,1,8,0:0:0:0:
256,192,56646,1,0,0:0:0:0:
256,192,56873,1,8,0:0:0:0:
256,192,57100,1,4,0:0:0:0:
256,192,57327,1,12,0:0:0:0:
256,192,57555,1,8,0:0:0:0:
256,192,57782,1,8,0:0:0:0:
256,192,58236,1,8,0:0:0:0:
256,192,58463,1,0,0:0:0:0:
256,192,58690,1,8,0:0:0:0:
256,192,58917,1,4,0:0:0:0:
256,192,59144,1,12,0:0:0:0:
256,192,59371,1,8,0:0:0:0:
256,192,59598,1,8,0:0:0:0:
256,192,59825,1,0,0:0:0:0:
256,192,60052,1,8,0:0:0:0:
256,192,60279,1,8,0:0:0:0:
256,192,60506,1,8,0:0:0:0:
256,192,60733,1,4,0:0:0:0:
256,192,60961,1,8,0:0:0:0:
256,192,61188,1,0,0:0:0:0:
256,192,61415,1,8,0:0:0:0:
256,192,61642,1,0,0:0:0:0:
256,192,61869,1,8,0:0:0:0:
256,192,62096,1,0,0:0:0:0:
256,192,62323,1,8,0:0:0:0:
256,192,62550,5,4,0:0:0:0:
256,192,63004,1,8,0:0:0:0:
256,192,63458,1,0,0:0:0:0:
256,192,63685,1,8,0:0:0:0:
256,192,63799,1,8,0:0:0:0:
256,192,63912,1,8,0:0:0:0:
256,192,64139,1,8,0:0:0:0:
256,192,64367,1,4,0:0:0:0:
256,192,64821,1,8,0:0:0:0:
256,192,65275,1,0,0:0:0:0:
256,192,65502,1,8,0:0:0:0:
256,192,65615,1,8,0:0:0:0:
256,192,65729,1,8,0:0:0:0:
256,192,65956,1,8,0:0:0:0:
256,192,66183,1,4,0:0:0:0:
256,192,66410,1,8,0:0:0:0:
256,192,66637,1,0,0:0:0:0:
256,192,66864,1,8,0:0:0:0:
256,192,67091,1,0,0:0:0:0:
256,192,67318,1,8,0:0:0:0:
256,192,67545,1,0,0:0:0:0:
256,192,67773,1,8,0:0:0:0:
256,192,68000,1,4,0:0:0:0:
256,192,68453,1,8,0:0:0:0:
256,192,68907,1,0,0:0:0:0:
256,192,69134,1,8,0:0:0:0:
256,192,69248,1,8,0:0:0:0:
256,192,69362,1,8,0:0:0:0:
256,192,69589,1,8,0:0:0:0:
256,192,69816,5,4,0:0:0:0:
256,192,70270,1,8,0:0:0:0:
256,192,70724,1,4,0:0:0:0:
256,192,71179,1,8,0:0:0:0:
256,192,71633,1,4,0:0:0:0:
256,192,72088,1,8,0:0:0:0:
256,192,72541,1,4,0:0:0:0:
256,192,72996,1,8,0:0:0:0:
256,192,73449,1,8,0:0:0:0:
256,192,73676,1,0,0:0:0:0:
256,192,73903,1,0,0:0:0:0:
256,192,74130,1,0,0:0:0:0:
256,192,74357,1,8,0:0:0:0:
256,192,74584,1,0,0:0:0:0:
256,192,74811,1,0,0:0:0:0:
256,192,75038,1,0,0:0:0:0:
256,192,75265,1,8,0:0:0:0:
256,192,75493,1,0,0:0:0:0:
256,192,75720,1,8,0:0:0:0:
256,192,75947,1,0,0:0:0:0:
256,192,76174,1,8,0:0:0:0:
256,192,76401,1,0,0:0:0:0:
256,192,76628,1,8,0:0:0:0:
256,192,77082,1,4,0:0:0:0:
256,192,78899,1,8,0:0:0:0:
256,192,79126,1,8,0:0:0:0:
256,192,79353,1,0,0:0:0:0:
256,192,79580,1,0,0:0:0:0:
256,192,79807,1,8,0:0:0:0:
256,192,80034,1,0,0:0:0:0:
256,192,80261,1,8,0:0:0:0:
256,192,80715,5,4,0:0:0:0:
256,192,81169,1,4,0:0:0:0:
256,192,81624,1,4,0:0:0:0:
256,192,82078,1,4,0:0:0:0:
256,192,82532,1,8,0:0:0:0:
256,192,82759,1,8,0:0:0:0:
256,192,82872,1,0,0:0:0:0:
256,192,83100,1,8,0:0:0:0:
256,192,83327,1,0,0:0:0:0:
256,192,83554,1,8,0:0:0:0:
256,192,83781,1,0,0:0:0:0:
256,192,84348,5,4,0:0:0:0:
256,192,84802,1,4,0:0:0:0:
256,192,85257,1,4,0:0:0:0:
256,192,85711,1,4,0:0:0:0:
256,192,86165,1,8,0:0:0:0:
256,192,86392,1,8,0:0:0:0:
256,192,86619,1,0,0:0:0:0:
256,192,86846,1,0,0:0:0:0:
256,192,87073,1,8,0:0:0:0:
256,192,87300,1,8,0:0:0:0:
256,192,87527,1,0,0:0:0:0:
256,192,87981,5,4,0:0:0:0:
256,192,88435,1,4,0:0:0:0:
256,192,88890,1,4,0:0:0:0:
256,192,89344,1,4,0:0:0:0:
256,192,89798,1,8,0:0:0:0:
256,192,90025,1,8,0:0:0:0:
256,192,90138,1,0,0:0:0:0:
256,192,90366,1,8,0:0:0:0:
256,192,90593,1,0,0:0:0:0:
256,192,90820,1,8,0:0:0:0:
256,192,91047,1,0,0:0:0:0:
256,192,91614,5,4,0:0:0:0:
256,192,92068,1,4,0:0:0:0:
256,192,92523,1,4,0:0:0:0:
256,192,92977,1,4,0:0:0:0:
256,192,93431,1,8,0:0:0:0:
256,192,93658,1,8,0:0:0:0:
256,192,93885,1,0,0:0:0:0:
256,192,94112,1,0,0:0:0:0:
256,192,94339,1,8,0:0:0:0:
256,192,94566,1,0,0:0:0:0:
256,192,94793,1,8,0:0:0:0:
256,192,95248,1,4,0:0:0:0:
256,192,95475,1,8,0:0:0:0:
256,192,95816,1,8,0:0:0:0:
256,192,96043,1,0,0:0:0:0:
256,192,96270,1,8,0:0:0:0:
256,192,96497,1,0,0:0:0:0:
256,192,96837,1,0,0:0:0:0:
256,192,97064,1,8,0:0:0:0:
256,192,97291,1,8,0:0:0:0:
256,192,97632,1,8,0:0:0:0:
256,192,97859,1,0,0:0:0:0:
256,192,98086,1,8,0:0:0:0:
256,192,98313,1,0,0:0:0:0:
256,192,98881,1,4,0:0:0:0:
256,192,99108,1,8,0:0:0:0:
256,192,99449,1,8,0:0:0:0:
256,192,99676,1,0,0:0:0:0:
256,192,99903,1,8,0:0:0:0:
256,192,100130,1,0,0:0:0:0:
256,192,100470,1,0,0:0:0:0:
256,192,100697,1,8,0:0:0:0:
256,192,100924,1,8,0:0:0:0:
256,192,101151,1,0,0:0:0:0:
256,192,101378,1,0,0:0:0:0:
256,192,101605,1,8,0:0:0:0:
256,192,101832,1,8,0:0:0:0:
256,192,102060,1,0,0:0:0:0:
256,192,102514,1,4,0:0:0:0:
256,192,102741,1,8,0:0:0:0:
256,192,103082,1,8,0:0:0:0:
256,192,103309,1,0,0:0:0:0:
256,192,103536,1,8,0:0:0:0:
256,192,103763,1,0,0:0:0:0:
256,192,104103,1,0,0:0:0:0:
256,192,104330,1,8,0:0:0:0:
256,192,104557,1,8,0:0:0:0:
256,192,104898,1,8,0:0:0:0:
256,192,105125,1,0,0:0:0:0:
256,192,105352,1,8,0:0:0:0:
256,192,105579,1,0,0:0:0:0:
256,192,106147,1,4,0:0:0:0:
256,192,106374,1,8,0:0:0:0:
256,192,106487,1,0,0:0:0:0:
256,192,106828,1,8,0:0:0:0:
256,192,106941,1,0,0:0:0:0:
256,192,107282,1,8,0:0:0:0:
256,192,107396,1,0,0:0:0:0:
256,192,107736,1,8,0:0:0:0:
256,192,107963,1,8,0:0:0:0:
256,192,108190,1,8,0:0:0:0:
256,192,108417,1,0,0:0:0:0:
256,192,108644,1,0,0:0:0:0:
256,192,108872,1,8,0:0:0:0:
256,192,109099,1,0,0:0:0:0:
256,192,109326,1,8,0:0:0:0:
256,192,109780,12,0,111369,0:0:0:0:
256,192,111596,5,4,0:0:0:0:
256,192,111823,1,8,0:0:0:0:
256,192,112050,1,8,0:0:0:0:
256,192,112277,1,8,0:0:0:0:
256,192,112731,1,8,0:0:0:0:
256,192,112958,1,0,0:0:0:0:
256,192,113186,1,8,0:0:0:0:
256,192,113412,1,4,0:0:0:0:
256,192,113639,1,8,0:0:0:0:
256,192,113866,1,8,0:0:0:0:
256,192,114093,1,8,0:0:0:0:
256,192,114548,1,8,0:0:0:0:
256,192,114775,1,0,0:0:0:0:
256,192,115002,1,8,0:0:0:0:
256,192,115229,5,4,0:0:0:0:
256,192,115456,1,8,0:0:0:0:
256,192,115684,1,8,0:0:0:0:
256,192,115910,1,8,0:0:0:0:
256,192,116138,1,0,0:0:0:0:
256,192,116364,1,8,0:0:0:0:
256,192,116591,1,8,0:0:0:0:
256,192,116818,1,8,0:0:0:0:
256,192,117045,1,4,0:0:0:0:
256,192,117273,1,8,0:0:0:0:
256,192,117500,1,8,0:0:0:0:
256,192,117727,1,8,0:0:0:0:
256,192,118181,1,0,0:0:0:0:
256,192,118408,1,8,0:0:0:0:
256,192,118635,1,0,0:0:0:0:
256,192,118862,1,4,0:0:0:0:
256,192,119089,1,12,0:0:0:0:
256,192,119316,1,8,0:0:0:0:
256,192,119543,1,8,0:0:0:0:
256,192,119997,1,8,0:0:0:0:
256,192,120224,1,0,0:0:0:0:
256,192,120451,1,8,0:0:0:0:
256,192,120678,1,4,0:0:0:0:
256,192,120905,1,12,0:0:0:0:
256,192,121133,1,8,0:0:0:0:
256,192,121360,1,8,0:0:0:0:
256,192,121814,1,8,0:0:0:0:
256,192,122041,1,0,0:0:0:0:
256,192,122268,1,8,0:0:0:0:
256,192,122495,1,4,0:0:0:0:
256,192,122723,1,12,0:0:0:0:
256,192,122949,1,8,0:0:0:0:
256,192,123176,1,8,0:0:0:0:
256,192,123403,1,0,0:0:0:0:
256,192,123630,1,8,0:0:0:0:
256,192,123857,1,8,0:0:0:0:
256,192,124084,1,8,0:0:0:0:
256,192,124311,1,4,0:0:0:0:
256,192,124539,1,8,0:0:0:0:
256,192,124766,1,0,0:0:0:0:
256,192,124993,1,8,0:0:0:0:
256,192,125220,1,0,0:0:0:0:
256,192,125447,1,8,0:0:0:0:
256,192,125674,1,0,0:0:0:0:
256,192,125901,1,8,0:0:0:0:
256,192,126129,5,4,0:0:0:0:
256,192,126583,1,12,0:0:0:0:
256,192,127037,1,4,0:0:0:0:
256,192,127491,1,12,0:0:0:0:
256,192,127945,1,4,0:0:0:0:
256,192,128399,1,12,0:0:0:0:
256,192,128853,1,4,0:0:0:0:
256,192,129307,1,12,0:0:0:0:
256,192,129761,1,4,0:0:0:0:
256,192,130216,1,12,0:0:0:0:
256,192,130670,1,4,0:0:0:0:
256,192,131124,1,12,0:0:0:0:
256,192,131578,1,4,0:0:0:0:
256,192,132032,1,12,0:0:0:0:
256,192,132486,1,4,0:0:0:0:
256,192,132941,1,12,0:0:0:0:
256,192,133395,1,4,0:0:0:0:
256,192,133849,1,8,0:0:0:0:
256,192,134303,1,0,0:0:0:0:
256,192,134530,1,8,0:0:0:0:
256,192,134644,1,8,0:0:0:0:
256,192,134757,1,8,0:0:0:0:
256,192,134984,1,8,0:0:0:0:
256,192,135211,1,4,0:0:0:0:
256,192,135665,1,8,0:0:0:0:
256,192,136119,1,0,0:0:0:0:
256,192,136347,1,8,0:0:0:0:
256,192,136460,1,8,0:0:0:0:
256,192,136573,1,8,0:0:0:0:
256,192,136801,1,0,0:0:0:0:
256,192,137027,1,8,0:0:0:0:
256,192,137255,1,0,0:0:0:0:
256,192,137482,1,0,0:0:0:0:
256,192,137709,1,0,0:0:0:0:
256,192,137936,1,8,0:0:0:0:
256,192,138163,1,0,0:0:0:0:
256,192,138390,1,0,0:0:0:0:
256,192,138617,1,0,0:0:0:0:
256,192,138844,1,8,0:0:0:0:
256,192,139071,1,0,0:0:0:0:
256,192,139298,1,8,0:0:0:0:
256,192,139525,1,0,0:0:0:0:
256,192,139753,1,8,0:0:0:0:
256,192,139980,1,0,0:0:0:0:
256,192,140207,1,8,0:0:0:0:
256,192,140661,1,4,0:0:0:0:
256,192,142477,1,8,0:0:0:0:
256,192,142704,1,8,0:0:0:0:
256,192,142931,1,0,0:0:0:0:
256,192,143159,1,0,0:0:0:0:
256,192,143386,1,8,0:0:0:0:
256,192,143613,1,0,0:0:0:0:
256,192,143840,1,8,0:0:0:0:
256,192,144294,5,4,0:0:0:0:
256,192,144748,1,4,0:0:0:0:
256,192,145203,1,4,0:0:0:0:
256,192,145657,1,4,0:0:0:0:
256,192,146111,1,8,0:0:0:0:
256,192,146338,1,8,0:0:0:0:
256,192,146679,1,8,0:0:0:0:
256,192,146906,1,0,0:0:0:0:
256,192,147133,1,8,0:0:0:0:
256,192,147360,1,0,0:0:0:0:
256,192,147927,5,4,0:0:0:0:
256,192,148381,1,4,0:0:0:0:
256,192,148836,1,4,0:0:0:0:
256,192,149290,1,4,0:0:0:0:
256,192,149744,1,8,0:0:0:0:
256,192,149971,1,8,0:0:0:0:
256,192,150198,1,0,0:0:0:0:
256,192,150425,1,0,0:0:0:0:
256,192,150652,1,8,0:0:0:0:
256,192,150879,1,8,0:0:0:0:
256,192,151106,1,0,0:0:0:0:
256,192,151560,5,4,0:0:0:0:
256,192,152014,1,4,0:0:0:0:
256,192,152469,1,4,0:0:0:0:
256,192,152923,1,4,0:0:0:0:
256,192,153377,1,8,0:0:0:0:
256,192,153604,1,8,0:0:0:0:
256,192,153945,1,8,0:0:0:0:
256,192,154172,1,0,0:0:0:0:
256,192,154399,1,8,0:0:0:0:
256,192,154626,1,0,0:0:0:0:
256,192,155193,5,4,0:0:0:0:
256,192,155647,1,4,0:0:0:0:
256,192,156102,1,4,0:0:0:0:
256,192,156556,1,4,0:0:0:0:
256,192,157010,1,8,0:0:0:0:
256,192,157237,1,8,0:0:0:0:
256,192,157464,1,0,0:0:0:0:
256,192,157691,1,0,0:0:0:0:
256,192,157918,1,8,0:0:0:0:
256,192,158145,1,0,0:0:0:0:
256,192,158372,1,8,0:0:0:0:
256,192,158827,1,4,0:0:0:0:
256,192,159054,1,8,0:0:0:0:
256,192,159395,1,8,0:0:0:0:
256,192,159622,1,0,0:0:0:0:
256,192,159849,1,8,0:0:0:0:
256,192,160076,1,0,0:0:0:0:
256,192,160416,1,0,0:0:0:0:
256,192,160643,1,8,0:0:0:0:
256,192,160870,1,8,0:0:0:0:
256,192,161211,1,8,0:0:0:0:
256,192,161438,1,0,0:0:0:0:
256,192,161665,1,8,0:0:0:0:
256,192,161892,1,0,0:0:0:0:
256,192,162460,1,4,0:0:0:0:
256,192,162687,1,8,0:0:0:0:
256,192,163028,1,8,0:0:0:0:
256,192,163255,1,0,0:0:0:0:
256,192,163482,1,8,0:0:0:0:
256,192,163709,1,0,0:0:0:0:
256,192,164276,1,8,0:0:0:0:
256,192,164503,1,8,0:0:0:0:
256,192,164730,1,0,0:0:0:0:
256,192,164957,1,0,0:0:0:0:
256,192,165184,1,8,0:0:0:0:
256,192,165411,1,8,0:0:0:0:
256,192,165639,1,0,0:0:0:0:
256,192,166093,1,4,0:0:0:0:
256,192,166320,1,8,0:0:0:0:
256,192,166661,1,8,0:0:0:0:
256,192,166888,1,0,0:0:0:0:
256,192,167115,1,8,0:0:0:0:
256,192,167342,1,0,0:0:0:0:
256,192,167682,1,0,0:0:0:0:
256,192,167909,1,8,0:0:0:0:
256,192,168136,1,8,0:0:0:0:
256,192,168477,1,8,0:0:0:0:
256,192,168704,1,0,0:0:0:0:
256,192,168931,1,8,0:0:0:0:
256,192,169158,1,0,0:0:0:0:
256,192,169726,1,4,0:0:0:0:
256,192,169953,1,8,0:0:0:0:
256,192,170066,1,0,0:0:0:0:
256,192,170407,1,8,0:0:0:0:
256,192,170520,1,0,0:0:0:0:
256,192,170861,1,8,0:0:0:0:
256,192,170975,1,0,0:0:0:0:
256,192,171315,1,8,0:0:0:0:
256,192,171542,1,8,0:0:0:0:
256,192,171769,1,8,0:0:0:0:
256,192,171996,1,0,0:0:0:0:
256,192,172223,1,0,0:0:0:0:
256,192,172451,1,8,0:0:0:0:
256,192,172678,1,0,0:0:0:0:
256,192,172905,1,8,0:0:0:0:
256,192,173358,1,4,0:0:0:0:
256,192,176991,5,4,0:0:0:0:
256,192,177218,1,0,0:0:0:0:
256,192,177446,1,0,0:0:0:0:
256,192,177673,1,8,0:0:0:0:
256,192,178127,1,8,0:0:0:0:
256,192,178354,1,0,0:0:0:0:
256,192,178581,1,8,0:0:0:0:
256,192,179035,1,0,0:0:0:0:
256,192,179262,1,0,0:0:0:0:
256,192,179489,1,8,0:0:0:0:
256,192,179943,1,8,0:0:0:0:
256,192,180170,1,0,0:0:0:0:
256,192,180397,1,8,0:0:0:0:
256,192,180851,1,0,0:0:0:0:
256,192,181078,1,0,0:0:0:0:
256,192,181305,1,8,0:0:0:0:
256,192,181760,1,8,0:0:0:0:
256,192,181987,1,0,0:0:0:0:
256,192,182214,1,8,0:0:0:0:
256,192,182668,1,0,0:0:0:0:
256,192,182895,1,0,0:0:0:0:
256,192,183122,1,8,0:0:0:0:
256,192,183576,1,8,0:0:0:0:
256,192,183803,1,0,0:0:0:0:
256,192,184030,1,8,0:0:0:0:
256,192,184257,1,4,0:0:0:0:
256,192,184711,1,0,0:0:0:0:
256,192,184938,1,8,0:0:0:0:
256,192,185393,1,8,0:0:0:0:
256,192,185620,1,0,0:0:0:0:
256,192,185847,1,8,0:0:0:0:
256,192,186301,1,0,0:0:0:0:
256,192,186528,1,0,0:0:0:0:
256,192,186755,1,8,0:0:0:0:
256,192,187209,1,8,0:0:0:0:
256,192,187436,1,0,0:0:0:0:
256,192,187664,1,0,0:0:0:0:
256,192,187890,1,4,0:0:0:0:
256,192,188344,1,0,0:0:0:0:
256,192,188571,1,8,0:0:0:0:
256,192,189026,1,8,0:0:0:0:
256,192,189253,1,0,0:0:0:0:
256,192,189480,1,8,0:0:0:0:
256,192,189934,1,0,0:0:0:0:
256,192,190161,1,0,0:0:0:0:
256,192,190388,1,8,0:0:0:0:
256,192,190842,1,8,0:0:0:0:
256,192,191070,1,0,0:0:0:0:
256,192,191297,1,8,0:0:0:0:
256,192,191524,1,4,0:0:0:0:
256,192,191977,1,0,0:0:0:0:
256,192,192204,1,8,0:0:0:0:
256,192,192659,1,8,0:0:0:0:
256,192,192886,1,0,0:0:0:0:
256,192,193113,1,8,0:0:0:0:
256,192,193567,1,0,0:0:0:0:
256,192,193794,1,0,0:0:0:0:
256,192,194021,1,8,0:0:0:0:
256,192,194476,1,8,0:0:0:0:
256,192,194703,1,0,0:0:0:0:
244,162,194930,1,0,0:0:0:0:
256,192,195157,1,4,0:0:0:0:
256,192,195611,1,0,0:0:0:0:
256,192,195838,1,8,0:0:0:0:
256,192,196292,1,8,0:0:0:0:
256,192,196519,1,0,0:0:0:0:
256,192,196746,1,8,0:0:0:0:
256,192,197200,1,0,0:0:0:0:
256,192,197427,1,0,0:0:0:0:
256,192,197654,1,8,0:0:0:0:
256,192,198109,1,8,0:0:0:0:
256,192,198336,1,0,0:0:0:0:
256,192,198563,1,8,0:0:0:0:
256,192,198790,5,4,0:0:0:0:
256,192,199130,1,0,0:0:0:0:
256,192,199471,1,8,0:0:0:0:
256,192,199812,1,0,0:0:0:0:
256,192,200152,1,8,0:0:0:0:
256,192,200379,1,8,0:0:0:0:
256,192,200606,1,0,0:0:0:0:
256,192,200947,1,0,0:0:0:0:
256,192,201288,1,8,0:0:0:0:
256,192,201628,1,0,0:0:0:0:
256,192,201969,1,8,0:0:0:0:
256,192,202196,1,0,0:0:0:0:
256,192,202423,1,4,0:0:0:0:
256,192,202763,1,0,0:0:0:0:
256,192,203104,1,8,0:0:0:0:
256,192,203445,1,0,0:0:0:0:
256,192,203785,1,8,0:0:0:0:
256,192,204012,1,8,0:0:0:0:
256,192,204239,1,0,0:0:0:0:
256,192,204580,1,0,0:0:0:0:
256,192,204921,1,8,0:0:0:0:
256,192,205261,1,0,0:0:0:0:
256,192,205602,1,8,0:0:0:0:
256,192,205829,1,8,0:0:0:0:
256,192,206056,1,4,0:0:0:0:
256,192,206397,1,0,0:0:0:0:
256,192,206738,1,8,0:0:0:0:
256,192,207079,1,0,0:0:0:0:
256,192,207419,1,8,0:0:0:0:
256,192,207646,1,8,0:0:0:0:
256,192,207873,1,0,0:0:0:0:
256,192,208214,1,0,0:0:0:0:
256,192,208555,1,8,0:0:0:0:
256,192,208894,1,0,0:0:0:0:
256,192,209236,1,8,0:0:0:0:
256,192,209463,1,0,0:0:0:0:
256,192,209690,1,4,0:0:0:0:
256,192,210030,1,0,0:0:0:0:
256,192,210371,1,8,0:0:0:0:
256,192,210712,1,0,0:0:0:0:
256,192,211052,1,8,0:0:0:0:
256,192,211279,1,8,0:0:0:0:
256,192,211506,1,0,0:0:0:0:
256,192,211847,1,0,0:0:0:0:
256,192,212188,1,8,0:0:0:0:
256,192,212528,1,0,0:0:0:0:
256,192,212868,1,8,0:0:0:0:
256,192,213095,1,8,0:0:0:0:
256,192,213323,5,4,0:0:0:0:
256,192,213549,1,0,0:0:0:0:
256,192,213776,1,8,0:0:0:0:
256,192,214004,1,8,0:0:0:0:
256,192,214231,1,0,0:0:0:0:
256,192,214571,1,8,0:0:0:0:
256,192,214685,1,0,0:0:0:0:
256,192,214912,1,8,0:0:0:0:
256,192,215139,1,0,0:0:0:0:
256,192,215366,1,0,0:0:0:0:
256,192,215593,1,8,0:0:0:0:
256,192,215821,1,8,0:0:0:0:
256,192,216048,1,0,0:0:0:0:
256,192,216387,1,8,0:0:0:0:
256,192,216500,1,0,0:0:0:0:
256,192,216728,1,8,0:0:0:0:
256,192,216955,5,4,0:0:0:0:
256,192,217181,1,0,0:0:0:0:
256,192,217408,1,8,0:0:0:0:
256,192,217636,1,0,0:0:0:0:
256,192,217863,1,8,0:0:0:0:
256,192,218203,1,0,0:0:0:0:
256,192,218317,1,8,0:0:0:0:
256,192,218545,1,0,0:0:0:0:
256,192,218771,1,0,0:0:0:0:
256,192,218998,1,0,0:0:0:0:
256,192,219226,1,8,0:0:0:0:
256,192,219453,1,0,0:0:0:0:
256,192,219680,1,8,0:0:0:0:
256,192,220020,1,0,0:0:0:0:
256,192,220134,1,8,0:0:0:0:
288,192,220361,1,0,0:0:0:0:
256,192,220588,5,4,0:0:0:0:
256,192,220814,1,0,0:0:0:0:
256,192,221041,1,8,0:0:0:0:
256,192,221269,1,8,0:0:0:0:
256,192,221496,1,0,0:0:0:0:
256,192,221836,1,8,0:0:0:0:
256,192,221950,1,0,0:0:0:0:
256,192,222177,1,8,0:0:0:0:
256,192,222404,1,0,0:0:0:0:
256,192,222631,1,0,0:0:0:0:
256,192,222858,1,8,0:0:0:0:
256,192,223086,1,8,0:0:0:0:
256,192,223313,1,0,0:0:0:0:
256,192,223654,1,8,0:0:0:0:
256,192,223767,1,0,0:0:0:0:
256,192,223994,1,8,0:0:0:0:
256,192,224221,5,4,0:0:0:0:
256,192,224447,1,0,0:0:0:0:
256,192,224674,1,8,0:0:0:0:
256,192,224902,1,0,0:0:0:0:
256,192,225129,1,8,0:0:0:0:
256,192,225469,1,0,0:0:0:0:
256,192,225583,1,8,0:0:0:0:
256,192,225810,1,0,0:0:0:0:
256,192,226037,1,0,0:0:0:0:
256,192,226264,1,0,0:0:0:0:
256,192,226491,1,8,0:0:0:0:
256,192,226719,1,0,0:0:0:0:
256,192,226946,1,8,0:0:0:0:
256,192,227287,1,0,0:0:0:0:
256,192,227400,1,8,0:0:0:0:
256,192,227627,1,0,0:0:0:0:
256,192,227854,1,8,0:0:0:0:
256,192,228081,1,8,0:0:0:0:
256,192,228308,1,0,0:0:0:0:
256,192,228535,1,0,0:0:0:0:
256,192,228763,1,8,0:0:0:0:
256,192,228990,1,0,0:0:0:0:
256,192,229217,1,8,0:0:0:0:
