osu file format v14

[General]
AudioFilename: audio.mp3
AudioLeadIn: 0
PreviewTime: 23015
Countdown: 0
SampleSet: Normal
StackLeniency: 0.4
Mode: 0
LetterboxInBreaks: 0
WidescreenStoryboard: 0

[Editor]
Bookmarks: 8015,15287,22560,26196,33469,40742,57105,71651,86196,89833,97105,104378,111651,118924
DistanceSpacing: 2
BeatDivisor: 4
GridSize: 4
TimelineZoom: 1

[Metadata]
Title:Ding Dong Song (You Touch My Tra La La)
TitleUnicode:Ding Dong Song (You Touch My Tra La La)
Artist:Gunther
ArtistUnicode:Gunther
Creator:Diasios
Version:Insane
Source:
Tags:mustache sexy man the sunshine girls cut short version tralala
BeatmapID:1083112
BeatmapSetID:509298

[Difficulty]
HPDrainRate:7
CircleSize:5
OverallDifficulty:8
ApproachRate:9
SliderMultiplier:1.6
SliderTickRate:1

[Events]
//Background and Video events
0,0,"BG.jpg",0,0
//Break Periods
//Storyboard Layer 0 (Background)
//Storyboard Layer 1 (Fail)
//Storyboard Layer 2 (Pass)
//Storyboard Layer 3 (Foreground)
//Storyboard Sound Samples

[TimingPoints]
8015,454.545454545455,4,1,0,100,1,0
25515,-66.6666666666667,4,1,0,100,0,0
26196,-66.6666666666667,4,1,0,100,0,1
40742,-133.333333333333,4,1,0,100,0,0
69833,-100,4,1,0,100,0,0
89151,-66.6666666666667,4,1,0,100,0,0
89833,-66.6666666666667,4,1,0,100,0,1
104151,-66.6666666666667,4,1,0,100,0,0
104378,-50,4,1,0,100,0,1
118924,-100,4,1,0,100,0,0

[Colours]
Combo1 : 255,128,192
Combo2 : 117,223,207
Combo3 : 223,218,117

[HitObjects]
71,148,8015,6,0,P|105:161|121:197,1,80
97,272,8355,2,0,P|59:258|44:222,1,80
71,148,8696,1,0,0:0:0:0:
224,177,8924,2,0,B|269:183|269:183|299:173,1,80
334,18,9378,2,0,B|286:10|286:10|256:20,1,80
303,173,9833,5,0,0:0:0:0:
453,122,10060,1,0,0:0:0:0:
485,194,10174,2,0,P|488:231|464:261,1,80
397,303,10515,1,0,0:0:0:0:
239,321,10742,1,0,0:0:0:0:
302,173,10969,1,0,0:0:0:0:
239,321,11196,1,0,0:0:0:0:
397,303,11423,1,0,0:0:0:0:
239,321,11651,22,0,P|201:309|183:274,1,80
186,194,11992,2,0,P|167:158|129:146,1,80
52,150,12333,1,0,0:0:0:0:
168,41,12560,2,0,L|88:43,1,80
248,37,13015,2,0,L|327:34,1,80
468,110,13469,5,0,0:0:0:0:
309,127,13696,1,0,0:0:0:0:
344,199,13810,2,0,B|362:226|362:226|403:248,1,80
475,284,14151,1,0,0:0:0:0:
337,366,14379,1,0,0:0:0:0:
304,294,14492,2,0,B|285:266|285:266|244:244,1,80
172,209,14833,1,0,0:0:0:0:
165,369,15060,1,0,0:0:0:0:
29,282,15287,22,0,P|46:206|111:163,1,160
113,3,15969,1,0,0:0:0:0:
198,138,16196,2,0,P|260:91|273:14,1,160
113,3,16878,1,0,0:0:0:0:
112,163,17105,2,0,P|151:229|227:248,1,160
364,164,17787,1,0,0:0:0:0:
501,247,18015,2,0,P|508:285|487:317,1,80
335,366,18469,2,0,P|327:327|348:295,1,80
231,184,18924,6,0,P|247:260|204:325,1,160
50,366,19605,1,0,0:0:0:0:
15,209,19833,2,0,P|32:133|98:91,1,160
256,120,20514,1,0,0:0:0:0:
256,192,20742,12,0,22560,0:0:0:0:
284,248,23015,6,0,B|320:264|352:296|320:328|288:328|256:296|256:296|224:328|192:328|160:296|192:264|228:248|228:248|228:112|228:112|208:104|256:0|304:104|284:112|284:112|284:184,1,640
147,305,25515,5,0,0:0:0:0:
147,305,25742,1,0,0:0:0:0:
147,305,25969,1,0,0:0:0:0:
147,305,26196,6,0,P|256:348|365:305,1,240.000009155274
152,192,26878,1,0,0:0:0:0:
365,79,27105,2,0,P|256:36|147:79,1,240.000009155274
360,192,27787,1,0,0:0:0:0:
147,305,28015,2,0,P|256:348|365:305,1,240.000009155274
152,192,28696,21,0,0:0:0:0:
392,192,28924,1,0,0:0:0:0:
88,192,29151,1,0,0:0:0:0:
456,192,29378,1,0,0:0:0:0:
24,192,29605,1,0,0:0:0:0:
369,301,29833,6,0,P|412:192|369:83,1,240.000009155274
256,296,30515,1,0,0:0:0:0:
143,83,30742,2,0,P|100:192|143:301,1,240.000009155274
256,88,31424,1,0,0:0:0:0:
369,301,31651,2,0,P|412:192|369:83,1,240.000009155274
256,296,32333,21,0,0:0:0:0:
256,56,32561,1,0,0:0:0:0:
256,360,32788,1,0,0:0:0:0:
256,56,33015,1,0,0:0:0:0:
256,296,33242,1,0,0:0:0:0:
365,79,33469,6,0,P|256:36|147:79,1,240.000009155274
360,192,34151,1,0,0:0:0:0:
147,305,34378,2,0,P|256:348|365:305,1,240.000009155274
152,192,35060,1,0,0:0:0:0:
365,79,35288,2,0,P|256:36|147:79,1,240.000009155274
360,192,35969,21,0,0:0:0:0:
120,192,36197,1,0,0:0:0:0:
424,192,36424,1,0,0:0:0:0:
56,192,36651,1,0,0:0:0:0:
488,192,36878,1,0,0:0:0:0:
143,83,37106,6,0,P|100:192|143:301,1,240.000009155274
256,88,37788,1,0,0:0:0:0:
369,301,38015,2,0,P|412:192|369:83,1,240.000009155274
256,296,38697,1,0,0:0:0:0:
256,192,38924,12,0,40742,0:0:0:0:
478,305,42560,22,0,P|433:342|375:342,1,120.000004577637
389,224,43242,1,0,0:0:0:0:
278,268,43469,2,0,L|159:247,1,120.000004577637
72,330,44151,2,0,L|101:335,2,30.0000011444092
27,93,44833,6,0,L|145:113,1,120.000004577637
263,135,45515,1,0,0:0:0:0:
223,22,45742,1,0,0:0:0:0:
145,113,45969,1,0,0:0:0:0:
263,135,46196,22,0,P|315:109|338:55,1,120.000004577637
453,91,46878,2,0,P|445:149|478:197,1,120.000004577637
358,209,47560,1,0,0:0:0:0:
358,209,47787,1,0,0:0:0:0:
453,283,48015,2,0,P|400:308|377:362,1,120.000004577637
263,327,48697,2,0,P|270:268|237:220,1,120.000004577637
147,300,49379,1,0,0:0:0:0:
38,86,49833,6,0,B|71:121|71:121|141:131,1,120.000004577637
261,142,50515,1,0,0:0:0:0:
348,60,50742,2,0,P|302:22|243:23,1,120.000004577637
261,142,51424,2,0,L|253:170,2,30.0000011444092
476,36,52105,22,0,L|445:151,1,120.000004577637
473,269,52787,1,0,0:0:0:0:
358,234,53015,1,0,0:0:0:0:
386,351,53242,1,0,0:0:0:0:
271,316,53469,5,0,0:0:0:0:
243,199,53696,2,0,L|185:180,1,60.0000022888184
70,145,54151,1,0,0:0:0:0:
196,348,54605,2,0,L|138:329,2,60.0000022888184
79,307,55287,2,0,P|39:264|35:206,1,120.000004577637
156,215,55969,2,0,P|195:172|199:114,1,120.000004577637
207,121,56651,21,0,0:0:0:0:
207,121,56878,1,0,0:0:0:0:
207,121,57105,2,0,B|135:110|135:110|102:75,1,120.000004577637
212,28,57787,1,0,0:0:0:0:
272,132,58015,2,0,B|344:143|344:143|377:178,1,120.000004577637
267,225,58696,2,0,L|241:238,2,30.0000011444092
480,336,59378,6,0,P|432:370|373:367,1,120.000004577637
283,288,60060,1,0,0:0:0:0:
169,327,60287,1,0,0:0:0:0:
79,248,60515,1,0,0:0:0:0:
169,327,60742,22,0,L|196:273,1,60.0000022888184
79,248,61196,2,0,L|106:194,1,60.0000022888184
275,5,61878,2,0,L|248:59,1,60.0000022888184
136,14,62333,1,0,0:0:0:0:
153,133,62560,2,0,P|195:174|253:179,1,120.000004577637
355,114,63242,2,0,P|397:73|455:68,1,120.000004577637
450,189,63924,1,0,0:0:0:0:
281,359,64378,6,0,L|398:338,1,120.000004577637
321,246,65060,1,0,0:0:0:0:
203,266,65287,2,0,L|85:245,1,120.000004577637
163,153,65969,2,0,L|168:123,2,30.0000011444092
368,28,66651,22,0,B|333:61|333:61|322:133,1,120.000004577637
391,230,67333,1,0,0:0:0:0:
510,220,67560,1,0,0:0:0:0:
442,122,67787,1,0,0:0:0:0:
391,230,68015,22,0,B|339:338|339:338|271:240,1,240.000009155274
312,13,69378,21,0,0:0:0:0:
322,132,69605,1,0,0:0:0:0:
213,81,69833,2,0,L|133:87,1,80
151,314,70287,2,0,L|148:274,2,40
299,303,70742,2,0,L|378:296,1,80
360,69,71196,2,0,L|363:109,2,40
177,180,71651,22,0,P|100:188|38:140,1,160
163,36,72333,2,0,P|198:104|177:179,1,160
66,296,73015,1,0,0:0:0:0:
38,141,73242,1,0,0:0:0:0:
206,337,73469,1,0,0:0:0:0:
475,140,73924,5,0,0:0:0:0:
349,36,74151,2,0,P|313:104|334:179,1,160
446,296,74833,1,0,0:0:0:0:
475,140,75060,1,0,0:0:0:0:
306,337,75287,1,0,0:0:0:0:
120,96,75742,21,0,0:0:0:0:
120,96,75969,2,0,P|108:163|176:152,1,160
257,13,76651,1,0,0:0:0:0:
335,153,76878,2,0,P|403:163|392:96,1,160
257,13,77560,1,0,0:0:0:0:
256,172,77787,2,0,L|256:336,1,160
156,344,78355,2,0,P|153:327|170:329,1,40
356,344,78696,2,0,P|358:327|341:329,2,40
475,140,79378,5,0,0:0:0:0:
349,36,79605,2,0,P|313:104|334:179,1,160
446,296,80287,1,0,0:0:0:0:
306,337,80514,1,0,0:0:0:0:
475,140,80741,1,0,0:0:0:0:
37,140,81196,21,0,0:0:0:0:
163,36,81423,2,0,P|199:104|178:179,1,160
66,296,82105,1,0,0:0:0:0:
206,337,82332,1,0,0:0:0:0:
37,140,82559,1,0,0:0:0:0:
163,36,82787,5,0,0:0:0:0:
163,36,83015,2,0,L|103:87,1,80
256,112,83469,2,0,L|256:192,1,80
349,36,83924,2,0,L|409:87,1,80
256,192,84378,12,0,86196,0:0:0:0:
228,248,86651,6,0,B|192:264|160:296|192:328|224:328|256:296|256:296|288:328|320:328|352:296|320:264|284:248|284:248|284:112|284:112|304:104|256:0|208:104|228:112|228:112|228:184,1,640
365,305,89151,5,0,0:0:0:0:
365,305,89378,1,0,0:0:0:0:
365,305,89605,1,0,0:0:0:0:
365,305,89832,6,0,P|256:348|147:305,1,240.000009155274
360,192,90514,1,0,0:0:0:0:
147,79,90741,2,0,P|256:36|365:79,1,240.000009155274
152,192,91423,1,0,0:0:0:0:
365,305,91651,2,0,P|256:348|147:305,1,240.000009155274
360,192,92332,21,0,0:0:0:0:
120,192,92560,1,0,0:0:0:0:
424,192,92787,1,0,0:0:0:0:
56,192,93014,1,0,0:0:0:0:
488,192,93241,1,0,0:0:0:0:
143,301,93469,6,0,P|100:192|143:83,1,240.000009155274
256,296,94151,1,0,0:0:0:0:
369,83,94378,2,0,P|412:192|369:301,1,240.000009155274
256,88,95060,1,0,0:0:0:0:
143,301,95287,2,0,P|100:192|143:83,1,240.000009155274
256,296,95969,21,0,0:0:0:0:
256,56,96197,1,0,0:0:0:0:
256,360,96424,1,0,0:0:0:0:
256,56,96651,1,0,0:0:0:0:
256,296,96878,1,0,0:0:0:0:
147,79,97105,6,0,P|256:36|365:79,1,240.000009155274
152,192,97787,1,0,0:0:0:0:
365,305,98014,2,0,P|256:348|147:305,1,240.000009155274
360,192,98696,1,0,0:0:0:0:
147,79,98924,2,0,P|256:36|365:79,1,240.000009155274
152,192,99605,21,0,0:0:0:0:
392,192,99833,1,0,0:0:0:0:
88,192,100060,1,0,0:0:0:0:
456,192,100287,1,0,0:0:0:0:
24,192,100514,1,0,0:0:0:0:
369,83,100742,6,0,P|412:192|369:301,1,240.000009155274
256,88,101424,1,0,0:0:0:0:
143,301,101651,2,0,P|100:192|143:83,1,240.000009155274
256,296,102333,1,0,0:0:0:0:
369,83,102560,2,0,P|412:192|369:301,1,240.000009155274
256,88,103242,21,0,0:0:0:0:
256,328,103470,1,0,0:0:0:0:
256,24,103697,1,0,0:0:0:0:
256,328,103924,1,0,0:0:0:0:
256,88,104151,1,0,0:0:0:0:
401,324,104378,6,0,P|256:381|111:324,1,320
404,192,105060,1,0,0:0:0:0:
110,59,105287,2,0,P|255:2|400:59,1,320
108,192,105969,1,0,0:0:0:0:
401,324,106196,2,0,P|256:381|111:324,1,320
404,192,106878,21,0,0:0:0:0:
108,192,107105,1,0,0:0:0:0:
492,192,107333,1,0,0:0:0:0:
20,192,107560,1,0,0:0:0:0:
492,192,107787,1,0,0:0:0:0:
123,337,108015,6,0,P|66:192|123:47,1,320
256,340,108697,1,0,0:0:0:0:
388,46,108924,2,0,P|445:191|388:336,1,320
256,44,109605,1,0,0:0:0:0:
123,337,109833,2,0,P|66:192|123:47,1,320
256,340,110515,21,0,0:0:0:0:
256,44,110742,1,0,0:0:0:0:
256,384,110969,1,0,0:0:0:0:
256,0,111196,1,0,0:0:0:0:
256,384,111424,1,0,0:0:0:0:
110,59,111651,6,0,P|255:2|400:59,1,320
108,192,112333,1,0,0:0:0:0:
401,324,112560,2,0,P|256:381|111:324,1,320
404,192,113242,1,0,0:0:0:0:
110,59,113469,2,0,P|255:2|400:59,1,320
108,192,114151,21,0,0:0:0:0:
404,192,114378,1,0,0:0:0:0:
20,192,114606,1,0,0:0:0:0:
492,192,114833,1,0,0:0:0:0:
20,192,115060,1,0,0:0:0:0:
256,192,115287,12,0,118924,0:0:0:0:
40,40,120515,5,0,0:0:0:0:
472,344,120743,1,0,0:0:0:0:
472,40,122333,21,0,0:0:0:0:
40,344,122561,1,0,0:0:0:0:
