osu file format v14

[General]
AudioFilename: audio.mp3
AudioLeadIn: 0
PreviewTime: -1
Countdown: 1
SampleSet: None
StackLeniency: 0.7
Mode: 0
LetterboxInBreaks: 0
WidescreenStoryboard: 1

[Editor]
DistanceSpacing: 0.8
BeatDivisor: 4
GridSize: 32
TimelineZoom: 1

[Metadata]
Title:The Highschool Girl Next To Me
TitleUnicode:The Highschool Girl Next To Me
Artist:Gumi
ArtistUnicode:Gumi
Creator:XzErt
Version:old dude
Source:
Tags:
BeatmapID:945892
BeatmapSetID:436980

[Difficulty]
HPDrainRate:0
CircleSize:2
OverallDifficulty:10
ApproachRate:1
SliderMultiplier:0.700000005960464
SliderTickRate:1

[Events]
//Background and Video events
Video,0,"【GUMI】 The Highschool Girl next to me -English- 【Vocaloid PV】.mp4"
0,0,"hqdefault (1).jpg",0,0
//Break Periods
2,23138,42710
2,60173,65495
2,75073,79537
2,114811,127214
//Storyboard Layer 0 (Background)
//Storyboard Layer 1 (Fail)
//Storyboard Layer 2 (Pass)
//Storyboard Layer 3 (Foreground)
//Storyboard Sound Samples

[TimingPoints]
2010.15405493348,142.857142857143,4,1,0,100,1,0
16094,-50,4,1,0,100,0,1
22938,-100,4,1,0,100,0,0
44510,-50,4,1,0,100,0,1
60229,-100,4,1,0,100,0,0
67260,-50,4,1,0,100,0,1
73117,90.0900900900901,4,1,0,100,1,1
73139,-50,4,1,0,100,0,1
74828,-100,4,1,0,100,0,1
81337,-50,4,1,0,100,0,1
90076,6,4,1,0,100,1,1
93611,4000,4,1,0,100,1,1
121611,6.1,4,1,0,100,1,1
135177,6,4,1,0,100,1,0
135177,-50,4,1,0,100,0,0

[HitObjects]
384,192,16081,6,0,L|256:192,1,122.500001043081
160,192,16331,2,0,L|256:192,1,70.0000005960464
160,128,16403,2,0,L|256:192,1,105.00000089407
256,96,16545,2,0,L|256:192,1,70.0000005960464
352,96,16617,2,0,L|256:192,1,105.00000089407
384,160,16760,2,0,L|256:192,1,105.00000089407
384,192,16903,2,0,L|256:192,1,105.00000089407
384,224,17045,2,0,L|256:192,1,105.00000089407
352,256,17153,2,0,L|256:192,1,105.00000089407
320,256,17295,2,0,L|256:192,1,70.0000005960464
288,256,17367,2,0,L|256:192,1,70.0000005960464
192,96,17474,2,0,L|256:192,1,105.00000089407
160,96,17617,2,0,L|256:192,1,105.00000089407
160,128,17760,2,0,L|256:192,1,105.00000089407
160,160,17903,2,0,L|256:192,1,70.0000005960464
160,192,18010,2,0,L|256:192,1,70.0000005960464
192,224,18117,2,0,L|256:192,1,70.0000005960464
224,256,18224,2,0,L|256:192,1,70.0000005960464
256,256,18331,2,0,P|256:192|352:384,1,945.000008046626
256,192,19331,12,0,19367,0:0:0:0:
256,192,19367,12,0,21510,0:0:0:0:
224,160,22581,5,0,0:0:0:0:
224,160,22617,1,0,0:0:0:0:
224,160,22653,1,0,0:0:0:0:
224,160,22688,1,0,0:0:0:0:
224,160,22724,1,0,0:0:0:0:
224,160,22760,1,0,0:0:0:0:
224,160,22795,1,0,0:0:0:0:
224,160,22831,1,0,0:0:0:0:
224,160,22867,1,0,0:0:0:0:
224,160,22903,1,0,0:0:0:0:
224,160,22938,1,0,0:0:0:0:
0,160,44510,6,0,L|512:160,1,490.000004172325
32,160,44545,2,0,L|512:160,1,455.000003874302
64,160,44581,2,0,L|512:160,1,420.000003576278
96,160,44617,2,0,L|512:160,1,385.000003278255
128,160,44653,2,0,L|512:160,1,350.000002980232
160,160,44688,2,0,L|512:160,1,350.000002980232
192,160,44724,2,0,L|480:160,1,280.000002384186
224,160,44760,2,0,L|480:160,1,245.000002086162
256,160,44795,2,0,L|480:160,1,210.000001788139
288,160,44831,2,0,L|480:160,1,175.000001490116
320,160,44867,2,0,L|480:160,1,140.000001192093
352,160,44903,2,0,L|480:160,1,105.00000089407
384,160,44938,2,0,L|512:160,1,105.00000089407
416,160,44974,2,0,L|512:160,1,70.0000005960464
448,160,45010,2,0,L|512:160,1,35.0000002980232
256,192,46295,12,0,46331,0:0:0:0:
256,192,46367,12,0,46403,0:0:0:0:
256,192,46438,12,0,46474,0:0:0:0:
256,192,46510,12,0,46545,0:0:0:0:
256,192,46581,12,0,46617,0:0:0:0:
256,192,46653,12,0,46688,0:0:0:0:
256,192,46688,12,0,46724,0:0:0:0:
256,192,46724,12,0,46760,0:0:0:0:
256,192,46760,12,0,46867,0:0:0:0:
256,192,47724,12,0,49831,0:0:0:0:
224,192,51367,6,0,L|288:192,124,35.0000002980232
256,160,55831,2,0,P|192:160|288:160,29,140.000001192093
256,192,67295,12,0,73081,0:0:0:0:
256,192,73117,6,0,L|256:160,78,17.5000001490116
128,192,81337,6,0,B|256:64|416:192|256:320|128:224,1,420.000003576278
128,192,81630,2,0,P|512:192|128:224,1,1155.00000983477
128,192,82396,2,0,P|0:192|-160:320,1,315.000002682209
32,288,82621,2,0,B|512:0|64:256,6,525.000004470348
0,192,84671,2,0,L|32:160,1,35.0000002980232
0,192,84716,2,0,L|32:224,1,35.0000002980232
0,192,84761,2,0,L|0:256,1,35.0000002980232
0,192,84806,2,0,L|0:128,3,35.0000002980232
0,192,84918,2,0,L|64:192,130,35.0000002980232
256,0,87846,5,0,0:0:0:0:
256,32,87852,1,0,0:0:0:0:
256,64,87857,1,0,0:0:0:0:
256,96,87863,1,0,0:0:0:0:
256,128,87869,1,0,0:0:0:0:
256,160,87874,1,0,0:0:0:0:
256,192,87880,1,0,0:0:0:0:
256,224,87886,1,0,0:0:0:0:
256,256,87891,1,0,0:0:0:0:
256,288,87897,1,0,0:0:0:0:
256,320,87903,1,0,0:0:0:0:
256,352,87908,1,0,0:0:0:0:
256,384,87914,1,0,0:0:0:0:
256,384,87919,2,0,L|256:0,1,376.250003203749
192,96,88252,2,0,L|352:96,1,140.000001192093
352,128,88432,2,0,L|64:128,1,280.000002384186
256,192,88612,12,0,89175,0:0:0:0:
256,192,89198,5,0,0:0:0:0:
128,96,89626,2,0,L|704:64,1,560.000004768371
224,192,90077,2,0,L|256:192,2096,17.5000001490116
256,192,93611,1,0,0:0:0:0:
256,192,94611,5,0,0:0:0:0:
256,192,95611,1,0,0:0:0:0:
256,192,96611,1,0,0:0:0:0:
256,192,97611,1,0,0:0:0:0:
256,192,98611,1,0,0:0:0:0:
256,192,99611,1,0,0:0:0:0:
256,192,100611,12,0,114611,0:0:0:0:
0,192,129014,6,0,L|704:384,55,717.500006109476
224,160,132453,2,0,P|256:160|256:192,376,70.0000005960464
224,224,135177,6,0,L|256:128,23,630.000005364418
224,192,136198,2,0,L|256:160,1688,35.0000002980232
0,384,138928,2,14,L|-64:384,2945,35.0000002980232
256,384,144291,2,14,P|0:0|512:0,1,665.000005662441
256,320,145173,2,14,P|224:288|288:320,484,280.000002384186
256,192,151362,1,0,0:0:0:0:
256,192,151363,1,0,0:0:0:0:
256,192,151365,1,0,0:0:0:0:
256,192,151366,1,0,0:0:0:0:
256,192,151368,1,0,0:0:0:0:
256,192,151369,1,0,0:0:0:0:
256,192,151371,1,0,0:0:0:0:
256,192,151374,1,0,0:0:0:0:
256,192,151375,1,0,0:0:0:0:
256,192,151377,1,0,0:0:0:0:
256,192,151378,1,0,0:0:0:0:
256,192,151381,1,0,0:0:0:0:
256,192,151383,1,0,0:0:0:0:
256,192,151384,1,0,0:0:0:0:
256,192,151386,1,0,0:0:0:0:
256,192,151387,1,0,0:0:0:0:
256,192,151389,1,0,0:0:0:0:
256,192,151390,1,0,0:0:0:0:
256,192,151393,1,0,0:0:0:0:
256,192,151396,1,0,0:0:0:0:
256,192,151398,1,0,0:0:0:0:
256,192,151401,1,0,0:0:0:0:
256,192,151402,1,0,0:0:0:0:
256,192,151405,1,0,0:0:0:0:
256,192,151407,1,0,0:0:0:0:
256,192,151408,1,0,0:0:0:0:
256,192,151410,1,0,0:0:0:0:
256,192,151411,1,0,0:0:0:0:
256,192,151413,1,0,0:0:0:0:
256,192,151414,1,0,0:0:0:0:
256,192,151416,1,0,0:0:0:0:
256,192,151417,1,0,0:0:0:0:
256,192,151419,1,0,0:0:0:0:
256,192,151420,1,0,0:0:0:0:
256,192,151422,1,0,0:0:0:0:
256,192,151423,1,0,0:0:0:0:
256,192,151425,1,0,0:0:0:0:
256,192,151426,1,0,0:0:0:0:
256,192,151428,1,0,0:0:0:0:
256,192,151431,1,0,0:0:0:0:
256,192,151432,1,0,0:0:0:0:
256,192,151437,1,0,0:0:0:0:
256,192,151441,1,0,0:0:0:0:
256,192,151444,1,0,0:0:0:0:
256,192,151447,1,0,0:0:0:0:
256,192,151791,12,14,156442,0:0:0:0:
224,288,159687,5,0,0:0:0:0:
