osu file format v14

[General]
AudioFilename: audio.mp3
AudioLeadIn: 0
PreviewTime: 45842
Countdown: 1
SampleSet: Soft
StackLeniency: 0.4
Mode: 0
LetterboxInBreaks: 1
WidescreenStoryboard: 1

[Editor]
DistanceSpacing: 0.75
BeatDivisor: 8
GridSize: 8
TimelineZoom: 1.8

[Metadata]
Title:Catch You Catch Me (TV Size)
TitleUnicode:Catch You Catch Me (TV Size)
Artist:Gumi
ArtistUnicode:グミ
Creator:Kyutei
Version:Feelings
Source:カードキャプターさくら
Tags:Anya Melfissa Shingyouji Yuni Amats __Ag Sayama Kaede Suzuaki_Rin Card Captor Sakura Magical Girl Cardcaptors Shoujo Shojo 少女 anime japanese j-pop jpop pop opening op MADHOUSE Manga 木之本さくら Sakura Kinomoto 大道寺知世 Tomoyo Daidouji ケルベロス Cerberus Kero 李小狼 Xiaolang Li 月城雪兎 Yukito Tsukishiro 木之本桃矢 Touya Kinomoto 日向めぐみ Megumi Hinata gummy meg rock *mgrck g.e.m gem
BeatmapID:4041139
BeatmapSetID:1951586

[Difficulty]
HPDrainRate:5
CircleSize:3.3
OverallDifficulty:8
ApproachRate:9
SliderMultiplier:1.8
SliderTickRate:1

[Events]
//Background and Video events
0,0,"bg2.jpg",0,0
Video,-1966,"op.mp4"
//Break Periods
//Storyboard Layer 0 (Background)
//Storyboard Layer 1 (Fail)
//Storyboard Layer 2 (Pass)
//Storyboard Layer 3 (Foreground)
//Storyboard Layer 4 (Overlay)
//Storyboard Sound Samples

[TimingPoints]
960,468.75,4,2,1,60,1,0
960,-100,4,2,1,60,0,0
6350,-125,4,2,1,60,0,0
6819,-55.5555555555556,4,2,1,60,0,0
7522,-71.4285714285714,4,2,1,60,0,0
8225,-45.4545454545455,4,2,1,60,0,0
8811,-100,4,2,1,5,0,0
8928,-62.5,4,2,1,70,0,0
9280,-100,4,2,1,5,0,0
9397,-62.5,4,2,1,70,0,0
11389,-100,4,2,1,5,0,0
11506,-62.5,4,2,1,70,0,0
12678,-50,4,2,1,70,0,0
13030,-100,4,2,1,5,0,0
13147,-50,4,2,1,70,0,0
13850,-100,4,2,1,70,0,0
15960,-125,4,2,1,50,0,0
16663,-250,4,2,1,50,0,0
17835,-125,4,2,1,50,0,0
18538,-250,4,2,1,50,0,0
19710,-125,4,2,1,50,0,0
20413,-250,4,2,1,50,0,0
21585,-100,4,2,1,50,0,0
23460,-125,4,2,1,50,0,0
24163,-250,4,2,1,50,0,0
25335,-125,4,2,1,50,0,0
26038,-250,4,2,1,50,0,0
27210,-83.3333333333333,4,2,1,50,0,0
27913,-100,4,2,1,50,0,0
29085,-83.3333333333333,4,2,1,50,0,0
30022,-125,4,2,1,50,0,0
30960,-166.666666666667,4,2,1,60,0,0
34241,-500,4,2,1,60,0,0
34592,-100,4,2,1,5,0,0
34710,-166.666666666667,4,2,1,60,0,0
35413,-125,4,2,1,60,0,0
36585,-83.3333333333333,4,2,1,60,0,0
42210,-83.3333333333333,4,2,1,40,0,0
42561,-100,4,2,1,5,0,0
42678,-83.3333333333333,4,2,1,45,0,0
43147,-83.3333333333333,4,2,1,50,0,0
43616,-83.3333333333333,4,2,1,55,0,0
44085,-83.3333333333333,4,2,1,60,0,0
44553,-83.3333333333333,4,2,1,65,0,0
45022,-83.3333333333333,4,2,1,70,0,0
45960,-41.6666666666667,4,2,1,80,0,1
46135,-100,4,2,1,5,0,1
46194,-62.5,4,2,1,80,0,1
46428,-31.25,4,2,1,80,0,1
46604,-100,4,2,1,5,0,1
46662,-41.6666666666667,4,2,1,80,0,1
46897,-83.3333333333333,4,2,1,80,0,1
47366,-41.6666666666667,4,2,1,80,0,1
47835,-33.3333333333333,4,2,1,80,0,1
47952,-100,4,2,1,5,0,1
48069,-33.3333333333333,4,2,1,80,0,1
48303,-35.7142857142857,4,2,1,80,0,1
48655,-100,4,2,1,5,0,1
48772,-35.7142857142857,4,2,1,80,0,1
49241,-41.6666666666668,4,2,1,80,0,1
49710,-125,4,2,1,80,0,1
50178,-83.3333333333333,4,2,1,80,0,1
50530,-100,4,2,1,5,0,1
50647,-125,4,2,1,80,0,1
50999,-100,4,2,1,5,0,1
51115,-62.5,4,2,1,80,0,1
51467,-100,4,2,1,5,0,1
51585,-62.5,4,2,1,80,0,1
52053,-83.3333333333333,4,2,1,80,0,1
52405,-100,4,2,1,5,0,1
52522,-166.666666666667,4,2,1,80,0,1
52874,-100,4,2,1,5,0,1
52991,-166.666666666667,4,2,1,80,0,1
53460,-41.6666666666667,4,2,1,80,0,1
53635,-100,4,2,1,5,0,1
53694,-62.5,4,2,1,80,0,1
53928,-31.25,4,2,1,80,0,1
54104,-100,4,2,1,5,0,1
54162,-62.5,4,2,1,80,0,1
54397,-83.3333333333333,4,2,1,80,0,1
54866,-35.7142857142857,4,2,1,80,0,1
55803,-35.7142857142857,4,2,1,80,0,1
56155,-100,4,2,1,5,0,1
56272,-35.7142857142857,4,2,1,80,0,1
56506,-29.4117647058824,4,2,1,80,0,1
56624,-100,4,2,1,5,0,1
56741,-29.4117647058824,4,2,1,80,0,1
57678,-100,4,2,1,80,0,1
57795,-100,4,2,1,5,0,1
57913,-50,4,2,1,80,0,1
58030,-100,4,2,1,5,0,1
58147,-50,4,2,1,80,0,1
58616,-83.3333333333333,4,2,1,80,0,1
59085,-35.7142857142857,4,2,1,80,0,1
59202,-100,4,2,1,5,0,1
59319,-35.7142857142857,4,2,1,80,0,1
59436,-100,4,2,1,5,0,1
59553,-35.7142857142857,4,2,1,80,0,1
59670,-100,4,2,1,5,0,1
59788,-35.7142857142857,4,2,1,80,0,1
59905,-100,4,2,1,5,0,1
60022,-35.7142857142857,4,2,1,80,0,1
60139,-100,4,2,1,5,0,1
60256,-35.7142857142857,4,2,1,80,0,1
60374,-100,4,2,1,5,0,1
60491,-35.7142857142857,4,2,1,80,0,1
60725,-100,4,2,1,80,0,1
62600,-33.3333333333333,4,2,1,80,0,1
64006,-33.3333333333333,4,2,1,80,0,1
64124,-100,4,2,1,5,0,1
64241,-33.3333333333333,4,2,1,80,0,1
64710,-33.3333333333333,4,2,1,70,0,1
65178,-62.5,4,2,1,70,0,0
65530,-100,4,2,1,5,0,0
65647,-62.5,4,2,1,70,0,0
67639,-100,4,2,1,5,0,0
67756,-62.5,4,2,1,70,0,0
68928,-50,4,2,1,70,0,0
69280,-100,4,2,1,5,0,0
69397,-50,4,2,1,70,0,0
71741,-38.4615384615385,4,2,1,70,0,0
72444,-55.5555555555556,4,2,1,70,0,0
72678,517.241379310345,4,2,1,60,1,0
72678,-83.3333333333333,4,2,1,60,0,0
73453,491.803278688525,4,2,1,50,1,0
73453,-83.3333333333333,4,2,1,50,0,0
74190,512.820512820513,4,2,1,40,1,0
74190,-83.3333333333333,4,2,1,40,0,0
74959,550.45871559633,4,2,1,30,1,0
74959,-83.3333333333333,4,2,1,30,0,0
75784,517.241379310345,4,2,1,30,1,0
76042,625,4,2,1,20,1,0
76042,-83.3333333333333,4,2,1,20,0,0
76354,625,4,2,1,20,1,0
76979,-83.3333333333333,4,2,1,10,0,0
77916,-83.3333333333333,4,2,1,5,0,0

[Colours]
Combo1 : 234,115,198
Combo2 : 205,153,230
Combo3 : 209,27,164
Combo4 : 201,80,186

[HitObjects]
115,336,960,6,0,B|118:358|118:358|163:271|98:207,1,180,6|0,3:2|3:2,0:0:0:0:
27,288,1663,5,2,1:2:0:0:
234,317,2131,5,2,1:2:0:0:
317,137,2600,5,2,1:2:0:0:
317,137,3538,5,2,1:2:0:0:
371,0,4006,5,2,1:2:0:0:
500,0,4475,5,2,1:2:0:0:
500,0,5413,5,2,1:2:0:0:
500,0,5881,1,2,1:2:0:0:
496,220,6350,5,10,0:0:0:0:
16,164,6819,5,10,0:0:0:0:
249,261,7288,5,10,0:0:0:0:
262,343,7522,2,0,L|268:384,3,31.4999990386963,0|0|0|0,3:2|3:2|3:2|3:2,0:0:0:0:
249,261,7756,1,10,0:0:0:0:
381,100,7991,5,0,3:2:0:0:
315,54,8225,2,0,P|447:150|313:57,1,495.000015106202,14|0,0:0|0:0,0:0:0:0:
204,0,8928,6,0,B|201:49|201:49|22:83,1,216,14|0,0:0|0:0,0:0:0:0:
89,173,9397,5,2,3:2:0:0:
142,243,9631,1,2,0:0:0:0:
193,204,9748,1,0,0:0:0:0:
169,147,9866,1,10,0:0:0:0:
39,320,10100,6,0,P|85:320|170:406,1,144,2|0,0:0|3:2,0:0:0:0:
463,259,10569,5,2,0:0:0:0:
291,340,10803,1,10,0:0:0:0:
430,362,11038,6,0,B|390:356|390:356|341:149,1,216,2|0,0:0|0:0,0:0:0:0:
396,117,11506,1,2,0:0:0:0:
452,110,11624,1,0,0:0:0:0:
479,167,11741,1,10,0:0:0:0:
222,6,11975,6,0,P|186:66|97:56,1,144,2|2,0:0|3:2,0:0:0:0:
17,223,12444,1,2,0:0:0:0:
17,223,12678,2,0,B|6:179|6:179|87:152|165:186|176:284,1,270,14|0,0:0|0:0,0:0:0:0:
375,292,13147,5,2,3:2:0:0:
430,362,13381,1,2,0:0:0:0:
481,323,13498,1,0,0:0:0:0:
457,266,13616,1,10,0:0:0:0:
252,383,13850,6,0,B|261:382|261:382|273:285,1,90,2|0,0:0|3:2,0:0:0:0:
302,106,14319,2,0,L|321:-5,1,90,10|0,0:0|3:2,0:0:0:0:
391,192,14788,5,10,0:0:0:0:
474,175,15022,2,0,L|506:169,3,22.5,0|0|0|0,3:2|3:2|3:2|3:2,0:0:0:0:
391,192,15256,1,10,0:0:0:0:
94,0,15491,5,2,3:2:0:0:
0,69,15725,1,2,3:2:0:0:
0,69,15842,1,10,0:0:0:0:
0,69,15960,2,0,P|65:84|147:128,1,144,6|8,3:2|0:0,0:0:0:0:
64,253,16663,2,0,B|49:256|49:256|32:187,1,72,2|0,0:0|1:0,0:0:0:0:
313,115,17366,5,10,0:0:0:0:
217,50,17600,1,2,0:0:0:0:
217,50,17717,1,0,0:0:0:0:
217,50,17835,2,0,P|282:35|364:-9,1,144,2|8,3:2|0:0,0:0:0:0:
466,172,18538,2,0,B|502:177|502:177|472:155,1,72,2|0,0:0|1:0,0:0:0:0:
301,282,19241,5,10,0:0:0:0:
376,191,19475,1,2,0:0:0:0:
376,191,19592,1,0,0:0:0:0:
376,191,19710,2,0,P|389:263|405:346,1,144,2|8,3:2|0:0,0:0:0:0:
191,367,20413,2,0,B|207:371|207:371|220:309,1,72,2|0,0:0|1:0,0:0:0:0:
77,213,21116,5,10,0:0:0:0:
77,213,21350,1,2,0:0:0:0:
21,286,21585,2,0,P|106:298|164:234,1,180,6|10,3:2|0:0,0:0:0:0:
309,49,22288,2,0,B|299:92|299:92|157:64,1,180,2|0,1:2|1:0,0:0:0:0:
0,98,22991,5,10,0:0:0:0:
66,13,23225,1,2,0:0:0:0:
66,13,23342,1,0,0:0:0:0:
66,13,23460,2,0,P|82:80|100:158,1,144,6|8,3:2|0:0,0:0:0:0:
250,231,24163,2,0,B|279:211|279:211|265:169,1,72,2|0,0:0|1:0,0:0:0:0:
52,362,24866,5,10,0:0:0:0:
21,286,25100,1,2,0:0:0:0:
21,286,25217,1,0,0:0:0:0:
21,286,25335,2,0,P|81:283|133:364,1,144,2|8,3:2|0:0,0:0:0:0:
340,377,26038,2,0,B|324:381|324:381|311:318,1,72,2|0,0:0|1:0,0:0:0:0:
408,141,26741,5,10,0:0:0:0:
428,56,26975,1,2,0:0:0:0:
492,251,27210,2,0,B|398:230|398:230|379:243|379:243|267:218,1,215.999993408203,6|8,3:2|0:0,0:0:0:0:
164,55,27913,2,0,B|98:80|98:80|219:54,1,180,2|0,0:0|1:0,0:0:0:0:
278,0,28616,5,10,0:0:0:0:
160,175,28850,1,2,0:0:0:0:
160,175,28967,1,0,0:0:0:0:
160,175,29085,2,0,B|146:196|146:196|63:181,1,107.999996704102,6|0,3:2|0:0,0:0:0:0:
0,236,29553,1,10,0:0:0:0:
33,313,29788,1,6,0:0:0:0:
184,325,30022,5,0,3:2:0:0:
172,344,30139,2,0,L|177:374,2,18,8|8|8,0:0|0:0|0:0,0:0:0:0:
308,302,30491,5,2,3:2:0:0:
443,380,30725,1,8,0:0:0:0:
443,380,30842,1,8,0:0:0:0:
443,380,30960,2,0,P|424:287|402:153,1,216,6|2,3:2|3:2,0:0:0:0:
204,82,32366,5,10,0:0:0:0:
69,4,32600,1,0,0:0:0:0:
69,4,32717,1,0,0:0:0:0:
69,4,32835,2,0,P|88:97|110:231,1,216,6|2,3:2|3:2,0:0:0:0:
352,24,34241,6,0,L|389:30,1,26.9999991760254,10|0,0:0|0:0,0:0:0:0:
464,0,34710,6,0,P|476:51|429:98,1,107.999996704102,6|10,3:2|0:0,0:0:0:0:
483,215,35413,2,0,P|417:187|344:175,1,144,2|2,0:0|0:0,0:0:0:0:
396,274,36116,5,10,0:0:0:0:
396,274,36350,1,2,0:0:0:0:
271,324,36585,2,0,P|368:364|477:383,2,215.999993408203,2|10|2,3:2|0:0|3:2,0:0:0:0:
396,274,37991,5,10,0:0:0:0:
38,17,38460,5,6,3:2:0:0:
62,62,38694,1,2,0:0:0:0:
115,58,38928,1,10,0:0:0:0:
115,58,39397,5,2,3:2:0:0:
237,87,39631,1,2,0:0:0:0:
221,212,39866,1,10,0:0:0:0:
221,212,40335,5,2,3:2:0:0:
319,384,40569,1,2,0:0:0:0:
500,326,40803,1,10,0:0:0:0:
474,240,41272,5,2,3:2:0:0:
411,159,41506,1,2,0:0:0:0:
309,168,41741,1,10,0:0:0:0:
3,301,42092,5,2,0:0:0:0:
0,313,42210,2,0,P|54:363|140:357,1,161.999995056153,6|0,3:2|0:0,0:0:0:0:
193,293,42678,6,0,P|237:281|320:270,1,107.999996704102,2|2,3:2|0:0,0:0:0:0:
373,0,43147,6,0,P|343:35|283:93,1,107.999996704102,2|2,3:2|0:0,0:0:0:0:
407,339,43616,6,0,P|409:293|424:210,1,107.999996704102,2|2,3:2|0:0,0:0:0:0:
176,79,44085,6,0,P|200:117|237:193,1,107.999996704102,2|2,3:2|0:0,0:0:0:0:
512,151,44553,6,0,P|469:134|395:94,1,107.999996704102,2|2,3:2|0:0,0:0:0:0:
330,190,45022,6,0,L|336:158,4,26.9999991760254,2|0|0|0|10,3:2|3:2|3:2|3:2|0:0,0:0:0:0:
298,370,45491,5,2,3:2:0:0:
0,257,45725,5,10,0:0:0:0:
0,257,45842,1,10,0:0:0:0:
0,257,45960,2,0,P|31:209|143:217,1,161.999995056153,6|0,3:2|0:0,0:0:0:0:
102,306,46194,2,0,B|109:337|109:337|85:282,1,72,2|0,0:0|0:0,0:0:0:0:
176,79,46428,6,0,P|217:153|352:143,1,216,10|0,0:0|0:0,0:0:0:0:
298,43,46663,2,0,B|306:-2|306:-2|278:67,1,107.999996704102,2|0,0:0|0:0,0:0:0:0:
431,154,46897,5,2,3:2:0:0:
431,154,47014,1,2,0:0:0:0:
431,154,47131,2,0,B|440:153|440:153|449:211,1,53.9999983520508,2|0,0:0|0:0,0:0:0:0:
450,5,47366,5,10,0:0:0:0:
450,5,47483,1,2,0:0:0:0:
450,5,47600,2,0,B|477:1|477:1|494:90,1,107.999996704102,2|0,0:0|0:0,0:0:0:0:
321,328,47835,6,0,P|307:371|326:329,1,135.000005149842,2|0,3:2|0:0,0:0:0:0:
501,344,48069,5,2,0:0:0:0:
501,344,48186,1,0,0:0:0:0:
501,344,48303,2,0,B|472:352|472:352|378:190|199:258|199:258|165:222,1,377.999988464356,10|0,0:0|0:0,0:0:0:0:
61,313,48772,1,0,3:2:0:0:
86,370,48889,1,0,3:2:0:0:
146,364,49006,1,0,3:2:0:0:
18,82,49241,6,0,B|-16:203|-16:203|35:125,1,215.999993408203,10|0,0:0|3:2,0:0:0:0:
107,68,49592,5,0,3:2:0:0:
103,79,49710,2,0,P|126:101|172:97,1,72,6|0,3:2|0:0,0:0:0:0:
216,166,50060,1,0,0:0:0:0:
211,172,50178,2,0,P|276:182|337:102,1,161.999995056153,10|0,0:0|0:0,0:0:0:0:
485,3,50647,6,0,B|531:31|531:31|475:21,1,108,2|0,3:2|0:0,0:0:0:0:
381,0,51116,2,0,B|410:132|438:46|473:210,1,215.999993408203,10|0,0:0|0:0,0:0:0:0:
463,356,51585,5,2,3:2:0:0:
473,316,51702,1,2,0:0:0:0:
512,347,51819,5,2,0:0:0:0:
424,324,51936,1,2,0:0:0:0:
330,380,52053,6,0,B|213:351|213:351|199:297,1,161.999995056153,10|0,0:0|0:0,0:0:0:0:
14,266,52522,2,0,B|3:277|3:277|71:264,1,80.9999975280763,2|0,3:2|0:0,0:0:0:0:
129,205,52991,5,10,0:0:0:0:
68,34,53225,5,2,0:0:0:0:
68,34,53342,1,0,0:0:0:0:
68,34,53460,2,0,P|98:98|183:94,1,161.999995056153,6|0,3:2|0:0,0:0:0:0:
358,18,53694,2,0,B|395:18|395:18|355:37,1,72,2|0,0:0|0:0,0:0:0:0:
216,0,53928,6,0,B|256:3|256:3|300:191,1,216,10|0,0:0|0:0,0:0:0:0:
473,271,54163,2,0,B|503:253|503:253|485:206,1,72,2|0,0:0|0:0,0:0:0:0:
406,111,54397,6,0,L|396:184,1,53.9999983520508,2|0,3:2|0:0,0:0:0:0:
375,280,54631,2,0,L|365:353,1,53.9999983520508,2|0,0:0|0:0,0:0:0:0:
255,369,54866,6,0,P|194:368|165:316,1,125.999996154785,10|0,0:0|0:0,0:0:0:0:
90,274,55100,1,2,0:0:0:0:
30,265,55217,1,0,0:0:0:0:
0,318,55335,1,2,3:2:0:0:
106,17,55569,5,2,0:0:0:0:
106,17,55686,1,0,0:0:0:0:
106,17,55803,2,0,B|92:134|212:191|298:165|298:165|279:71,1,377.999988464356,10|0,0:0|0:0,0:0:0:0:
498,23,56272,5,0,3:2:0:0:
498,23,56389,1,0,3:2:0:0:
498,23,56506,2,0,B|482:59|482:59|359:30,1,153.000002918243,0|0,3:2|0:0,0:0:0:0:
203,5,56741,1,10,0:0:0:0:
203,5,56975,1,0,3:2:0:0:
512,306,57210,5,6,3:2:0:0:
460,273,57327,1,2,0:0:0:0:
401,290,57444,1,2,0:0:0:0:
384,348,57561,1,2,0:0:0:0:
305,372,57678,6,0,L|256:365,1,45,10|0,0:0|0:0,0:0:0:0:
354,220,57913,2,0,L|262:206,1,90,2|0,0:0|0:0,0:0:0:0:
133,133,58147,5,2,3:2:0:0:
105,143,58264,1,2,0:0:0:0:
121,118,58382,1,2,0:0:0:0:
124,148,58499,1,2,0:0:0:0:
104,125,58616,1,10,0:0:0:0:
9,208,58850,5,2,0:0:0:0:
9,208,58967,1,2,0:0:0:0:
9,208,59085,2,0,P|46:245|126:237,1,125.999996154785,2|0,3:2|0:0,0:0:0:0:
98,10,59319,6,0,P|47:23|14:96,1,125.999996154785,2|0,0:0|0:0,0:0:0:0:
128,262,59553,6,0,P|178:248|211:175,1,125.999996154785,10|0,0:0|0:0,0:0:0:0:
0,87,59788,6,0,P|-13:137|33:202,1,125.999996154785,2|0,0:0|0:0,0:0:0:0:
215,56,60022,6,0,P|178:18|98:27,1,125.999996154785,2|0,3:2|0:0,0:0:0:0:
230,189,60256,6,0,P|243:138|196:73,1,125.999996154785,2|0,0:0|0:0,0:0:0:0:
118,134,60491,5,10,0:0:0:0:
0,355,60725,6,0,P|205:367|348:14,1,629.999980773926,6|8,0:0|0:0,0:0:0:0:
151,48,62600,6,0,B|84:222|225:273|249:231|228:200|198:209,1,270.000010299683,6|0,0:0|3:2,0:0:0:0:
205,208,63069,2,0,B|87:61|-27:158|-2:200|34:197|41:166,1,270.000010299683,6|0,0:0|3:2,0:0:0:0:
39,171,63538,2,0,B|222:142|193:1|144:-3|136:21|151:51,1,270.000010299683,6|0,0:0|3:2,0:0:0:0:
270,138,63889,5,8,0:0:0:0:
270,138,63948,1,8,0:0:0:0:
270,138,64006,2,0,L|405:111,1,135.000005149842,6|0,0:0|0:0,0:0:0:0:
512,88,64241,1,0,3:2:0:0:
423,289,64475,5,14,0:0:0:0:
460,325,64592,1,8,0:0:0:0:
508,313,64710,1,2,3:2:0:0:
485,229,64944,1,2,0:0:0:0:
349,378,65178,6,0,P|312:330|153:338,1,216,14|0,0:0|0:0,0:0:0:0:
112,195,65647,5,2,3:2:0:0:
56,262,65881,1,2,0:0:0:0:
5,223,65998,1,0,0:0:0:0:
29,166,66116,1,10,0:0:0:0:
41,21,66350,6,0,P|95:68|179:70,1,144,2|0,0:0|3:2,0:0:0:0:
249,161,66819,5,2,0:0:0:0:
445,57,67053,1,10,0:0:0:0:
302,0,67288,6,0,B|325:128|354:49|380:203,1,216,2|0,0:0|0:0,0:0:0:0:
446,250,67756,1,2,0:0:0:0:
501,252,67874,1,0,0:0:0:0:
511,188,67991,1,10,0:0:0:0:
350,373,68225,6,0,P|301:330|218:346,1,144,2|2,0:0|3:2,0:0:0:0:
29,166,68694,1,2,0:0:0:0:
29,166,68928,2,0,B|2:263|2:263|179:220,1,270,14|0,0:0|0:0,0:0:0:0:
358,75,69397,5,2,3:2:0:0:
303,5,69631,1,2,0:0:0:0:
252,44,69748,1,0,0:0:0:0:
276,101,69866,1,10,0:0:0:0:
445,384,70100,6,0,B|439:376|439:376|490:185,1,180,6|0,0:0|3:2,0:0:0:0:
336,356,70569,2,0,B|345:352|345:352|396:161,1,180,14|0,0:0|3:2,0:0:0:0:
461,102,71038,5,14,0:0:0:0:
58,272,71272,6,0,L|5:261,3,45,0|0|0|0,3:2|3:2|3:2|3:2,0:0:0:0:
141,288,71506,1,14,0:0:0:0:
185,12,71741,5,0,3:2:0:0:
286,46,71975,1,14,0:0:0:0:
294,51,72092,2,0,P|259:129|120:126,1,233.999989288331,0|0,3:2|0:0,0:0:0:0:
51,72,72444,6,0,L|58:26,2,40.4999987640381,0|0|0,3:2|3:2|3:2,0:0:0:0:
33,171,72678,5,4,1:2:0:0:
296,363,73453,5,0,1:0:0:0:
500,174,74190,5,0,1:0:0:0:
512,0,74959,5,0,1:0:0:0:
