osu file format v14

[General]
AudioFilename: audio.mp3
AudioLeadIn: 0
PreviewTime: -1
Countdown: 1
SampleSet: None
StackLeniency: 0.7
Mode: 0
LetterboxInBreaks: 0
WidescreenStoryboard: 0

[Editor]
DistanceSpacing: 2.2
BeatDivisor: 4
GridSize: 4
TimelineZoom: 2

[Metadata]
Title:Catch You Catch Me (TV Size)
TitleUnicode:Catch You Catch Me (TV Size)
Artist:Gumi
ArtistUnicode:Gumi
Creator:Constelletion
Version:Sakura
Source:カードキャプターさくら
Tags:card captor sakura op
BeatmapID:935916
BeatmapSetID:434329

[Difficulty]
HPDrainRate:6
CircleSize:4
OverallDifficulty:7
ApproachRate:9
SliderMultiplier:1.6
SliderTickRate:1

[Events]
//Background and Video events
0,0,"sakura bg.jpg",0,0
//Break Periods
//Storyboard Layer 0 (Background)
//Storyboard Layer 1 (Fail)
//Storyboard Layer 2 (Pass)
//Storyboard Layer 3 (Foreground)
//Storyboard Sound Samples

[TimingPoints]
374,468.75,4,1,0,40,1,0

[HitObjects]
128,84,374,6,0,P|104:160|128:236,1,160
256,300,1077,1,0,0:0:0:0:
388,240,1311,2,0,P|404:292|404:332,1,80
300,220,1780,2,0,P|284:168|284:128,1,80
352,16,2249,5,0,0:0:0:0:
416,144,2483,1,0,0:0:0:0:
484,16,2717,1,0,0:0:0:0:
380,116,2952,2,0,P|340:124|300:116,1,80
168,68,3420,2,0,P|208:60|248:68,1,80
196,200,3889,2,0,P|148:272|80:296,1,160
92,192,4592,1,0,0:0:0:0:
216,312,4827,6,0,L|304:312,1,80
440,312,5295,1,0,0:0:0:0:
328,220,5530,1,0,0:0:0:0:
440,128,5764,1,0,0:0:0:0:
152,128,6233,1,0,0:0:0:0:
344,344,6702,1,0,0:0:0:0:
288,64,7170,2,0,L|288:24,1,40
232,120,7405,2,0,L|232:204,1,80
40,320,8108,5,0,0:0:0:0:
68,180,8342,1,0,0:0:0:0:
180,272,8577,1,0,0:0:0:0:
288,180,8811,2,0,P|320:220|328:252,1,80
200,176,9280,2,0,P|218:128|242:105,1,80
436,40,9749,5,0,0:0:0:0:
328,148,9983,1,0,0:0:0:0:
436,240,10217,2,0,P|400:280|368:292,1,80
232,268,10686,1,0,0:0:0:0:
324,376,10920,1,0,0:0:0:0:
320,160,11155,1,0,0:0:0:0:
232,268,11389,1,0,0:0:0:0:
440,204,11624,1,0,0:0:0:0:
288,52,11858,6,0,L|208:68,2,80
424,28,12561,1,0,0:0:0:0:
352,152,12795,1,0,0:0:0:0:
492,124,13030,1,0,0:0:0:0:
280,268,13264,1,0,0:0:0:0:
60,60,13733,1,0,0:0:0:0:
164,348,14202,1,0,0:0:0:0:
256,60,14670,2,0,L|256:32,2,20
256,88,14905,2,0,L|256:176,1,80
380,320,15374,5,0,0:0:0:0:
412,300,15491,1,0,0:0:0:0:
432,268,15608,1,0,0:0:0:0:
292,164,15842,1,0,0:0:0:0:
212,320,16077,5,0,0:0:0:0:
180,300,16194,1,0,0:0:0:0:
160,268,16311,1,0,0:0:0:0:
292,164,16545,1,0,0:0:0:0:
160,44,16780,2,0,L|80:44,1,80
252,84,17249,5,0,0:0:0:0:
288,84,17366,1,0,0:0:0:0:
324,84,17483,1,0,0:0:0:0:
196,204,17717,1,0,0:0:0:0:
372,204,17952,1,0,0:0:0:0:
408,204,18069,1,0,0:0:0:0:
444,204,18186,1,0,0:0:0:0:
316,328,18420,1,0,0:0:0:0:
196,204,18655,2,0,P|152:192|116:192,1,80
284,108,19124,5,0,0:0:0:0:
320,100,19241,1,0,0:0:0:0:
352,80,19358,1,0,0:0:0:0:
184,28,19592,1,0,0:0:0:0:
204,204,19827,1,0,0:0:0:0:
224,232,19944,1,0,0:0:0:0:
256,248,20061,1,0,0:0:0:0:
432,272,20295,1,0,0:0:0:0:
256,248,20530,2,0,P|208:264|184:280,1,80
56,160,20999,6,0,P|124:112|148:36,1,160
324,41,21702,2,0,P|350:115|415:159,1,160
