osu file format v14

[General]
AudioFilename: audio22222.mp3
AudioLeadIn: 0
PreviewTime: 45842
Countdown: 1
SampleSet: Soft
StackLeniency: 0.4
Mode: 0
LetterboxInBreaks: 1
WidescreenStoryboard: 1

[Editor]
Bookmarks: 8216,15951,22982,30951,45951
DistanceSpacing: 1.05
BeatDivisor: 4
GridSize: 4
TimelineZoom: 1

[Metadata]
Title:Catch You Catch Me (TV Size)
TitleUnicode:Catch You Catch Me (TV Size)
Artist:Gumi
ArtistUnicode:グミ
Creator:Chanmann
Version:Normal
Source:カードキャプターさくら
Tags:Card Captor Sakura Magical Girl Cardcaptors Shoujo Shojo 少女 anime japanese j-pop jpop j pop opening op1 恵み 日向 megumi hinata gummy meg rock *mgrck g.e.m gem
BeatmapID:3488537
BeatmapSetID:1706725

[Difficulty]
HPDrainRate:3
CircleSize:4
OverallDifficulty:4
ApproachRate:5
SliderMultiplier:1.44
SliderTickRate:2

[Events]
//Background and Video events
0,0,"sakura.png",0,0
Video,-1966,"61s4o4.mp4"
//Break Periods
2,8425,14291
//Storyboard Layer 0 (Background)
//Storyboard Layer 1 (Fail)
//Storyboard Layer 2 (Pass)
//Storyboard Layer 3 (Foreground)
//Storyboard Layer 4 (Overlay)
//Storyboard Sound Samples

[TimingPoints]
960,468.75,4,2,0,50,1,0
6350,-100,4,2,0,70,0,0
15960,-100,4,2,0,60,0,0
30022,-100,4,2,0,70,0,0
45960,-100,4,2,0,80,0,1
64710,-100,4,2,0,70,0,0
72678,-238.095238095238,4,2,0,60,0,0
72795,-238.095238095238,4,2,0,5,0,0

[Colours]
Combo1 : 255,255,128
Combo2 : 128,255,128
Combo3 : 0,128,255
Combo4 : 255,128,255

[HitObjects]
256,346,960,37,6,0:0:0:0:
256,120,1663,2,0,L|256:264,2,144,2|2|2,0:0|0:0|0:0,0:0:0:0:
159,264,3538,2,0,L|159:120,2,144,2|2|2,0:0|0:0|0:0,0:0:0:0:
353,120,5413,2,0,L|353:264,1,144,2|2,0:0|0:0,0:0:0:0:
256,346,6350,5,2,1:1:0:0:
159,264,6819,1,2,1:1:0:0:
256,192,7288,1,2,1:1:0:0:
353,264,7756,1,2,1:1:0:0:
256,346,8225,1,2,1:1:0:0:
82,137,15491,5,8,1:2:0:0:
74,211,15725,1,0,1:0:0:0:
37,277,15960,2,0,P|132:310|220:246,1,216,6|2,3:2|0:2,0:2:0:0:
430,137,17366,1,10,0:2:0:0:
437,211,17600,1,2,0:2:0:0:
475,277,17835,2,0,P|379:310|291:246,1,216,2|2,3:2|0:2,0:2:0:0:
256,24,19241,1,10,0:2:0:0:
186,52,19475,1,2,0:2:0:0:
184,128,19710,2,0,P|259:195|328:128,1,216,2|2,3:2|0:2,0:2:0:0:
136,244,21116,6,0,L|129:323,1,72,10|2,0:2|0:2,0:0:0:0:
191,363,21585,2,0,B|227:370|256:341|256:341|285:312|321:320,1,144,2|8,3:2|0:2,0:2:0:0:
379,369,22288,1,2,0:2:0:0:
430,247,22991,37,10,0:2:0:0:
437,172,23225,1,2,0:0:0:0:
475,107,23460,2,0,P|380:74|292:138,1,216,2|2,3:2|0:2,0:2:0:0:
82,247,24866,1,10,0:2:0:0:
74,172,25100,1,2,0:0:0:0:
37,107,25335,2,0,P|133:74|221:138,1,216,2|2,3:2|0:2,0:2:0:0:
256,347,26741,6,0,L|335:340,1,72,10|2,0:2|0:2,0:0:0:0:
352,269,27210,2,0,P|351:202|291:156,1,144,2|8,3:2|0:2,0:2:0:0:
217,156,27913,2,0,P|162:199|160:269,1,144,2|2,3:2|0:0,0:2:0:0:
184,340,28616,2,0,L|256:347,1,72,8|2,0:2|3:2,0:2:0:0:
256,268,29085,5,2,1:2:0:0:
256,105,29553,2,0,L|256:25,1,72,10|2,0:0|0:0,0:0:0:0:
150,264,30491,21,8,0:0:0:0:
150,264,30960,2,0,B|198:280|254:247|255:199|256:192|256:184|257:136|313:103|361:119,1,288,6|0,1:2|1:0,0:0:0:0:
361,264,32366,1,10,0:0:0:0:
361,264,32835,2,0,B|313:280|257:247|256:199|256:192|255:184|254:136|198:103|150:119,1,288,2|0,1:2|1:0,0:0:0:0:
116,259,34241,5,10,0:0:0:0:
256,300,34710,2,0,B|220:212|291:172|258:88,2,216,2|2|10,1:2|0:0|0:0,0:0:0:0:
189,336,36350,1,2,0:0:0:0:
256,376,36585,2,0,P|321:381|375:327,1,144,2|10,1:2|0:2,0:2:0:0:
493,235,37522,2,0,P|498:170|444:116,1,144,2|10,1:2|0:2,0:2:0:0:
331,236,38460,6,0,L|337:318,2,72,6|2|8,1:2|0:0|0:1,0:0:0:0:
179,235,39397,2,0,L|103:199,2,72,2|2|8,1:2|0:0|0:1,0:0:0:0:
256,103,40335,2,0,L|324:55,2,72,2|2|8,1:2|0:0|0:1,0:0:0:0:
331,236,41272,5,2,1:2:0:0:
256,236,41506,1,2,0:0:0:0:
179,235,41741,1,10,1:2:0:0:
256,103,42210,1,4,3:2:0:0:
256,192,42444,12,2,45022,3:0:0:0:
29,382,45960,6,0,L|37:299,1,72,6|2,1:1|0:2,0:0:0:0:
110,320,46428,2,0,L|118:237,1,72,10|2,0:2|0:2,0:0:0:0:
56,204,46897,1,2,1:2:0:0:
200,160,47365,1,10,3:2:0:0:
347,114,47835,5,2,1:0:0:0:
347,114,48069,2,0,P|492:172|435:363,1,360,2|8,1:0|0:0,0:0:0:0:
315,381,49710,5,2,1:2:0:0:
176,303,50178,2,0,P|181:267|153:225,1,72,10|2,0:2|0:2,0:2:0:0:
195,166,50647,2,0,P|162:150|113:163,1,72,2|2,1:2|0:2,0:2:0:0:
73,100,51116,1,10,0:2:0:0:
223,80,51585,6,0,L|238:231,1,144,2|10,2:3|2:2,0:0:0:0:
308,89,52522,2,0,L|323:240,1,144,2|10,1:3|2:2,2:3:0:0:
280,375,53460,6,0,L|371:383,1,72,6|2,1:2|0:2,0:0:0:0:
427,384,53928,1,10,0:2:0:0:
358,256,54397,2,0,L|428:196,1,72,2|2,1:2|0:2,0:0:0:0:
467,157,54866,1,10,0:2:0:0:
363,52,55335,5,2,1:1:0:0:
363,52,55569,2,0,P|199:40|176:216,1,360,2|8,1:1|0:0,0:0:0:0:
13,257,57210,38,0,L|169:329,1,144,6|10,1:2|0:2,0:0:0:0:
197,370,57913,1,2,0:2:0:0:
251,318,58147,2,0,L|381:257,1,144,2|10,1:2|0:2,0:0:0:0:
474,123,59085,6,0,L|467:202,1,72,2|2,1:2|0:2,0:0:0:0:
394,178,59553,2,0,L|400:106,1,72,10|2,0:2|0:2,0:0:0:0:
325,91,60022,2,0,L|319:163,1,72,2|2,1:2|0:2,0:0:0:0:
259,204,60491,21,10,1:1:0:0:
259,204,60725,2,2,B|268:152|268:152|304:196|304:196|361:189|361:189|332:240|332:240|356:290|356:290|300:278|300:278|256:316|256:316|252:259|252:259|209:234,1,504,6|8,1:1|0:2,0:0:0:0:
141,286,62600,37,6,1:1:0:0:
12,204,63069,1,6,1:1:0:0:
52,58,63538,1,6,1:1:0:0:
203,52,64006,1,6,1:1:0:0:
256,192,64475,1,6,1:1:0:0:
338,376,65178,21,10,0:0:0:0:
436,260,65647,2,0,B|460:192|460:192|436:124,1,144,2|10,3:2|0:0,0:0:0:0:
484,66,66350,1,2,0:0:0:0:
350,8,66819,6,0,L|341:99,2,72,2|10|2,0:0|0:0|0:0,0:0:0:0:
208,36,67756,2,0,L|201:107,2,72,2|10|2,0:0|0:0|0:0,0:0:0:0:
73,88,68694,5,2,0:1:0:0:
19,141,68928,2,0,P|39:204|118:228,1,144,10|2,0:1|3:2,0:0:0:0:
152,291,69631,1,2,0:0:0:0:
210,243,69866,2,0,L|297:250,1,72,10|2,0:0|0:1,0:0:0:0:
370,363,70569,5,10,0:1:0:0:
463,257,71038,1,10,0:1:0:0:
378,140,71506,1,10,0:1:0:0:
281,248,71975,1,2,1:1:0:0:
324,76,72678,38,0,B|362:28|319:-15|272:0|255:29|255:29|215:9|164:20|153:85|207:128|283:141|283:141|310:102|373:120,1,483.839985234375,6|0,3:2|0:0,0:0:0:0:
