osu file format v14

[General]
AudioFilename: audio22222.mp3
AudioLeadIn: 0
PreviewTime: 45842
Countdown: 1
SampleSet: Soft
StackLeniency: 0.4
Mode: 0
LetterboxInBreaks: 1
WidescreenStoryboard: 1

[Editor]
Bookmarks: 8229,15964,30964,45964,68698
DistanceSpacing: 0.75
BeatDivisor: 4
GridSize: 4
TimelineZoom: 1

[Metadata]
Title:Catch You Catch Me (TV Size)
TitleUnicode:Catch You Catch Me (TV Size)
Artist:Gumi
ArtistUnicode:グミ
Creator:Chanmann
Version:Easy
Source:カードキャプターさくら
Tags:Card Captor Sakura Magical Girl Cardcaptors Shoujo Shojo 少女 anime japanese j-pop jpop j pop opening op1 恵み 日向 megumi hinata gummy meg rock *mgrck g.e.m gem
BeatmapID:3489885
BeatmapSetID:1706725

[Difficulty]
HPDrainRate:3
CircleSize:3
OverallDifficulty:3
ApproachRate:4
SliderMultiplier:0.96
SliderTickRate:2

[Events]
//Background and Video events
0,0,"sakura.png",0,0
Video,-1966,"61s4o4.mp4"
//Break Periods
2,8425,14171
//Storyboard Layer 0 (Background)
//Storyboard Layer 1 (Fail)
//Storyboard Layer 2 (Pass)
//Storyboard Layer 3 (Foreground)
//Storyboard Layer 4 (Overlay)
//Storyboard Sound Samples

[TimingPoints]
960,468.75,4,2,0,50,1,0
6350,-100,4,2,0,70,0,0
15960,-100,4,2,0,60,0,0
30022,-100,4,2,0,70,0,0
45960,-100,4,2,0,80,0,1
64710,-100,4,2,0,70,0,0
72678,-100,4,2,0,60,0,0
72795,-100,4,2,0,5,0,0

[Colours]
Combo1 : 255,255,128
Combo2 : 128,255,128
Combo3 : 0,128,255
Combo4 : 255,128,255

[HitObjects]
256,336,960,37,6,0:0:0:0:
256,192,1663,2,0,L|256:88,2,96,2|2|2,0:0|0:0|0:0,0:0:0:0:
160,96,3538,2,0,L|160:192,2,96,2|2|2,0:0|0:0|0:0,0:0:0:0:
352,96,5413,2,0,L|352:192,1,96,2|2,0:0|0:0,0:0:0:0:
256,192,6350,5,2,1:1:0:0:
160,192,6819,1,2,1:1:0:0:
160,96,7288,1,2,1:1:0:0:
256,96,7756,1,2,1:1:0:0:
336,144,8225,1,2,1:1:0:0:
104,192,15491,5,8,1:2:0:0:
52,272,15960,2,0,P|102:321|172:323,1,144,6|2,3:2|0:2,0:2:0:0:
292,240,17366,1,10,0:2:0:0:
339,322,17835,2,0,P|409:321|460:272,1,144,2|2,3:2|0:2,0:2:0:0:
380,152,19241,1,10,0:2:0:0:
320,77,19710,2,0,P|256:105|192:77,1,144,2|2,3:2|0:2,0:2:0:0:
104,191,21116,5,10,0:2:0:0:
143,278,21585,1,2,3:2:0:0:
256,192,22288,1,2,0:2:0:0:
408,192,22991,37,10,0:2:0:0:
460,112,23460,2,0,P|410:63|340:61,1,144,2|2,3:2|0:2,0:2:0:0:
220,144,24866,1,10,0:2:0:0:
172,62,25335,2,0,P|102:63|52:112,1,144,2|2,3:2|0:2,0:2:0:0:
132,232,26741,5,10,0:2:0:0:
192,308,27210,2,0,P|256:336|320:308,2,144,2|2|8,3:2|3:2|0:2,0:2:0:0:
256,240,29085,5,2,1:2:0:0:
256,96,29788,1,2,0:0:0:0:
372,192,30491,21,8,0:0:0:0:
452,244,30960,2,0,B|443:290|391:324|382:291|331:325|322:372,1,192,6|0,1:2|1:0,0:0:0:0:
256,304,32366,1,10,0:0:0:0:
189,372,32835,2,0,B|180:325|129:291|120:324|68:290|60:244,1,192,2|0,1:2|1:0,0:0:0:0:
120,168,34241,5,10,0:0:0:0:
184,96,34710,2,0,B|246:71|262:116|325:96,2,144,2|2|10,1:2|0:0|0:0,0:0:0:0:
208,192,36585,2,0,P|192:236|216:288,1,96,2|10,1:2|0:2,0:2:0:0:
304,280,37522,2,0,P|320:236|305:192,1,96,2|10,1:2|0:2,0:2:0:0:
256,108,38460,5,6,1:2:0:0:
84,192,39397,1,2,1:2:0:0:
256,276,40335,1,2,1:2:0:0:
428,192,41272,1,2,1:2:0:0:
256,192,42210,6,0,B|312:114|312:114|256:36|256:36|164:66|164:66|164:162,1,384,4|2,3:2|3:0,0:0:0:0:
48,376,45960,6,0,L|39:280,1,96,6|10,1:1|0:2,0:0:0:0:
129,313,46897,1,2,1:2:0:0:
120,217,47366,1,10,3:2:0:0:
45,155,47835,2,0,P|96:85|296:107,1,288,2|8,1:0|0:0,0:0:0:0:
340,168,49710,22,0,P|375:139|432:140,1,96,2|10,1:2|0:2,0:2:0:0:
494,202,50647,2,0,P|501:246|472:295,1,96,2|10,1:2|0:2,0:2:0:0:
387,318,51585,2,0,P|344:302|316:252,2,96,2|10|2,2:3|2:2|1:3,0:0:0:0:
464,144,53460,21,6,1:2:0:0:
368,135,53928,1,10,0:2:0:0:
400,225,54397,2,0,L|304:216,1,96,2|10,1:2|0:2,0:0:0:0:
244,292,55335,2,0,P|136:264|128:96,1,288,2|8,1:1|0:0,0:0:0:0:
156,18,57210,22,0,L|252:58,1,96,6|10,1:2|0:2,0:0:0:0:
304,130,58147,2,0,L|400:90,1,96,2|10,1:2|0:2,0:0:0:0:
466,31,59085,1,2,1:2:0:0:
506,117,59553,1,10,0:2:0:0:
435,182,60022,2,0,L|299:236,1,144,2|6,1:2|1:1,0:0:0:0:
32,100,62600,5,6,1:1:0:0:
88,22,63069,1,6,1:1:0:0:
179,51,63538,1,6,1:1:0:0:
179,147,64006,1,6,1:1:0:0:
88,177,64475,1,6,1:1:0:0:
11,299,65178,5,10,0:0:0:0:
77,368,65647,2,0,B|142:338|142:338|224:355,1,144,2|2,3:2|0:0,0:0:0:0:
309,377,66819,2,0,L|385:312,1,96,2|2,0:0|0:0,0:0:0:0:
312,249,67756,2,0,L|320:149,1,96,2|2,0:0|0:0,0:0:0:0:
444,80,68928,37,10,0:1:0:0:
369,18,69397,2,0,B|300:1|300:1|234:33,1,144,2|2,3:2|0:1,0:0:0:0:
161,96,70569,1,10,0:1:0:0:
168,191,71038,1,10,0:1:0:0:
71,198,71506,1,10,0:1:0:0:
64,104,71975,1,2,1:1:0:0:
256,192,72678,37,6,3:2:0:0:
256,192,72913,12,0,76428,0:0:0:0:
