osu file format v14

[General]
AudioFilename: audio.mp3
AudioLeadIn: 0
PreviewTime: 58911
Countdown: 0
SampleSet: Normal
StackLeniency: 0.7
Mode: 2
LetterboxInBreaks: 0
WidescreenStoryboard: 1

[Editor]
Bookmarks: 16280,25819,35665,45511,50434
DistanceSpacing: 2.5
BeatDivisor: 4
GridSize: 8
TimelineZoom: 2.1

[Metadata]
Title:Strawberry Trapper
TitleUnicode:Strawberry Trapper
Artist:Guilty Kiss
ArtistUnicode:Guilty Kiss
Creator:Sanyi
Version:Rain
Source:Lovelive! Sunshine!!
Tags:japanese rock verti xinely -joakh spectator spec chickenbible secre bastian ラブライブ!サンシャイン!! love live school idol project suzuki aina 鈴木愛奈 aida rikako 逢田梨香子 kobayashi aika 小林愛香 ohara mari 小原鞠莉 sakurauchi riko 桜内梨子 tsushima yoshiko 津島善子
BeatmapID:3473297
BeatmapSetID:1134557

[Difficulty]
HPDrainRate:5.5
CircleSize:4
OverallDifficulty:9
ApproachRate:9
SliderMultiplier:1.7
SliderTickRate:2

[Events]
//Background and Video events
0,0,"bg.jpg",0,0
//Break Periods
//Storyboard Layer 0 (Background)
//Storyboard Layer 1 (Fail)
//Storyboard Layer 2 (Pass)
//Storyboard Layer 3 (Foreground)
//Storyboard Layer 4 (Overlay)
//Storyboard Sound Samples

[TimingPoints]
1219,307.692307692308,4,2,1,30,1,0
3680,-100,4,2,1,40,0,0
5988,-100,4,1,1,60,0,1
15834,-100,4,2,1,50,0,0
15911,-100,4,2,1,40,0,0
25680,-100,4,1,1,50,0,0
55372,-100,4,1,1,55,0,0
57988,-100,4,1,1,40,0,0
58911,-100,4,1,1,70,0,1
78757,-100,4,1,1,50,0,0
93526,-100,4,1,1,15,0,0

[Colours]
Combo1 : 125,0,125
Combo2 : 255,255,64
Combo3 : 0,74,149
Combo4 : 179,0,0

[HitObjects]
388,349,1219,6,0,P|426:263|376:210,1,170,2|2,0:0|0:0,0:0:0:0:
298,198,1680,1,2,0:0:0:0:
452,127,1988,1,2,0:0:0:0:
367,124,2142,1,2,0:0:0:0:
452,127,2295,1,2,0:0:0:0:
299,234,2603,5,2,0:0:0:0:
384,232,2757,1,2,0:0:0:0:
469,229,2911,1,2,0:0:0:0:
384,154,3065,1,2,0:0:0:0:
299,155,3219,1,2,0:0:0:0:
312,75,3372,1,2,0:0:0:0:
397,74,3526,1,2,0:0:0:0:
235,318,3680,6,0,L|57:319,1,170,2|2,0:0|0:0,0:0:0:0:
151,246,4142,1,0,0:0:0:0:
304,165,4449,1,0,0:0:0:0:
219,162,4603,1,2,0:0:0:0:
134,161,4757,1,0,0:0:0:0:
296,282,4911,6,0,L|388:282,1,85
296,282,5219,2,0,L|279:186,1,85,2|0,0:0|0:0,0:0:0:0:
365,184,5526,1,2,1:0:0:0:
463,183,5680,1,2,1:0:0:0:
378,106,5834,1,2,1:0:0:0:
123,334,5988,6,0,P|68:258|114:227,1,170,6|2,0:0|0:0,0:0:0:0:
197,222,6449,2,0,L|282:221,1,85,8|0,0:0|0:0,0:0:0:0:
445,145,6757,1,2,0:0:0:0:
360,144,6911,1,2,0:0:0:0:
445,145,7065,1,8,0:0:0:0:
213,149,7219,6,0,L|35:149,1,170,6|2,0:0|0:0,0:0:0:0:
128,78,7680,2,0,L|215:79,1,85,8|0,0:0|0:0,0:0:0:0:
376,295,7988,1,2,0:0:0:0:
291,293,8142,1,2,0:0:0:0:
206,290,8295,1,8,0:0:0:0:
436,365,8449,6,0,P|463:297|381:236,1,170,6|2,0:0|0:0,0:0:0:0:
315,158,8911,2,0,L|401:157,1,85,8|0,0:0|0:0,0:0:0:0:
237,88,9219,1,2,0:0:0:0:
152,86,9372,1,2,0:0:0:0:
152,86,9526,1,10,0:0:0:0:
382,352,9680,6,0,P|445:276|390:229,1,170,6|2,0:0|0:0,0:0:0:0:
325,216,10142,1,8,0:0:0:0:
88,348,10295,2,0,P|50:288|123:226,1,170,6|2,0:0|0:0,0:0:0:0:
195,222,10757,1,0,0:0:0:0:
450,156,10911,6,0,L|269:155,1,170,6|2,0:0|0:0,0:0:0:0:
442,276,11372,2,0,L|448:182,1,85,8|2,0:0|0:0,0:0:0:0:
285,169,11680,1,8,0:0:0:0:
200,167,11834,1,2,0:0:0:0:
115,166,11988,1,8,0:0:0:0:
345,355,12142,6,0,P|387:280|325:232,1,170,6|2,0:0|0:0,0:0:0:0:
172,225,12603,2,0,L|160:138,1,85,8|2,0:0|0:0,0:0:0:0:
323,131,12911,1,8,0:0:0:0:
408,132,13065,1,2,0:0:0:0:
323,131,13219,1,8,0:0:0:0:
95,305,13372,6,0,L|267:303,1,170,6|2,0:0|0:0,0:0:0:0:
102,228,13834,2,0,L|17:227,1,85,8|2,0:0|0:0,0:0:0:0:
180,159,14142,1,8,0:0:0:0:
193,74,14295,1,2,0:0:0:0:
108,66,14449,1,8,0:0:0:0:
338,305,14603,6,0,L|434:303,2,85,6|2|2,0:0|0:0|0:0,0:0:0:0:
175,302,15065,2,0,L|88:304,1,85,2|0,0:0|0:0,0:0:0:0:
320,235,15372,2,0,P|399:167|351:110,1,170,8|0,0:0|0:0,0:0:0:0:
104,268,15834,6,0,P|49:190|145:88,1,255,14|2,1:0|0:0,0:0:0:0:
296,300,16603,1,2,0:0:0:0:
211,298,16757,2,0,L|202:207,1,85,2|0,0:0|0:0,0:0:0:0:
365,212,17065,6,0,P|416:138|359:105,1,170,2|2,0:0|0:0,0:0:0:0:
281,280,17526,2,0,L|457:278,1,170,2|0,0:0|0:0,0:0:0:0:
365,207,17988,1,0,1:0:0:0:
322,206,18064,1,0,1:0:0:0:
280,205,18141,1,0,1:0:0:0:
118,337,18295,6,0,P|62:259|126:229,1,170,4|2,0:0|0:0,0:0:0:0:
189,222,18757,2,0,P|245:144|181:114,1,170,2|2,0:0|0:0,0:0:0:0:
118,77,19219,2,0,L|203:72,1,85,2|2,0:0|0:0,0:0:0:0:
365,342,19526,6,0,P|399:266|329:220,1,170,2|2,1:2|0:0,0:0:0:0:
255,215,19988,2,0,L|163:213,1,85,2|0,0:0|0:0,0:0:0:0:
387,154,20295,1,2,1:2:0:0:
472,156,20449,2,0,L|464:67,1,85,0|0,1:0|0:0,0:0:0:0:
233,346,20757,6,0,P|155:251|241:186,1,255,6|2,1:2|0:0,0:0:0:0:
323,186,21372,1,2,0:0:0:0:
408,186,21526,1,2,0:0:0:0:
323,186,21680,2,0,L|234:186,1,85,2|0,0:0|0:0,0:0:0:0:
401,348,21988,6,0,P|463:270|412:238,1,170,2|2,1:2|0:0,0:0:0:0:
344,227,22449,2,0,L|430:226,1,85,2|0,0:0|0:0,0:0:0:0:
211,174,22757,1,2,1:0:0:0:
126,176,22911,2,0,L|115:88,1,85,0|2,1:0|1:0,0:0:0:0:
347,318,23219,5,6,1:2:0:0:
256,192,23372,12,0,25065,0:0:0:0:
332,340,25219,5,8,1:0:0:0:
373,332,25295,1,8,1:0:0:0:
401,301,25372,1,2,1:0:0:0:
405,260,25449,1,2,1:0:0:0:
383,224,25526,1,2,1:0:0:0:
344,209,25603,1,2,1:0:0:0:
172,338,25680,6,0,P|112:246|161:212,1,170,6|0,1:0|0:0,0:0:0:0:
223,201,26142,2,0,L|316:202,1,85,8|0,0:0|0:0,0:0:0:0:
146,200,26449,2,0,L|127:106,1,85,2|0,0:0|0:0,0:0:0:0:
215,109,26757,1,8,0:0:0:0:
377,202,26911,6,0,L|204:202,1,170,2|0,0:0|0:0,0:0:0:0:
292,354,27372,2,0,L|303:260,1,85,8|0,0:0|0:0,0:0:0:0:
139,255,27680,1,2,0:0:0:0:
54,255,27834,1,2,0:0:0:0:
139,255,27988,1,10,0:0:0:0:
356,251,28142,6,0,P|408:181|350:146,1,170,6|2,0:0|0:0,0:0:0:0:
271,144,28603,2,0,L|169:141,1,85,8|0,0:0|0:0,0:0:0:0:
349,333,28911,1,2,0:0:0:0:
447,329,29065,1,2,0:0:0:0:
434,259,29219,1,8,0:0:0:0:
206,185,29372,6,0,L|385:185,1,170,6|2,0:0|0:0,0:0:0:0:
290,110,29834,2,0,L|200:110,1,85,8|0,0:0|0:0,0:0:0:0:
368,283,30142,1,2,0:0:0:0:
381,204,30295,1,2,0:0:0:0:
219,197,30449,2,0,L|117:195,1,85,8|2,0:0|0:0,0:0:0:0:
177,132,30680,1,2,0:0:0:0:
360,349,30757,6,0,P|424:273|371:237,1,170,6|8,0:0|0:0,0:0:0:0:
304,230,31219,1,0,0:0:0:0:
143,340,31372,1,2,0:0:0:0:
58,336,31526,2,0,L|49:243,1,85,2|0,0:0|0:0,0:0:0:0:
268,291,31834,6,0,P|343:249|305:165,1,170,6|2,0:0|0:0,0:0:0:0:
241,160,32295,2,0,L|143:159,1,85,8|0,0:0|0:0,0:0:0:0:
319,339,32603,2,0,L|337:246,1,85,0|2,0:0|0:0,0:0:0:0:
291,248,32834,1,0,0:0:0:0:
121,339,32911,1,2,0:0:0:0:
77,321,32987,1,2,0:0:0:0:
75,280,33064,1,2,0:0:0:0:
117,256,33141,1,2,0:0:0:0:
303,169,33219,6,0,L|411:169,1,85,14|0,0:0|0:0,0:0:0:0:
226,85,33526,2,0,L|126:84,1,85,10|0,0:0|0:0,0:0:0:0:
304,304,33834,2,0,L|202:301,1,85,10|0,0:0|0:0,0:0:0:0:
382,214,34142,2,0,L|468:214,1,85,10|0,0:0|0:0,0:0:0:0:
237,141,34449,6,0,L|340:141,1,85,14|0,0:0|0:0,0:0:0:0:
159,282,34757,2,0,L|69:281,1,85,10|0,0:0|0:0,0:0:0:0:
305,363,35065,2,0,P|340:299|276:239,1,170,8|2,0:0|0:0,0:0:0:0:
222,226,35475,1,2,0:0:0:0:
165,224,35577,1,2,0:0:0:0:
364,231,35680,6,0,L|465:229,1,85,6|2,0:0|0:0,0:0:0:0:
462,140,35988,1,0,0:0:0:0:
449,95,36142,1,0,0:0:0:0:
288,340,36295,2,0,P|245:266|311:224,1,170,8|0,0:0|0:0,0:0:0:0:
386,219,36757,1,0,0:0:0:0:
216,173,36911,5,2,0:0:0:0:
131,171,37065,1,8,0:0:0:0:
118,109,37219,1,0,0:0:0:0:
203,108,37372,1,0,0:0:0:0:
365,317,37526,1,8,0:0:0:0:
280,314,37680,1,8,0:0:0:0:
365,317,37834,1,0,0:0:0:0:
148,302,37988,6,0,P|92:238|148:207,1,170,6|2,0:0|0:0,0:0:0:0:
230,203,38449,2,0,L|316:204,1,85,8|0,0:0|0:0,0:0:0:0:
152,135,38757,1,8,0:0:0:0:
67,134,38911,2,0,L|61:48,1,85,2|0,0:0|0:0,0:0:0:0:
224,234,39219,6,0,L|47:234,1,170,2|8,0:0|0:0,0:0:0:0:
139,308,39680,2,0,L|225:308,1,85,2|0,0:0|0:0,0:0:0:0:
387,200,39988,1,8,0:0:0:0:
302,124,40142,2,0,L|477:123,1,170,0|2,0:0|0:0,0:0:0:0:
242,273,40603,6,0,L|141:272,1,85,6|2,0:0|0:0,0:0:0:0:
144,187,40911,1,0,0:0:0:0:
157,107,41065,1,0,0:0:0:0:
319,352,41219,2,0,P|368:281|293:242,1,170,8|0,0:0|0:0,0:0:0:0:
230,232,41680,1,0,0:0:0:0:
392,155,41834,5,2,0:0:0:0:
307,153,41988,1,8,0:0:0:0:
222,152,42142,2,0,L|206:63,1,85
369,322,42449,2,0,L|459:322,1,85,8|2,0:0|0:0,0:0:0:0:
411,260,42680,1,2,0:0:0:0:
368,259,42757,1,10,0:0:0:0:
151,257,42911,6,0,P|87:195|143:152,1,170,6|2,0:0|0:0,0:0:0:0:
216,91,43372,2,0,L|125:81,1,85,8|0,0:0|0:0,0:0:0:0:
294,254,43680,1,2,0:0:0:0:
379,251,43834,2,0,L|372:157,1,85,0|8,0:0|0:0,0:0:0:0:
210,340,44142,6,0,P|162:253|204:237,1,170,2|2,0:0|0:0,0:0:0:0:
281,235,44603,2,0,L|368:235,1,85,2|0,0:0|0:0,0:0:0:0:
203,168,44911,1,8,0:0:0:0:
118,168,45065,1,0,0:0:0:0:
101,83,45219,1,2,0:0:0:0:
186,81,45372,1,2,0:0:0:0:
441,338,45526,5,14,0:0:0:0:
484,314,45603,2,0,P|504:273|448:225,1,127.5,2|2,0:0|0:0,0:0:0:0:
365,293,45988,1,0,0:0:0:0:
329,270,46064,1,0,0:0:0:0:
311,232,46141,1,2,0:0:0:0:
317,191,46218,1,0,0:0:0:0:
344,159,46295,1,2,0:0:0:0:
384,147,46372,1,2,0:0:0:0:
214,339,46449,5,8,0:0:0:0:
171,315,46526,2,0,P|151:274|207:226,1,127.5,8|2,0:0|0:0,0:0:0:0:
291,224,46911,1,0,0:0:0:0:
333,225,46987,1,0,0:0:0:0:
372,211,47064,1,2,0:0:0:0:
403,182,47141,1,0,0:0:0:0:
387,139,47218,1,2,0:0:0:0:
225,66,47372,2,0,L|315:66,1,85,2|2,0:0|0:0,0:0:0:0:
154,321,47680,2,0,L|50:321,1,85,8|2,0:0|0:0,0:0:0:0:
114,257,47911,1,2,0:0:0:0:
297,322,47988,5,14,0:0:0:0:
340,298,48065,2,0,P|360:257|304:209,1,127.5,2|2,0:0|0:0,0:0:0:0:
222,201,48449,1,0,0:0:0:0:
188,175,48525,1,0,0:0:0:0:
170,140,48602,1,2,0:0:0:0:
209,128,48679,1,0,0:0:0:0:
252,123,48756,1,2,0:0:0:0:
294,118,48833,1,2,0:0:0:0:
122,321,48911,5,8,0:0:0:0:
79,297,48988,2,0,P|59:256|115:208,1,127.5,8|0,0:0|0:0,0:0:0:0:
197,207,49372,1,0,0:0:0:0:
232,185,49448,1,0,0:0:0:0:
241,145,49525,1,0,0:0:0:0:
219,110,49602,1,0,0:0:0:0:
179,101,49679,1,2,0:0:0:0:
229,88,49757,1,2,0:0:0:0:
412,361,49834,2,0,P|495:255|401:173,1,255,14|0,0:0|0:0,0:0:0:0:
389,175,50372,1,0,0:0:0:0:
193,279,50449,6,0,L|95:275,1,85,6|2,0:0|0:0,0:0:0:0:
22,199,50757,2,0,L|115:194,1,85,0|2,0:0|0:0,0:0:0:0:
152,191,50988,1,0,0:0:0:0:
310,340,51065,1,10,0:0:0:0:
399,340,51219,2,0,P|441:265|377:222,1,170
131,122,51680,6,0,L|226:122,1,85,2|2,0:0|0:0,0:0:0:0:
302,121,51988,2,0,L|394:120,1,85,0|2,0:0|0:0,0:0:0:0:
342,62,52219,1,2,0:0:0:0:
174,335,52295,2,0,L|165:240,1,85,10|0,0:0|0:0,0:0:0:0:
252,245,52603,2,0,L|348:245,1,85,2|0,0:0|0:0,0:0:0:0:
80,143,52911,5,6,0:0:0:0:
233,136,53065,1,2,0:0:0:0:
233,136,53372,1,2,0:0:0:0:
395,137,53526,1,2,0:0:0:0:
395,137,53834,1,2,0:0:0:0:
233,136,53988,1,2,0:0:0:0:
343,293,54295,6,0,L|391:291,1,42.5,2|2,0:0|0:0,0:0:0:0:
430,292,54449,2,0,L|432:193,1,85,2|2,0:0|0:0,0:0:0:0:
346,202,54757,2,0,L|257:200,1,85,2|2,0:0|0:0,0:0:0:0:
347,127,55065,2,0,L|447:120,1,85,2|2,0:0|0:0,0:0:0:0:
176,311,55372,5,6,0:0:0:0:
36,314,55526,1,6,0:0:0:0:
23,269,55602,1,2,0:0:0:0:
36,225,55679,1,2,0:0:0:0:
176,311,55834,1,14,0:0:0:0:
316,308,55988,1,6,0:0:0:0:
329,263,56064,1,2,0:0:0:0:
316,219,56141,1,8,0:0:0:0:
176,311,56295,1,2,0:0:0:0:
414,309,56449,6,0,L|420:215,1,85,12|0,0:0|0:0,0:0:0:0:
334,142,56757,1,0,0:0:0:0:
420,143,56911,1,0,0:0:0:0:
334,142,57065,1,0,0:0:0:0:
420,143,57219,1,2,0:0:0:0:
259,222,57372,1,2,0:0:0:0:
174,219,57526,1,2,0:0:0:0:
404,332,57680,1,8,0:0:0:0:
285,328,57988,6,0,L|195:326,2,85,2|2|2,2:0|2:0|2:0,0:0:0:0:
370,252,58449,1,2,2:0:0:0:
208,192,58603,2,0,L|75:190,1,127.5,2|0,2:0|0:0,0:0:0:0:
318,196,58911,6,0,P|377:126|318:84,1,170,6|2,0:0|0:0,0:0:0:0:
248,75,59372,2,0,L|160:76,1,85,8|0,0:0|0:0,0:0:0:0:
326,282,59680,1,2,0:0:0:0:
411,282,59834,1,2,0:0:0:0:
326,282,59988,1,8,0:0:0:0:
96,197,60142,6,0,L|271:197,1,170,2|2,0:0|0:0,0:0:0:0:
181,124,60603,2,0,L|92:122,1,85,8|0,0:0|0:0,0:0:0:0:
259,289,60911,1,2,0:0:0:0:
174,285,61065,1,2,0:0:0:0:
89,281,61219,1,8,0:0:0:0:
360,232,61372,6,0,P|417:160|353:124,1,170,6|2,0:0|0:0,0:0:0:0:
286,60,61834,2,0,L|376:59,1,85,8|0,0:0|0:0,0:0:0:0:
208,278,62142,1,2,0:0:0:0:
123,275,62295,1,2,0:0:0:0:
38,271,62449,1,8,0:0:0:0:
268,239,62603,6,0,P|301:176|217:127,1,170,2|2,0:0|0:0,0:0:0:0:
148,119,63065,2,0,L|235:117,1,85,8|0,0:0|0:0,0:0:0:0:
395,272,63372,1,2,0:0:0:0:
310,270,63526,1,2,0:0:0:0:
395,272,63680,1,8,0:0:0:0:
124,244,63834,6,0,P|71:174|123:144,1,170,6|2,0:0|0:0,0:0:0:0:
207,144,64295,2,0,L|291:145,1,85,8|0,0:0|0:0,0:0:0:0:
129,64,64603,1,2,0:0:0:0:
44,65,64757,1,2,0:0:0:0:
44,65,64911,1,8,0:0:0:0:
274,339,65065,6,0,P|324:264|262:227,1,170,2|2,0:0|0:0,0:0:0:0:
189,156,65526,2,0,L|276:152,1,85,8|0,0:0|0:0,0:0:0:0:
111,328,65834,1,2,0:0:0:0:
26,327,65988,1,2,0:0:0:0:
109,248,66142,2,0,L|162:247,1,42.5,8|8,0:0|0:0,0:0:0:0:
109,248,66295,2,0,L|61:249,1,42.5,2|2,0:0|0:0,0:0:0:0:
283,243,66449,6,0,P|338:165|292:137,1,170,6|8,0:0|0:0,0:0:0:0:
134,245,66911,2,0,L|126:141,1,85,6|0,0:0|0:0,0:0:0:0:
346,327,67219,2,0,L|436:324,1,85,6|0,0:0|0:0,0:0:0:0:
176,326,67526,6,0,P|131:237|175:218,1,170,6|0,0:0|0:0,0:0:0:0:
332,213,67988,2,0,L|440:212,1,85,6|0,0:0|0:0,0:0:0:0:
331,136,68295,2,0,L|321:90,1,42.5,2|2,2:0|2:0,0:0:0:0:
365,93,68449,2,0,L|434:93,1,42.5,2|2,2:0|2:0,0:0:0:0:
451,96,68603,2,0,L|461:50,1,42.5,2|2,2:0|2:0,0:0:0:0:
223,300,68757,6,0,L|49:295,1,170,6|2,1:0|0:0,0:0:0:0:
139,225,69219,2,0,L|226:227,1,85,8|0,0:0|0:0,0:0:0:0:
386,159,69526,1,2,0:0:0:0:
301,157,69680,1,2,0:0:0:0:
386,159,69834,1,8,0:0:0:0:
156,335,69988,6,0,P|105:258|161:233,1,170,6|2,0:0|0:0,0:0:0:0:
237,182,70449,2,0,L|150:177,1,85,8|0,0:0|0:0,0:0:0:0:
315,260,70757,1,2,0:0:0:0:
400,260,70911,1,2,0:0:0:0:
413,180,71065,1,8,0:0:0:0:
141,100,71219,6,0,L|317:99,1,170,6|2,0:0|0:0,0:0:0:0:
226,170,71680,2,0,L|140:170,1,85,8|0,0:0|0:0,0:0:0:0:
304,307,71988,1,2,0:0:0:0:
389,306,72142,1,2,0:0:0:0:
304,307,72295,1,8,0:0:0:0:
73,302,72449,6,0,P|32:226|90:193,1,170,6|2,0:0|0:0,0:0:0:0:
175,189,72911,2,0,L|261:189,1,85,8|0,0:0|0:0,0:0:0:0:
423,96,73219,1,2,0:0:0:0:
339,95,73372,1,2,0:0:0:0:
423,96,73526,1,8,0:0:0:0:
339,95,73680,1,2,0:0:0:0:
67,330,73834,6,0,L|174:323,1,85,6|0,0:0|0:0,0:0:0:0:
314,318,74142,2,0,L|325:225,1,85,8|0,0:0|0:0,0:0:0:0:
239,217,74449,1,2,0:0:0:0:
154,220,74603,2,0,L|58:220,1,85,0|8,0:0|0:0,0:0:0:0:
298,171,74911,6,0,P|328:113|251:54,1,170,6|0,0:0|0:0,0:0:0:0:
174,52,75372,2,0,L|86:52,1,85,8|0,0:0|0:0,0:0:0:0:
252,350,75680,2,0,L|258:255,1,85,2|0,0:0|0:0,0:0:0:0:
172,257,75988,1,8,0:0:0:0:
444,341,76142,6,0,P|493:269|432:233,1,170,6|0,0:0|0:0,0:0:0:0:
278,224,76603,2,0,L|191:224,1,85,8|2,0:0|0:0,0:0:0:0:
356,150,76911,1,8,0:0:0:0:
271,148,77065,1,2,0:0:0:0:
356,150,77219,1,8,0:0:0:0:
102,346,77372,6,0,P|53:274|114:238,1,170,6|0,0:0|0:0,0:0:0:0:
268,229,77833,2,0,L|355:229,1,85,8|2,0:0|0:0,0:0:0:0:
189,340,78142,2,0,P|106:242|189:189,1,255,8|2,0:0|0:0,0:0:0:0:
401,338,78757,6,0,L|486:339,1,85,6|2,0:0|0:0,0:0:0:0:
401,338,79065,2,0,L|300:338,1,85,2|0,0:0|0:0,0:0:0:0:
154,336,79372,2,0,L|144:247,1,85,8|0,0:0|0:0,0:0:0:0:
230,247,79680,2,0,L|322:247,1,85,2|0,0:0|0:0,0:0:0:0:
152,152,79988,6,0,L|241:152,1,85,2|8,0:0|0:0,0:0:0:0:
152,88,80295,2,0,L|244:87,1,85,2|0,0:0|0:0,0:0:0:0:
400,274,80603,2,0,L|305:274,1,85,8|0,0:0|0:0,0:0:0:0:
229,273,80911,2,0,L|144:273,1,85,2|2,0:0|0:0,0:0:0:0:
371,227,81219,5,12,0:0:0:0:
373,184,81295,1,8,0:0:0:0:
375,142,81372,1,2,0:0:0:0:
290,134,81526,1,2,0:0:0:0:
128,312,81680,2,0,L|41:311,3,85,10|10|10|10,0:0|0:0|0:0|0:0,0:0:0:0:
127,238,82295,1,10,0:0:0:0:
289,351,82449,5,12,0:0:0:0:
330,344,82525,1,8,0:0:0:0:
365,320,82602,1,2,0:0:0:0:
385,283,82679,1,2,0:0:0:0:
386,241,82756,1,8,0:0:0:0:
369,203,82833,1,8,0:0:0:0:
336,176,82910,1,2,0:0:0:0:
295,167,82987,1,2,0:0:0:0:
136,330,83065,2,0,P|91:243|129:227,1,170,8|2,0:0|0:0,0:0:0:0:
401,99,83526,6,0,L|216:99,1,170,6|0,0:0|0:0,0:0:0:0:
394,285,83988,2,0,L|402:193,1,85,6|0,0:0|0:0,0:0:0:0:
316,282,84295,1,8,0:0:0:0:
282,256,84371,1,8,0:0:0:0:
268,217,84448,1,2,0:0:0:0:
278,176,84525,1,2,0:0:0:0:
309,148,84602,1,2,0:0:0:0:
350,141,84679,1,2,0:0:0:0:
157,340,84757,6,0,P|93:263|145:234,1,170,6|0,0:0|0:0,0:0:0:0:
288,230,85219,2,0,L|297:135,1,85,6|0,0:0|0:0,0:0:0:0:
211,135,85526,2,0,L|143:134,1,42.5,2|0,0:0|0:0,0:0:0:0:
126,134,85680,2,0,L|69:135,1,42.5,10|10,0:0|0:0,0:0:0:0:
83,134,85834,2,0,L|136:132,1,42.5,2|2,0:0|0:0,0:0:0:0:
320,324,85988,6,0,L|491:320,1,170,6|0,0:0|0:0,0:0:0:0:
328,238,86449,2,0,L|311:146,1,85,6|0,0:0|0:0,0:0:0:0:
399,143,86757,1,0,0:0:0:0:
484,229,86911,1,8,0:0:0:0:
476,187,86987,1,8,0:0:0:0:
468,145,87064,1,2,0:0:0:0:
194,71,87219,6,0,L|371:70,1,170,6|2,0:0|0:0,0:0:0:0:
202,190,87680,2,0,L|290:190,1,85,10|2,0:0|0:0,0:0:0:0:
450,270,87988,1,14,0:0:0:0:
365,265,88142,1,8,0:0:0:0:
450,270,88295,1,8,0:0:0:0:
178,343,88449,6,0,P|124:266|175:230,1,170,6|0,0:0|0:0,0:0:0:0:
331,224,88911,2,0,L|418:223,1,85,14|0,0:0|0:0,0:0:0:0:
373,164,89142,1,0,0:0:0:0:
330,165,89219,1,10,0:0:0:0:
169,330,89372,2,0,L|156:234,1,85,6|0,0:0|0:0,0:0:0:0:
432,237,89680,6,0,L|260:238,1,170,6|0,0:0|0:0,0:0:0:0:
425,168,90142,2,0,L|428:76,1,85,14|0,0:0|0:0,0:0:0:0:
385,82,90372,1,0,0:0:0:0:
342,78,90449,1,8,0:0:0:0:
180,318,90603,2,0,L|86:317,1,85,6|0,0:0|0:0,0:0:0:0:
369,317,90911,6,0,P|423:248|353:212,1,170,6|0,0:0|0:0,0:0:0:0:
211,196,91372,2,0,L|121:194,1,85,14|0,0:0|0:0,0:0:0:0:
169,133,91603,1,0,0:0:0:0:
211,132,91680,1,0,0:0:0:0:
297,129,91834,1,8,0:0:0:0:
339,129,91910,1,8,0:0:0:0:
382,129,91987,1,2,0:0:0:0:
108,344,92142,6,0,P|41:275|96:234,1,170,14|10,0:0|0:0,0:0:0:0:
238,226,92603,2,0,L|334:226,1,85,8|10,0:0|0:0,0:0:0:0:
160,137,92911,1,14,0:0:0:0:
245,138,93065,1,10,0:0:0:0:
160,137,93219,1,10,0:0:0:0:
431,314,93372,1,14,0:0:0:0:
