osu file format v14

[General]
AudioFilename: audio.mp3
AudioLeadIn: 0
PreviewTime: -1
Countdown: 0
SampleSet: None
StackLeniency: 0.3
Mode: 0
LetterboxInBreaks: 0
WidescreenStoryboard: 0

[Editor]
Bookmarks: 16280,25665,35665,45511,58896,68742,88434
DistanceSpacing: 1.1
BeatDivisor: 4
GridSize: 32
TimelineZoom: 1.6

[Metadata]
Title:Strawberry Trapper
TitleUnicode:Strawberry Trapper
Artist:Guilty Kiss
ArtistUnicode:Guilty Kiss
Creator:Hakura
Version:SickCollabMans
Source:gay asss anime LOlers
Tags:Mordred
BeatmapID:1744971
BeatmapSetID:833013

[Difficulty]
HPDrainRate:7
CircleSize:4
OverallDifficulty:8.7
ApproachRate:9.3
SliderMultiplier:1.9
SliderTickRate:1

[Events]
//Background and Video events
0,0,"Konachan.com - 237554 2girls bow brown_eyes cropped kneehighs long_hair nagareboshi nishikino_maki petals pink_eyes seifuku short_hair skirt thighhighs waifu2x.jpg",0,0
//Break Periods
//Storyboard Layer 0 (Background)
//Storyboard Layer 1 (Fail)
//Storyboard Layer 2 (Pass)
//Storyboard Layer 3 (Foreground)
//Storyboard Sound Samples

[TimingPoints]
1204,307.692307692308,4,2,0,70,1,0
5973,-83.3333333333333,4,2,0,70,0,0
10280,-71.4285714285714,4,2,0,70,0,0
10896,-83.3333333333333,4,2,0,70,0,0
14588,-71.4285714285714,4,2,0,70,0,0
16280,-133.333333333333,4,2,0,70,0,0
20280,-71.4285714285714,4,2,0,70,0,0
21204,-133.333333333333,4,2,0,70,0,0
23204,-71.4285714285714,4,2,0,70,0,0
26127,-100,4,2,0,70,0,0
29357,-83.3333333333333,4,2,0,70,0,0
30742,-100,4,2,0,70,0,0
58896,-71.4285714285714,4,2,0,70,0,1
68280,-71.4285714285714,4,2,0,70,0,0
68742,-71.4285714285714,4,2,0,70,0,1
78127,-100,4,2,0,70,0,1
78742,-100,4,2,0,70,0,0
83511,-200,4,2,0,70,0,0
83973,-71.4285714285714,4,2,0,70,0,0
84280,-100,4,2,0,70,0,0
84742,-200,4,2,0,70,0,0
85204,-71.4285714285714,4,2,0,70,0,0
85973,-200,4,2,0,70,0,0
86434,-71.4285714285714,4,2,0,70,0,0
86742,-100,4,2,0,70,0,0
87204,-74.0740740740741,4,2,0,70,0,0
88434,-200,4,2,0,70,0,0
88896,-71.4285714285714,4,2,0,70,0,0
89357,-100,4,2,0,70,0,0
89665,-200,4,2,0,70,0,0
90127,-100,4,2,0,70,0,0
90896,-200,4,2,0,70,0,0
91357,-71.4285714285714,4,2,0,70,0,0

[Colours]
Combo1 : 255,155,55
Combo2 : 255,128,128
Combo3 : 255,128,64
Combo4 : 255,83,83

[HitObjects]
13,112,3973,5,0,0:0:0:0:
19,129,4588,1,0,0:0:0:0:
25,146,5204,1,0,0:0:0:0:
202,340,5511,1,0,0:0:0:0:
274,254,5665,1,0,0:0:0:0:
164,235,5819,1,0,0:0:0:0:
312,359,5973,22,0,B|361:372|361:372|513:354,1,170.999994781494
497,334,6280,1,0,0:0:0:0:
384,121,6434,1,0,0:0:0:0:
369,296,6588,1,0,0:0:0:0:
504,68,6742,1,0,0:0:0:0:
512,307,6896,1,0,0:0:0:0:
375,98,7050,1,0,0:0:0:0:
198,367,7204,22,0,B|148:375|148:375|-1:344,1,170.999994781494
23,323,7511,1,0,0:0:0:0:
127,113,7665,1,0,0:0:0:0:
256,308,7819,1,0,0:0:0:0:
14,188,7973,1,0,0:0:0:0:
248,173,8127,1,0,0:0:0:0:
144,382,8281,1,0,0:0:0:0:
124,83,8434,22,0,L|313:75,1,170.999994781494
318,92,8742,1,0,0:0:0:0:
117,202,8896,1,0,0:0:0:0:
370,282,9050,1,0,0:0:0:0:
101,94,9204,1,0,0:0:0:0:
344,187,9357,1,0,0:0:0:0:
133,310,9511,1,0,0:0:0:0:
440,353,9665,22,0,B|460:296|460:296|445:169,1,170.999994781494
433,160,9973,1,0,0:0:0:0:
239,249,10127,1,0,0:0:0:0:
338,0,10280,22,0,B|359:52|359:52|344:187,1,199.499993911743
329,213,10588,1,0,0:0:0:0:
193,48,10742,1,0,0:0:0:0:
167,27,10819,1,0,0:0:0:0:
144,9,10896,22,0,P|62:5|-5:97,1,170.999994781494
0,92,11204,1,0,0:0:0:0:
147,268,11357,1,0,0:0:0:0:
90,77,11511,1,0,0:0:0:0:
160,291,11665,1,0,0:0:0:0:
0,115,11819,1,0,0:0:0:0:
173,314,11973,1,0,0:0:0:0:
347,113,12127,22,0,L|172:120,1,170.999994781494
151,134,12434,1,0,0:0:0:0:
403,231,12588,1,0,0:0:0:0:
257,7,12742,1,0,0:0:0:0:
243,275,12896,1,0,0:0:0:0:
413,66,13050,1,0,0:0:0:0:
151,134,13204,1,0,0:0:0:0:
317,351,13357,22,0,L|325:176,1,170.999994781494
313,153,13665,1,0,0:0:0:0:
455,304,13819,1,0,0:0:0:0:
225,236,13973,1,0,0:0:0:0:
455,168,14127,1,0,0:0:0:0:
225,100,14280,1,0,0:0:0:0:
455,32,14434,1,0,0:0:0:0:
317,351,14588,22,0,B|220:365|220:365|106:342,1,199.499993911743
99,318,14896,1,0,0:0:0:0:
225,100,15050,1,0,0:0:0:0:
228,133,15127,1,0,0:0:0:0:
231,166,15204,1,0,0:0:0:0:
234,198,15280,1,0,0:0:0:0:
237,231,15357,22,0,B|322:214|322:214|387:247|387:247|525:238,1,265.999991882324
297,35,15819,2,0,B|212:18|212:18|147:51|147:51|9:42,1,265.999991882324
18,253,16280,6,0,P|12:216|17:166,1,71.2500027179719
75,117,16588,1,0,0:0:0:0:
108,211,16742,1,0,0:0:0:0:
108,211,16819,1,0,0:0:0:0:
108,211,16896,1,0,0:0:0:0:
182,56,17050,22,0,L|326:49,1,142.500005435944
435,42,17511,1,0,0:0:0:0:
339,168,17665,1,0,0:0:0:0:
339,168,17742,1,0,0:0:0:0:
339,168,17819,1,0,0:0:0:0:
497,189,17973,1,0,0:0:0:0:
495,164,18050,1,0,0:0:0:0:
493,139,18127,1,0,0:0:0:0:
511,287,18280,22,0,P|434:281|356:299,1,142.500005435944
304,370,18742,1,0,0:0:0:0:
287,236,18896,1,0,0:0:0:0:
287,236,18973,1,0,0:0:0:0:
287,236,19050,1,0,0:0:0:0:
228,312,19204,1,0,0:0:0:0:
365,220,19357,1,0,0:0:0:0:
160,365,19511,22,0,P|180:262|171:203,1,142.500005435944
69,188,19973,2,0,P|65:243|73:269,1,71.2500027179719
157,111,20280,21,0,0:0:0:0:
176,225,20434,2,0,B|253:210|253:210|378:274,1,199.499993911743
394,362,20742,2,0,B|377:277|377:277|410:212|410:212|401:74,1,265.999991882324
449,17,21204,21,0,0:0:0:0:
325,144,21357,1,0,0:0:0:0:
325,144,21434,1,0,0:0:0:0:
325,144,21511,1,0,0:0:0:0:
485,93,21665,2,0,L|494:154,2,35.625001358986
335,32,21973,22,0,P|265:56|170:47,1,142.500005435944
102,25,22434,1,0,0:0:0:0:
54,268,22588,1,0,0:0:0:0:
127,156,22742,21,0,0:0:0:0:
159,142,22818,1,0,0:0:0:0:
194,133,22895,1,0,0:0:0:0:
229,129,22972,1,0,0:0:0:0:
265,130,23049,1,0,0:0:0:0:
300,137,23126,1,0,0:0:0:0:
333,149,23204,22,0,B|362:207|362:207|311:354,1,199.499993911743
293,358,23511,1,0,0:0:0:0:
144,41,25204,1,0,0:0:0:0:
139,73,25280,1,0,0:0:0:0:
135,106,25357,1,0,0:0:0:0:
131,139,25434,1,0,0:0:0:0:
127,172,25511,2,0,L|116:249,1,66.4999979705811
0,356,25665,38,0,B|79:334|79:334|148:372|148:372|275:366,1,265.999991882324
397,381,26127,1,0,0:0:0:0:
507,321,26280,1,0,0:0:0:0:
449,210,26434,1,0,0:0:0:0:
339,269,26588,2,0,L|235:262,1,95
51,135,26896,22,0,P|107:130|162:128,1,95
329,147,27204,1,0,0:0:0:0:
139,232,27357,1,0,0:0:0:0:
242,84,27511,1,0,0:0:0:0:
231,191,27665,1,0,0:0:0:0:
155,21,27819,1,0,0:0:0:0:
329,147,27973,1,0,0:0:0:0:
66,178,28127,22,0,B|53:224|53:224|78:337,1,142.5
88,334,28434,1,0,0:0:0:0:
231,191,28588,1,0,0:0:0:0:
139,232,28742,1,0,0:0:0:0:
303,352,28896,1,0,0:0:0:0:
313,251,29050,1,0,0:0:0:0:
135,330,29204,2,0,L|88:334,1,47.5
8,113,29357,22,0,B|67:96|67:96|129:125|129:125|248:118,1,227.999993041992
401,22,29819,1,0,0:0:0:0:
371,187,29973,1,0,0:0:0:0:
262,8,30127,1,0,0:0:0:0:
262,8,30280,1,0,0:0:0:0:
383,208,30434,1,0,0:0:0:0:
149,50,30588,1,0,0:0:0:0:
149,50,30665,1,0,0:0:0:0:
149,49,30742,22,0,P|141:98|128:211,1,142.5
132,215,31050,1,0,0:0:0:0:
51,41,31204,1,0,0:0:0:0:
136,240,31357,1,0,0:0:0:0:
265,81,31511,2,0,P|332:76|375:75,1,95
512,247,31819,22,0,P|449:239|301:225,1,190
135,331,32280,2,0,P|184:325|248:319,1,95
103,170,32588,2,0,P|54:164|-10:158,1,95
8,159,32819,1,0,0:0:0:0:
8,159,32896,1,0,0:0:0:0:
162,19,33050,1,0,0:0:0:0:
162,19,33127,1,0,0:0:0:0:
162,19,33204,21,0,0:0:0:0:
184,231,33357,1,0,0:0:0:0:
385,42,33511,1,0,0:0:0:0:
363,254,33664,1,0,0:0:0:0:
150,7,33819,21,0,0:0:0:0:
175,240,33972,1,0,0:0:0:0:
396,32,34126,1,0,0:0:0:0:
371,265,34279,1,0,0:0:0:0:
150,7,34434,22,0,B|103:3|103:3|39:14,1,95
0,192,34742,1,0,0:0:0:0:
216,85,34896,1,0,0:0:0:0:
36,113,35050,2,0,P|38:198|46:319,1,190
96,358,35460,2,0,P|139:363|172:363,1,63.3333333333333
226,327,35665,6,0,P|248:268|244:227,1,95
176,192,35973,2,0,B|209:212|209:212|352:196,1,142.5
329,216,36280,2,0,L|342:21,1,190
417,133,36742,1,0,0:0:0:0:
262,82,36896,21,0,0:0:0:0:
366,288,37050,1,0,0:0:0:0:
444,126,37204,2,0,L|475:24,1,95
371,310,37511,1,0,0:0:0:0:
341,111,37665,1,0,0:0:0:0:
375,335,37819,1,0,0:0:0:0:
487,251,37973,22,0,B|442:225|442:225|327:219,1,142.5
333,236,38280,1,0,0:0:0:0:
251,374,38434,2,0,P|270:311|267:273,1,95
230,191,38742,1,0,0:0:0:0:
79,292,38896,2,0,P|142:311|180:308,1,95
134,106,39204,22,0,L|143:201,1,95
331,29,39511,1,0,0:0:0:0:
322,123,39665,1,0,0:0:0:0:
105,32,39819,1,0,0:0:0:0:
113,126,39973,1,0,0:0:0:0:
360,8,40127,2,0,L|343:197,1,190
239,328,40588,22,0,L|248:225,1,95
214,151,40896,2,0,B|232:191|232:191|334:217,1,142.5
343,197,41204,2,0,L|360:8,1,190
260,79,41665,1,0,0:0:0:0:
433,162,41819,21,0,0:0:0:0:
276,51,41973,2,0,L|170:47,1,95
140,224,42280,1,0,0:0:0:0:
76,27,42434,2,0,P|79:76|73:132,1,95
67,144,42665,1,0,0:0:0:0:
54,164,42742,1,0,0:0:0:0:
0,338,42896,22,0,B|46:309|46:309|170:332,1,142.5
153,313,43204,1,0,0:0:0:0:
64,239,43357,1,0,0:0:0:0:
176,301,43511,1,0,0:0:0:0:
41,255,43665,1,0,0:0:0:0:
218,365,43819,2,0,L|353:356,1,95
512,223,44127,22,0,P|467:216|417:216,1,95
317,249,44434,1,0,0:0:0:0:
394,319,44588,1,0,0:0:0:0:
340,146,44742,1,0,0:0:0:0:
217,282,44896,2,0,B|177:263|177:263|73:281,1,142.5
64,298,45204,1,0,0:0:0:0:
128,96,45357,1,0,0:0:0:0:
128,96,45434,1,0,0:0:0:0:
128,96,45511,5,0,0:0:0:0:
323,1,45819,1,0,0:0:0:0:
346,0,45895,1,0,0:0:0:0:
370,2,45972,1,0,0:0:0:0:
392,9,46049,1,0,0:0:0:0:
412,22,46126,1,0,0:0:0:0:
429,38,46203,1,0,0:0:0:0:
443,58,46280,1,0,0:0:0:0:
452,80,46357,1,0,0:0:0:0:
456,103,46434,22,0,L|403:100,1,47.5
179,90,46588,1,0,0:0:0:0:
266,284,46742,1,0,0:0:0:0:
285,271,46818,1,0,0:0:0:0:
303,254,46895,1,0,0:0:0:0:
316,235,46972,1,0,0:0:0:0:
325,213,47049,1,0,0:0:0:0:
330,190,47126,1,0,0:0:0:0:
330,166,47204,22,0,L|323:99,1,47.5
179,90,47357,2,0,L|174:137,1,47.5
356,183,47511,2,0,L|351:133,1,47.5
157,68,47664,1,0,0:0:0:0:
154,96,47740,1,0,0:0:0:0:
151,124,47817,1,0,0:0:0:0:
148,153,47894,1,0,0:0:0:0:
146,182,47973,22,0,L|199:179,1,47.5
431,169,48127,1,0,0:0:0:0:
316,336,48280,1,0,0:0:0:0:
292,335,48356,1,0,0:0:0:0:
268,335,48433,1,0,0:0:0:0:
244,334,48510,1,0,0:0:0:0:
221,334,48587,1,0,0:0:0:0:
197,334,48664,1,0,0:0:0:0:
173,333,48741,1,0,0:0:0:0:
149,333,48818,1,0,0:0:0:0:
126,332,48896,22,0,L|122:279,1,47.5
112,47,49050,1,0,0:0:0:0:
0,199,49204,1,0,0:0:0:0:
24,198,49280,1,0,0:0:0:0:
47,198,49357,1,0,0:0:0:0:
71,197,49434,1,0,0:0:0:0:
95,197,49511,1,0,0:0:0:0:
119,197,49588,1,0,0:0:0:0:
142,196,49665,1,0,0:0:0:0:
166,196,49742,1,0,0:0:0:0:
190,195,49820,22,0,P|105:163|92:316,1,285
320,384,50434,21,0,0:0:0:0:
320,384,50588,1,0,0:0:0:0:
250,235,50742,1,0,0:0:0:0:
130,380,50896,1,0,0:0:0:0:
130,380,50973,1,0,0:0:0:0:
130,380,51050,2,0,L|346:384,1,190
0,338,51511,1,0,0:0:0:0:
26,89,51665,21,0,0:0:0:0:
26,89,51819,1,0,0:0:0:0:
101,174,51973,2,0,L|98:276,1,95
98,268,52204,1,0,0:0:0:0:
98,268,52280,1,0,0:0:0:0:
447,192,52588,1,0,0:0:0:0:
127,0,52896,21,0,0:0:0:0:
479,96,53050,1,0,0:0:0:0:
403,63,53357,21,0,0:0:0:0:
51,159,53511,1,0,0:0:0:0:
127,126,53819,21,0,0:0:0:0:
479,222,53973,1,0,0:0:0:0:
404,187,54280,22,0,L|357:191,1,47.5
298,255,54434,1,0,0:0:0:0:
330,377,54588,1,0,0:0:0:0:
455,384,54742,1,0,0:0:0:0:
500,267,54896,1,0,0:0:0:0:
404,187,55050,1,0,0:0:0:0:
390,299,55204,1,0,0:0:0:0:
192,384,55357,21,0,0:0:0:0:
206,56,55511,1,0,0:0:0:0:
206,56,55588,1,0,0:0:0:0:
206,56,55665,2,0,L|202:118,1,47.5
96,384,55819,21,0,0:0:0:0:
117,40,55973,1,0,0:0:0:0:
117,40,56050,1,0,0:0:0:0:
117,40,56127,2,0,L|113:102,1,47.5
0,384,56280,22,0,L|3:336,1,47.5
26,8,56434,1,0,0:0:0:0:
26,8,56742,21,0,0:0:0:0:
3,191,56896,1,0,0:0:0:0:
192,32,57050,1,0,0:0:0:0:
175,268,57204,1,0,0:0:0:0:
352,32,57357,1,0,0:0:0:0:
363,320,57511,1,0,0:0:0:0:
512,0,57665,1,0,0:0:0:0:
175,268,57973,21,0,0:0:0:0:
366,178,58127,1,0,0:0:0:0:
158,138,58281,1,0,0:0:0:0:
303,292,58434,1,0,0:0:0:0:
276,82,58588,1,0,0:0:0:0:
77,384,58896,6,0,P|84:282|68:170,1,199.499993911743
49,155,59204,1,0,0:0:0:0:
199,351,59357,2,0,B|231:321|231:321|327:334,1,132.999995941162
431,379,59665,1,0,0:0:0:0:
396,119,59819,1,0,0:0:0:0:
431,379,59973,1,0,0:0:0:0:
478,164,60127,22,0,P|373:144|233:152,1,199.499993911743
255,170,60434,1,0,0:0:0:0:
150,50,60588,1,0,0:0:0:0:
128,267,60742,1,0,0:0:0:0:
317,26,60896,1,0,0:0:0:0:
339,243,61050,1,0,0:0:0:0:
339,243,61204,1,0,0:0:0:0:
25,107,61357,22,0,L|286:114,1,199.499993911743
248,89,61665,1,0,0:0:0:0:
102,198,61819,2,0,B|120:245|120:245|83:341,1,132.999995941162
20,374,62127,1,0,0:0:0:0:
267,284,62280,1,0,0:0:0:0:
20,374,62434,1,0,0:0:0:0:
304,371,62588,22,0,P|293:241|326:130,1,199.499993911743
291,148,62896,1,0,0:0:0:0:
391,288,63050,1,0,0:0:0:0:
207,121,63204,1,0,0:0:0:0:
213,344,63357,1,0,0:0:0:0:
397,65,63511,1,0,0:0:0:0:
397,65,63665,1,0,0:0:0:0:
162,0,63819,22,0,P|166:137|145:204,1,199.499993911743
120,218,64127,1,0,0:0:0:0:
256,138,64280,2,0,B|292:110|292:110|400:148,1,132.999995941162
445,221,64588,1,0,0:0:0:0:
244,27,64742,1,0,0:0:0:0:
445,221,64896,1,0,0:0:0:0:
337,31,65050,22,0,P|236:49|107:38,1,199.499993911743
107,13,65357,1,0,0:0:0:0:
80,229,65511,1,0,0:0:0:0:
244,27,65665,1,0,0:0:0:0:
258,323,65819,1,0,0:0:0:0:
94,121,65973,1,0,0:0:0:0:
94,121,66127,1,0,0:0:0:0:
295,240,66280,1,0,0:0:0:0:
334,236,66357,1,0,0:0:0:0:
368,224,66434,22,0,L|395:75,1,132.999995941162
175,368,66742,1,0,0:0:0:0:
112,164,66896,2,0,L|103:84,1,66.4999979705811
97,31,67204,2,0,L|104:97,1,66.4999979705811
236,291,67511,22,0,P|355:277|464:402,1,265.999991882324
178,359,67973,2,0,L|193:203,1,132.999995941162
307,0,68280,1,0,0:0:0:0:
303,33,68356,1,0,0:0:0:0:
300,66,68433,1,0,0:0:0:0:
297,99,68510,1,0,0:0:0:0:
294,132,68588,2,0,L|284:223,1,66.4999979705811
487,304,68742,6,0,B|403:290|403:290|335:329|335:329|217:321,1,265.999991882324
13,227,69204,2,0,P|82:234|164:251,1,132.999995941162
425,112,69511,2,0,P|359:119|294:132,1,132.999995941162
512,224,69819,1,0,0:0:0:0:
217,0,69973,22,0,L|219:212,1,199.499993911743
231,230,70280,1,0,0:0:0:0:
320,0,70434,1,0,0:0:0:0:
74,71,70588,1,0,0:0:0:0:
342,162,70742,1,0,0:0:0:0:
96,233,70896,2,0,P|83:303|73:372,1,132.999995941162
448,384,71204,22,0,B|466:313|466:313|428:235|428:235|440:108,1,265.999991882324
512,0,71665,2,0,L|375:6,1,132.999995941162
128,64,71973,1,0,0:0:0:0:
331,208,72127,1,0,0:0:0:0:
295,10,72280,1,0,0:0:0:0:
440,231,72434,2,0,P|456:305|466:379,1,132.999995941162
206,248,72742,21,0,0:0:0:0:
233,119,72896,1,0,0:0:0:0:
331,208,73050,1,0,0:0:0:0:
218,374,73204,21,0,0:0:0:0:
295,10,73357,1,0,0:0:0:0:
439,230,73511,1,0,0:0:0:0:
75,153,73665,1,0,0:0:0:0:
56,149,73742,1,0,0:0:0:0:
37,145,73819,22,0,B|103:129|103:129|147:156|147:156|243:150,1,199.499993911743
300,139,74127,2,0,P|311:211|311:371,1,199.499993911743
294,367,74434,1,0,0:0:0:0:
140,233,74588,1,0,0:0:0:0:
416,151,74742,1,0,0:0:0:0:
416,151,74819,1,0,0:0:0:0:
416,151,74896,22,0,P|392:86|210:71,1,265.999991882324
140,233,75357,2,0,P|71:240|-4:225,1,132.999995941162
300,139,75665,2,0,P|307:208|292:283,1,132.999995941162,0|0,3:0|3:0,3:0:0:0:
210,357,75896,1,0,0:0:0:0:
188,373,75973,2,0,L|121:373,1,66.4999979705811
0,111,76127,22,0,B|43:59|43:59|250:82,1,265.999991882324
423,251,76588,1,0,0:0:0:0:
342,21,76742,1,0,0:0:0:0:
314,295,76896,1,0,0:0:0:0:
455,51,77050,1,0,0:0:0:0:
407,368,77204,1,0,0:0:0:0:
240,80,77357,22,0,B|177:112|177:112|163:309,1,265.999991882324
380,176,77819,2,0,L|524:190,1,132.999995941162
234,0,78127,22,0,L|34:20,1,190
5,86,78537,2,0,P|-2:133|-3:164,1,63.3333333333333
30,219,78742,5,0,0:0:0:0:
303,36,78896,1,0,0:0:0:0:
163,130,79050,2,0,P|153:187|155:236,1,95
215,374,79357,2,0,P|225:317|223:268,1,95
146,120,79665,2,0,P|136:177|138:226,1,95
231,384,79973,21,0,0:0:0:0:
30,219,80127,1,0,0:0:0:0:
271,169,80280,2,0,P|315:153|391:162,1,95
447,299,80588,2,0,P|411:268|380:198,1,95
472,82,80896,2,0,P|463:128|418:189,1,95
293,16,81204,21,0,0:0:0:0:
293,16,81280,1,0,0:0:0:0:
293,16,81357,1,0,0:0:0:0:
251,89,81511,1,0,0:0:0:0:
209,16,81665,1,0,0:0:0:0:
91,171,81819,1,0,0:0:0:0:
93,0,81973,1,0,0:0:0:0:
223,261,82127,1,0,0:0:0:0:
0,78,82280,1,0,0:0:0:0:
25,333,82434,21,0,0:0:0:0:
58,319,82510,1,0,0:0:0:0:
93,313,82587,1,0,0:0:0:0:
128,318,82664,1,0,0:0:0:0:
160,333,82741,21,0,0:0:0:0:
192,348,82818,1,0,0:0:0:0:
227,352,82895,1,0,0:0:0:0:
262,345,82972,1,0,0:0:0:0:
295,332,83050,2,0,P|382:310|413:396,1,190
456,144,83511,22,0,L|470:268,1,118.75
492,297,83973,2,0,B|485:249|485:249|499:170|499:170|479:82,1,199.499993911743
483,66,84280,2,0,P|429:79|361:51,1,95
67,78,84588,1,0,0:0:0:0:
131,46,84665,1,0,0:0:0:0:
195,82,84742,22,0,L|181:206,1,118.75
110,246,85204,2,0,B|158:239|158:239|237:253|237:253|325:233,1,199.499993911743
378,221,85511,1,0,0:0:0:0:
389,235,85588,1,0,0:0:0:0:
398,255,85665,21,0,0:0:0:0:
403,205,85741,1,0,0:0:0:0:
423,160,85818,1,0,0:0:0:0:
457,123,85895,1,0,0:0:0:0:
500,99,85973,22,0,L|380:85,1,118.75
318,15,86434,2,0,B|363:57|363:57|322:201,1,199.499993911743
347,230,86742,2,0,L|223:236,1,95
177,294,86973,1,0,0:0:0:0:
163,307,87050,2,0,L|91:298,1,47.5
100,28,87204,22,0,B|59:64|59:64|92:199,1,192.375000733852
102,227,87511,1,0,0:0:0:0:
207,27,87665,21,0,0:0:0:0:
247,356,87819,1,0,0:0:0:0:
512,157,87973,1,0,0:0:0:0:
250,262,88127,21,0,0:0:0:0:
368,176,88281,1,0,0:0:0:0:
233,118,88434,6,0,L|112:124,1,118.75
59,182,88896,2,0,B|78:123|78:123|63:48,1,132.999995941162
36,28,89127,1,0,0:0:0:0:
36,28,89204,1,0,0:0:0:0:
286,21,89357,2,0,P|351:40|393:130,1,142.5
428,165,89665,22,0,L|431:35,1,118.75
455,13,90127,2,0,L|521:7,1,47.5
403,198,90280,2,0,L|337:204,1,47.5
256,32,90434,1,0,0:0:0:0:
180,334,90588,2,0,P|111:330|50:245,1,142.5
0,230,90896,22,0,L|120:235,1,118.75
212,148,91357,2,0,B|154:188|154:188|181:417,1,265.999991882324
416,320,91819,1,0,0:0:0:0:
416,320,91896,1,0,0:0:0:0:
416,320,91973,1,0,0:0:0:0:
487,17,92127,22,0,B|419:5|419:5|365:37|365:37|271:30,1,199.499993911743
231,0,92434,1,0,0:0:0:0:
159,364,92588,1,0,0:0:0:0:
435,107,92742,1,0,0:0:0:0:
61,153,92896,1,0,0:0:0:0:
398,344,93050,1,0,0:0:0:0:
398,344,93127,1,0,0:0:0:0:
398,344,93204,1,0,0:0:0:0:
231,0,93357,21,0,0:0:0:0:
