osu file format v14

[General]
AudioFilename: audio.mp3
AudioLeadIn: 0
PreviewTime: 157313
Countdown: 0
SampleSet: Soft
StackLeniency: 0.7
Mode: 0
LetterboxInBreaks: 0
WidescreenStoryboard: 0

[Editor]
DistanceSpacing: 1
BeatDivisor: 4
GridSize: 32
TimelineZoom: 2.500005

[Metadata]
Title:Strawberry Trapper
TitleUnicode:Strawberry Trapper
Artist:Guilty Kiss
ArtistUnicode:Guilty Kiss
Creator:Gaia
Version:x.x~
Source:ラブライブ!サンシャイン!!
Tags:it's joke
BeatmapID:1265925
BeatmapSetID:598905

[Difficulty]
HPDrainRate:6
CircleSize:4.1
OverallDifficulty:8
ApproachRate:9.3
SliderMultiplier:1.8
SliderTickRate:2

[Events]
//Background and Video events
0,0,"itsjoke.png",0,0
//Break Periods
2,23898,24683
2,101436,102221
2,153698,158221
//Storyboard Layer 0 (Background)
//Storyboard Layer 1 (Fail)
//Storyboard Layer 2 (Pass)
//Storyboard Layer 3 (Foreground)
//Storyboard Sound Samples

[TimingPoints]
1237,307.692307692308,4,2,1,50,1,0
3698,-142.857142857143,4,2,1,50,0,0
4006,-142.857142857143,4,2,0,50,0,0
6006,-100,4,2,1,50,0,0
9698,-62.5,4,2,1,50,0,0
10313,-200,4,2,1,50,0,0
10929,-71.4285714285714,4,2,1,60,0,0
11390,-83.3333333333333,4,2,1,60,0,0
12160,-71.4285714285714,4,2,1,60,0,0
12621,-83.3333333333333,4,2,1,60,0,0
13390,-71.4285714285714,4,2,1,60,0,0
13851,-83.3333333333333,4,2,1,60,0,0
14621,-71.4285714285714,4,2,1,60,0,0
15082,-166.666666666667,4,2,1,60,0,0
15852,-416.666666666667,4,2,1,60,0,0
16313,-416.666666666667,4,2,1,40,0,0
16621,-416.666666666667,4,2,1,40,0,0
16775,-71.4285714285714,4,2,2,40,0,0
17083,-142.857142857143,4,2,1,40,0,0
18006,-71.4285714285714,4,2,1,40,0,0
18313,-142.857142857143,4,2,1,40,0,0
19544,-90.9090909090909,4,2,1,40,0,0
20006,-166.666666666667,4,2,1,40,0,0
20313,-55.5555555555556,4,2,1,60,0,0
20775,-416.666666666667,4,2,1,60,0,0
21236,-416.666666666667,4,2,1,40,0,0
21698,-90.9090909090909,4,2,2,40,0,0
22006,-125,4,2,1,40,0,0
22775,-166.666666666667,4,2,1,40,0,0
23237,-333.333333333333,4,2,1,40,0,0
23698,-333.333333333333,4,2,1,20,0,0
25237,-100,4,2,1,40,0,0
25698,-90.9090909090909,4,2,1,50,0,0
33236,-90.9090909090909,4,2,1,60,0,0
35083,-83.3333333333333,4,2,1,60,0,0
35390,-76.9230769230769,4,2,1,60,0,0
35698,-76.9230769230769,4,2,1,40,0,0
35852,-166.666666666667,4,2,1,40,0,0
37698,-200,4,2,1,40,0,0
38005,-200,4,2,1,50,0,0
38006,-90.9090909090909,4,2,1,50,0,0
38467,-125,4,2,1,50,0,0
38929,-166.666666666667,4,2,1,50,0,0
40621,-166.666666666667,4,2,1,40,0,0
42698,-62.5,4,2,1,40,0,0
42929,-125,4,2,1,50,0,0
43390,-166.666666666667,4,2,1,50,0,0
45544,-62.5,4,2,1,40,0,0
45698,-166.666666666667,4,2,1,20,0,0
46467,-62.5,4,2,1,40,0,0
46621,-166.666666666667,4,2,1,20,0,0
47390,-90.909090909091,4,2,1,40,0,0
47698,-76.9230769230769,4,2,1,40,0,0
48006,-62.5,4,2,1,40,0,0
48160,-166.666666666667,4,2,1,20,0,0
48929,-62.5,4,2,1,40,0,0
49083,-166.666666666667,4,2,1,20,0,0
49698,-166.666666666667,4,2,1,40,0,0
49852,-166.666666666667,4,2,1,50,0,0
50467,-90.9090909090909,4,2,1,50,0,0
51083,-136.054421768707,4,2,1,50,0,0
51698,-90.9090909090909,4,2,1,50,0,0
52929,-58.8235294117647,4,2,1,50,0,0
53083,-175.438596491228,4,2,1,50,0,0
53390,-58.8235294117647,4,2,1,50,0,0
53544,-175.438596491228,4,2,1,50,0,0
53852,-58.8235294117647,4,2,1,50,0,0
54006,-175.438596491228,4,2,1,50,0,0
55390,-58.8235294117647,4,2,1,50,0,0
56775,-125,4,2,1,60,0,0
57237,-55.5555555555556,4,2,1,60,0,0
58005,-55.5555555555556,4,2,1,40,0,0
58929,-62.5,4,2,1,80,0,0
59390,-83.3333333333333,4,2,1,80,0,0
60160,-142.857142857143,4,2,1,80,0,0
60621,-83.3333333333334,4,2,1,80,0,0
61390,-62.5,4,2,1,80,0,0
61851,-83.3333333333333,4,2,1,80,0,0
62621,-142.857142857143,4,2,1,80,0,0
63082,-83.3333333333334,4,2,1,80,0,0
63852,-62.5,4,2,1,80,0,0
64313,-83.3333333333333,4,2,1,80,0,0
65083,-142.857142857143,4,2,1,80,0,0
65544,-83.3333333333334,4,2,1,80,0,0
66467,-62.5,4,2,1,80,0,0
66929,-111.111111111111,4,2,1,80,0,0
67544,-142.857142857143,4,2,1,80,0,0
68006,-58.8235294117647,4,2,1,80,0,0
68775,-83.3333333333333,4,2,1,80,0,0
71237,-100,4,2,1,80,0,0
72006,-71.4285714285714,4,2,1,80,0,0
72467,-83.3333333333333,4,2,1,80,0,0
73852,-66.6666666666667,4,2,1,80,0,0
74160,-83.3333333333333,4,2,1,80,0,0
74929,-71.4285714285714,4,2,1,80,0,0
76160,-62.5,4,2,1,80,0,0
76621,-100,4,2,1,80,0,0
77390,-62.5,4,2,1,80,0,0
77852,-100,4,2,1,80,0,0
78775,-100,4,2,1,70,0,0
82621,-58.8235294117647,4,2,1,70,0,0
83544,-100,4,2,1,50,0,0
87236,-62.5,4,2,1,50,0,0
87851,-200,4,2,1,50,0,0
88467,-71.4285714285714,4,2,1,60,0,0
88928,-83.3333333333333,4,2,1,60,0,0
89698,-71.4285714285714,4,2,1,60,0,0
90159,-83.3333333333333,4,2,1,60,0,0
90928,-71.4285714285714,4,2,1,60,0,0
91389,-83.3333333333333,4,2,1,60,0,0
92159,-71.4285714285714,4,2,1,60,0,0
92620,-166.666666666667,4,2,1,60,0,0
93390,-250,4,2,1,60,0,0
93851,-250,4,2,2,40,0,0
95237,-62.5,4,2,1,40,0,0
95852,-250,4,2,1,40,0,0
96313,-250,4,2,2,40,0,0
97083,-83.3333333333333,4,2,1,40,0,0
97544,-71.4285714285714,4,2,1,40,0,0
97851,-71.4285714285714,4,2,1,60,0,0
97852,-62.5,4,2,1,60,0,0
98313,-250,4,2,1,60,0,0
98774,-250,4,2,1,40,0,0
99083,-83.3333333333333,4,2,1,40,0,0
99544,-66.6666666666667,4,2,1,40,0,0
100313,-62.5,4,2,1,40,0,0
100775,-333.333333333333,4,2,1,40,0,0
101236,-333.333333333333,4,2,1,20,0,0
102775,-100,4,2,1,40,0,0
103236,-100,4,2,1,50,0,0
103237,-90.9090909090909,4,2,1,50,0,0
110774,-90.9090909090909,4,2,1,60,0,0
110775,-90.9090909090909,4,2,1,60,0,0
112622,-83.3333333333333,4,2,1,60,0,0
112929,-76.9230769230769,4,2,1,60,0,0
113236,-76.9230769230769,4,2,1,40,0,0
113237,-76.9230769230769,4,2,1,40,0,0
113390,-166.666666666667,4,2,1,40,0,0
115543,-166.666666666667,4,2,1,50,0,0
115544,-90.9090909090909,4,2,1,50,0,0
116006,-166.666666666667,4,2,1,50,0,0
118159,-166.666666666667,4,2,1,40,0,0
120237,-62.5,4,2,1,40,0,0
120467,-125,4,2,1,50,0,0
120929,-166.666666666667,4,2,1,50,0,0
121698,-142.857142857143,4,2,1,50,0,0
123082,-142.857142857143,4,2,1,40,0,0
123083,-62.5,4,2,1,40,0,0
123236,-62.5,4,2,1,20,0,0
123237,-166.666666666667,4,2,1,20,0,0
124005,-166.666666666667,4,2,1,40,0,0
124006,-62.5,4,2,1,40,0,0
124159,-62.5,4,2,1,20,0,0
124160,-166.666666666667,4,2,1,20,0,0
124928,-166.666666666667,4,2,1,40,0,0
124929,-90.909090909091,4,2,1,40,0,0
125237,-76.9230769230769,4,2,1,40,0,0
125545,-62.5,4,2,1,40,0,0
125698,-166.666666666667,4,2,1,20,0,0
126467,-62.5,4,2,1,40,0,0
126620,-166.666666666667,4,2,1,40,0,0
126621,-166.666666666667,4,2,1,20,0,0
127236,-166.666666666667,4,2,1,40,0,0
127237,-166.666666666667,4,2,1,40,0,0
127390,-166.666666666667,4,2,1,50,0,0
128006,-90.9090909090909,4,2,1,50,0,0
128621,-135.135135135135,4,2,1,50,0,0
129237,-90.9090909090909,4,2,1,50,0,0
130467,-58.8235294117647,4,2,1,50,0,0
130621,-175.438596491228,4,2,1,50,0,0
130929,-58.8235294117647,4,2,1,50,0,0
131083,-175.438596491228,4,2,1,50,0,0
131390,-58.8235294117647,4,2,1,50,0,0
131544,-175.438596491228,4,2,1,50,0,0
132929,-58.8235294117647,4,2,1,50,0,0
134313,-125,4,2,1,60,0,0
134775,-55.5555555555556,4,2,1,60,0,0
135543,-55.5555555555556,4,2,1,40,0,0
136467,-62.5,4,2,1,80,0,0
136928,-83.3333333333333,4,2,1,80,0,0
137698,-142.857142857143,4,2,1,80,0,0
138159,-83.3333333333334,4,2,1,80,0,0
138928,-62.5,4,2,1,80,0,0
139389,-83.3333333333333,4,2,1,80,0,0
140159,-142.857142857143,4,2,1,80,0,0
140621,-83.3333333333334,4,2,1,80,0,0
141390,-62.5,4,2,1,80,0,0
141851,-83.3333333333333,4,2,1,80,0,0
142621,-142.857142857143,4,2,1,80,0,0
143083,-83.3333333333334,4,2,1,80,0,0
144005,-55.5555555555556,4,2,1,80,0,0
144467,-111.111111111111,4,2,1,80,0,0
145082,-142.857142857143,4,2,1,80,0,0
145544,-58.8235294117647,4,2,1,80,0,0
146313,-83.3333333333333,4,2,1,80,0,0
148775,-125,4,2,1,80,0,0
149544,-71.4285714285714,4,2,1,80,0,0
150005,-83.3333333333333,4,2,1,80,0,0
151390,-66.6666666666667,4,2,1,80,0,0
151698,-83.3333333333333,4,2,1,80,0,0
152160,-333.333333333333,4,2,1,50,0,0
152467,-71.4285714285714,4,2,1,80,0,0
158775,-250,4,2,1,80,0,0
159852,-100,4,2,1,80,0,0
161390,-250,4,2,1,80,0,0
162467,-800,4,2,1,80,0,0
162775,-600,4,2,1,80,0,0
163083,-400,4,2,1,80,0,0
163390,-200,4,2,1,80,0,0
163698,-200,4,2,1,80,0,0
163852,-142.857142857143,4,2,1,80,0,0
164775,-200,4,2,1,80,0,0
165852,-142.857142857143,4,2,1,80,0,0
166140,260.869565217391,4,2,1,80,1,0
166140,-1,4,2,1,80,0,0
166160,307.692307692308,4,2,1,80,1,0
166160,-50,4,2,1,80,0,0
166236,-50,4,2,1,80,0,0
168006,-105.263157894737,4,2,1,80,0,0
168467,-55.5555555555556,4,2,1,80,0,0
168929,-71.4285714285714,4,2,1,80,0,0
170160,-83.3333333333333,4,2,1,80,0,0
170929,-55.5555555555556,4,2,1,80,0,0
171390,-62.5,4,2,1,80,0,0
172313,-111.111111111111,4,2,1,80,0,0
172929,-86.9565217391304,4,2,1,80,0,0
173390,-166.666666666667,4,2,1,80,0,0
173698,-90.9090909090909,4,2,1,80,0,0
174160,-62.5,4,2,1,80,0,0
174775,-90.9090909090909,4,2,1,80,0,0
175390,-62.5,4,2,1,80,0,0
175852,-166.666666666667,4,2,1,80,0,0
176160,-76.9230769230769,4,2,1,80,0,0
177390,-62.5,4,2,1,80,0,0
177852,-200,4,2,1,80,0,0
178365,-200,4,2,1,80,0,0
178467,-76.9230769230769,4,2,1,80,0,0
178621,-111.111111111111,4,2,1,80,0,0
179083,-166.666666666666,4,2,1,80,0,0
179698,-76.9230769230769,4,2,1,80,0,0
179852,-111.111111111111,4,2,1,80,0,0
180929,-50,4,2,1,80,0,0
181083,-153.846153846154,4,2,1,80,0,0
181390,-50,4,2,1,80,0,0
181544,-153.846153846154,4,2,1,80,0,0
181852,-50,4,2,1,80,0,0
182006,-300,4,2,1,80,0,0
182467,-300,4,2,1,80,0,0
182621,-100,4,2,1,80,0,0
183390,-71.4285714285714,4,2,1,80,0,0
184544,-71.4285714285714,4,2,1,80,0,0
184621,-71.4285714285714,4,2,1,80,0,0
186467,-166.666666666667,4,2,1,80,0,0
186929,-333.333333333333,4,2,1,80,0,0
188929,-55.5555555555556,4,2,1,80,0,0
189083,-222.222222222222,4,2,1,80,0,0
189390,-333.333333333333,4,2,1,80,0,0
189852,-333.333333333333,4,2,1,80,0,0
190621,-333.333333333333,4,2,0,40,0,0
191083,-333.333333333333,4,2,1,80,0,0
191390,-55.5555555555556,4,2,1,80,0,0
191544,-222.222222222222,4,2,1,80,0,0
191851,-333.333333333333,4,2,1,80,0,0
192313,-333.333333333333,4,2,1,80,0,0
193852,-250,4,2,1,80,0,0
194160,-142.857142857143,4,2,1,80,0,0
194467,-58.8235294117647,4,2,1,80,0,0
194929,-142.857142857143,4,2,1,80,0,0
195543,-107.52688172043,4,2,1,80,0,0
195852,-107.52688172043,4,2,1,60,0,0
197313,-166.666666666667,4,2,1,60,0,0
198006,-196.078431372549,4,2,1,80,0,0
198467,-83.3333333333333,4,2,1,80,0,0
199237,-142.857142857143,4,2,1,80,0,0
199698,-83.3333333333333,4,2,1,80,0,0
200467,-62.5,4,2,1,80,0,0
200928,-83.3333333333333,4,2,1,80,0,0
201236,-166.666666666667,4,2,1,80,0,0
201698,-142.857142857143,4,2,1,80,0,0
202159,-83.3333333333334,4,2,1,80,0,0
202929,-62.5,4,2,1,80,0,0
203390,-83.3333333333333,4,2,1,80,0,0
203698,-166.666666666667,4,2,1,80,0,0
204160,-142.857142857143,4,2,1,80,0,0
204621,-83.3333333333334,4,2,1,80,0,0
205544,-62.5,4,2,1,80,0,0
206006,-142.857142857143,4,2,1,80,0,0
206621,-166.666666666667,4,2,1,80,0,0
207083,-58.8235294117647,4,2,1,80,0,0
207852,-83.3333333333333,4,2,1,80,0,0
208621,-166.666666666667,4,2,1,80,0,0
209083,-83.3333333333333,4,2,1,80,0,0
210314,-100,4,2,1,80,0,0
211083,-71.4285714285714,4,2,1,80,0,0
211544,-83.3333333333333,4,2,1,80,0,0
212929,-66.6666666666667,4,2,1,80,0,0
213237,-83.3333333333333,4,2,1,80,0,0
214006,-71.4285714285714,4,2,1,80,0,0
215237,-62.5,4,2,1,80,0,0
215698,-100,4,2,1,80,0,0
216467,-62.5,4,2,1,80,0,0
216929,-100,4,2,1,80,0,0
217544,-76.9230769230769,4,2,1,80,0,0
217852,-100,4,2,1,70,0,0
221698,-58.8235294117647,4,2,1,70,0,0
222160,-58.8235294117647,4,2,1,40,0,0
222621,-55.5555555555556,4,2,1,70,0,0
224621,-142.857142857143,4,2,1,70,0,0
225083,-55.5555555555556,4,2,1,70,0,0
225852,-142.857142857143,4,2,1,70,0,0
226083,-58.8235294117647,4,2,1,70,0,0
226313,-62.5,4,2,1,70,0,0
227544,-55.5555555555556,4,2,1,70,0,0
228467,-55.5555555555556,4,2,1,70,0,0
228775,-55.5555555555556,4,2,1,70,0,0
229698,-55.5555555555556,4,2,1,70,0,0
230006,-55.5555555555556,4,2,1,70,0,0
230621,-71.4285714285714,4,2,1,70,0,0
231236,-62.5,4,2,1,70,0,0

[Colours]
Combo1 : 243,243,243
Combo2 : 255,255,151
Combo3 : 255,169,128
Combo4 : 217,255,255
Combo5 : 255,0,0
Combo6 : 255,255,255

[HitObjects]
160,200,3698,6,0,P|222:194|296:184,1,125.999996154785,0|2,0:0|0:0,0:0:0:0:
285,185,4621,1,2,0:0:0:0:
285,185,5237,1,2,0:0:0:0:
285,185,5544,37,8,0:3:0:0:
195,51,5698,1,8,0:3:0:0:
221,288,5852,1,8,0:3:0:0:
125,183,6006,38,0,B|251:157|251:157|253:126|267:89,1,180,4|2,0:0|0:0,0:0:0:0:
444,209,6467,2,0,P|450:261|460:327,1,90,8|0,0:0|0:0,0:0:0:0:
349,359,6775,1,2,0:0:0:0:
261,106,6929,1,2,0:0:0:0:
437,183,7083,1,8,0:0:0:0:
297,266,7237,6,0,B|189:240|189:240|209:281|189:341,1,180,4|2,0:0|0:0,0:0:0:0:
13,177,7698,2,0,P|59:170|113:161,1,90,8|0,0:0|0:0,0:0:0:0:
257,58,8006,1,2,0:0:0:0:
103,285,8160,1,2,0:0:0:0:
34,82,8313,1,8,0:0:0:0:
119,298,8467,6,0,L|320:261,1,180,4|2,0:0|0:0,0:0:0:0:
362,74,8929,2,0,P|389:109|396:153,1,90,8|0,0:0|0:0,0:0:0:0:
436,304,9237,1,2,0:0:0:0:
292,150,9390,1,2,0:0:0:0:
481,80,9544,1,8,0:0:0:0:
340,224,9698,6,0,B|265:256|217:198|217:198|177:250|98:220,1,216,4|0,0:0|0:0,0:0:0:0:
65,182,10006,1,2,0:0:0:0:
257,89,10160,2,0,P|278:110|289:171,1,72,8|0,0:0|0:0,0:0:0:0:
341,225,10313,22,0,B|306:148|366:148|336:52,1,157.5,4|8,0:0|0:0,0:0:0:0:
257,89,10929,6,0,B|191:145|108:122|108:122|146:62|103:22,1,251.999992309571,4|2,0:0|0:0,0:0:0:0:
0,204,11390,2,0,L|22:272,1,53.9999983520508,8|0,0:0|0:0,0:0:0:0:
86,316,11544,1,2,0:0:0:0:
279,230,11698,2,0,L|298:161,1,53.9999983520508,8|0,0:0|0:0,0:0:0:0:
257,89,11852,1,2,0:0:0:0:
175,254,12006,2,0,L|197:322,1,53.9999983520508,8|0,0:0|0:0,0:0:0:0:
315,340,12160,6,0,B|368:327|398:362|398:362|421:325|481:337|481:337|506:298|470:259,1,251.999992309571,4|2,0:0|0:0,0:0:0:0:
372,157,12621,2,0,L|449:170,1,53.9999983520508,8|0,0:0|0:0,0:0:0:0:
494,120,12775,1,2,0:0:0:0:
279,230,12929,2,0,L|199:242,1,53.9999983520508,8|0,0:0|0:0,0:0:0:0:
191,305,13083,1,2,0:0:0:0:
283,128,13237,2,0,P|291:98|284:62,1,53.9999983520508,8|0,0:0|0:0,0:0:0:0:
150,46,13390,6,0,B|120:47|94:7|94:7|6:121|126:193,1,251.999992309571,4|2,0:0|0:0,0:0:0:0:
191,305,13852,2,0,P|160:326|127:336,1,53.9999983520508,8|0,0:0|0:0,0:0:0:0:
60,277,14006,1,2,0:0:0:0:
279,230,14160,2,0,P|315:242|342:248,1,53.9999983520508,8|0,0:0|0:0,0:0:0:0:
433,207,14313,1,2,0:0:0:0:
294,75,14467,2,0,P|284:106|284:144,1,53.9999983520508,8|0,0:0|0:0,0:0:0:0:
219,238,14621,54,0,B|191:305|191:305|160:125,1,251.999992309571,4|2,0:0|0:0,0:0:0:0:
146,47,15006,1,8,0:3:0:0:
146,47,15083,1,8,0:3:0:0:
260,126,15237,1,2,0:0:0:0:
139,205,15390,6,0,L|15:190,1,107.999996704102,4|2,0:0|0:0,0:0:0:0:
190,305,15852,54,0,L|314:290,1,107.999996704102,4|0,0:0|0:0,0:0:0:0:
414,217,16775,6,0,P|411:180|400:146,2,62.9999980773926,2|2|2,0:0|0:0|0:0,0:0:0:0:
299,264,17083,2,0,P|264:212|287:131,1,125.999996154785,6|0,0:0|0:0,0:0:0:0:
376,48,17544,6,0,P|338:59|306:65,1,62.9999980773926,0|0,0:0|0:0,0:0:0:0:
296,59,17775,1,0,0:0:0:0:
296,59,17852,1,0,0:0:0:0:
164,38,18006,2,0,P|193:64|213:90,1,62.9999980773926,2|2,0:0|0:0,0:0:0:0:
271,151,18160,1,2,0:0:0:0:
142,193,18313,6,0,P|153:254|163:330,1,125.999996154785,4|0,0:0|0:0,0:0:0:0:
311,374,18775,2,0,P|329:352|350:293,1,62.9999980773926,0|0,0:0|0:0,0:0:0:0:
354,192,19083,2,0,P|383:205|413:216,1,62.9999980773926,0|0,0:0|0:0,0:0:0:0:
494,127,19390,1,0,0:0:0:0:
332,172,19544,54,0,B|203:211|203:211|183:198|142:193,1,198.000006042481,6|0,0:0|0:0,0:0:0:0:
43,263,20006,2,0,P|42:313|66:348,1,80.9999975280763,0|0,0:0|0:0,0:0:0:0:
158,353,20313,38,0,P|161:313|144:277,1,80.9999975280763,6|0,0:0|0:0,0:0:0:0:
44,122,20467,2,0,B|189:165|189:165|162:122|168:74,1,242.999992584229,6|0,0:0|0:0,0:0:0:0:
274,14,20775,6,0,L|261:101,1,86.4000021093751,4|0,0:0|0:0,0:0:0:0:
261,99,21467,1,0,0:0:0:0:
261,99,21544,1,0,0:0:0:0:
354,168,21698,22,0,L|415:178,2,49.5000015106202,2|2|2,0:0|0:0|0:0,0:0:0:0:
270,248,22006,2,0,P|199:261|125:273,1,144,6|0,0:0|0:0,0:0:0:0:
12,202,22467,2,0,P|17:156|56:125,1,72,0|0,0:0|0:0,0:0:0:0:
102,89,22698,1,0,0:0:0:0:
182,79,22775,6,0,L|268:101,1,80.9999975280763,8|8,0:0|0:0,0:0:0:0:
404,51,23083,1,8,0:0:0:0:
404,51,23160,1,8,0:0:0:0:
404,51,23237,54,0,P|391:90|386:131,1,80.9999975280763,6|0,0:0|0:0,0:0:0:0:
398,290,25237,5,8,0:0:0:0:
358,319,25313,1,8,0:0:0:0:
309,328,25390,1,8,0:0:0:0:
261,315,25467,1,8,0:0:0:0:
221,285,25544,1,8,0:0:0:0:
173,271,25621,1,8,0:0:0:0:
124,278,25698,6,0,B|258:247|258:247|281:158,1,198.000006042481,4|0,0:0|0:0,0:0:0:0:
371,35,26160,1,8,0:0:0:0:
182,113,26313,1,0,0:0:0:0:
348,233,26467,1,2,0:0:0:0:
159,110,26621,1,2,0:0:0:0:
364,17,26775,1,8,0:0:0:0:
291,146,26929,6,0,L|319:354,1,198.000006042481,2|0,0:0|0:0,0:0:0:0:
417,184,27390,2,0,P|426:133|430:74,1,99.0000030212403,8|0,0:0|0:0,0:0:0:0:
208,245,27698,1,2,0:0:0:0:
407,213,27852,1,2,0:0:0:0:
184,232,28006,1,8,0:0:0:0:
320,364,28160,54,0,P|234:324|100:353,1,198.000006042481,4|0,0:0|0:0,0:0:0:0:
316,249,28621,2,0,P|366:235|420:202,1,99.0000030212403,8|0,0:0|0:0,0:0:0:0:
167,140,28929,2,0,P|160:181|201:246,1,99.0000030212403,2|2,0:0|0:0,0:0:0:0:
340,370,29237,1,8,0:0:0:0:
245,176,29390,6,0,B|94:156|94:156|83:188|64:209,1,198.000006042481,4|0,0:0|0:0,0:0:0:0:
36,352,29852,2,0,L|161:329,1,99.0000030212403,8|0,0:0|0:0,0:0:0:0:
341,242,30160,1,2,0:0:0:0:
216,70,30313,1,2,0:0:0:0:
163,350,30467,1,8,0:0:0:0:
274,192,30621,1,8,0:0:0:0:
274,192,30698,1,8,0:0:0:0:
274,192,30775,6,0,P|344:204|435:214,1,148.50000453186,8|0,0:0|0:0,0:0:0:0:
486,169,31083,1,8,0:0:0:0:
299,90,31237,1,0,0:0:0:0:
351,279,31390,1,2,0:0:0:0:
413,112,31544,2,0,P|410:55|386:15,1,99.0000030212403,2|8,0:0|0:0,0:0:0:0:
177,209,31852,54,0,B|163:350|163:350|188:340|221:338,1,198.000006042481,4|2,0:0|0:0,0:0:0:0:
351,279,32313,2,0,L|336:170,1,99.0000030212403,8|0,0:0|0:0,0:0:0:0:
278,54,32621,1,2,0:0:0:0:
433,172,32775,1,8,0:0:0:0:
433,172,32852,1,8,0:0:0:0:
433,172,32929,1,8,0:0:0:0:
206,192,33083,1,8,0:0:0:0:
206,192,33160,1,8,0:0:0:0:
206,192,33237,5,8,0:0:0:0:
324,161,33390,1,2,0:0:0:0:
125,128,33544,5,8,0:0:0:0:
361,250,33698,1,2,0:0:0:0:
90,259,33852,53,8,0:0:0:0:
422,147,34006,1,2,0:0:0:0:
41,168,34160,5,8,0:0:0:0:
433,172,34313,1,2,0:0:0:0:
188,53,34467,21,4,0:0:0:0:
204,234,34621,1,2,0:0:0:0:
375,46,34775,1,8,0:0:0:0:
342,286,34929,1,2,0:0:0:0:
311,161,35083,38,0,B|231:179|226:126|130:172,1,161.999995056153,2|0,0:0|0:0,0:0:0:0:
204,234,35390,2,0,P|211:273|221:318,2,77.9999964294435,2|2|2,0:0|0:0|0:0,0:0:0:0:
271,75,35698,53,4,0:0:0:0:
172,140,35852,2,0,P|120:155|52:170,1,107.999996704102,2|0,0:0|0:0,0:0:0:0:
204,234,36313,2,0,P|256:245|308:261,1,107.999996704102,8|0,0:0|0:0,0:0:0:0:
274,147,36775,2,0,P|264:122|258:80,1,53.9999983520508,0|2,0:0|0:0,0:0:0:0:
390,174,37083,5,8,0:0:0:0:
308,262,37237,2,0,P|256:278|213:285,1,80.9999975280763,2|0,0:0|0:0,0:0:0:0:
144,264,37544,69,8,0:0:0:0:
274,147,37698,2,0,L|352:160,1,67.5,8|0,0:0|0:0,0:0:0:0:
161,15,38006,38,0,P|188:109|207:207,1,198.000006042481,4|0,0:0|0:0,0:0:0:0:
59,328,38467,38,0,P|38:283|43:243,1,72,2|0,0:0|0:0,0:0:0:0:
159,144,38775,1,8,0:0:0:0:
251,273,38929,2,0,P|201:268|126:262,1,107.999996704102,0|0,0:0|0:0,0:0:0:0:
52,159,39390,5,0,0:0:0:0:
121,44,39544,1,8,0:0:0:0:
52,159,39698,2,0,P|103:153|164:142,1,107.999996704102,0|8,0:0|0:0,0:0:0:0:
257,67,40160,2,0,P|265:34|265:0,2,53.9999983520508,2|2|2,0:0|0:0|0:0,0:0:0:0:
161,132,40621,69,6,0:0:0:0:
283,187,40775,2,0,P|345:201|406:211,1,107.999996704102,0|0,0:0|0:0,0:0:0:0:
281,296,41237,2,0,P|227:286|175:274,1,107.999996704102,8|0,0:0|0:0,0:0:0:0:
161,132,41698,2,0,P|159:105|179:70,1,53.9999983520508,0|2,0:0|0:0,0:0:0:0:
286,70,42006,5,8,0:0:0:0:
265,189,42160,2,0,L|283:314,1,107.999996704102,2|8,0:0|0:0,0:0:0:0:
83,263,42698,22,0,P|118:254|164:246,1,72,8|8,0:0|0:0,0:0:0:0:
278,145,42929,38,0,P|212:140|169:64,1,144,4|0,0:0|0:0,0:0:0:0:
143,194,43390,6,0,L|157:268,1,53.9999983520508,0|0,0:0|0:0,0:0:0:0:
265,51,43698,1,8,0:0:0:0:
278,145,43852,2,0,L|271:222,1,53.9999983520508,0|0,0:0|0:0,0:0:0:0:
236,312,44160,70,0,P|291:300|346:293,1,107.999996704102,0|2,0:0|0:0,0:0:0:0:
474,218,44621,2,0,P|420:210|367:199,1,107.999996704102,0|4,0:0|0:0,0:0:0:0:
438,120,45083,2,0,P|432:94|417:52,2,53.9999983520508,2|2|8,0:0|0:0|0:0,0:0:0:0:
335,112,45544,70,0,P|296:122|241:133,1,72,8|0,0:0|0:0,0:0:0:0:
263,219,45698,6,0,L|305:240,9,26.9999991760254,0|0|0|0|0|0|8|8|8|8,0:0|0:0|0:0|0:0|0:0|0:0|0:0|0:0|0:0|0:0,0:0:0:0:
190,170,46467,70,0,P|152:163|101:157,1,72,8|0,0:0|0:0,0:0:0:0:
41,102,46621,6,0,L|86:76,7,26.9999991760254,0|0|0|0|0|0|0|0,0:0|0:0|0:0|0:0|0:0|0:0|0:0|0:0,0:0:0:0:
11,190,47237,21,8,0:0:0:0:
11,190,47313,1,0,0:0:0:0:
11,190,47390,2,0,P|18:210|34:263,1,49.5000015106202,2|0,0:0|0:0,0:0:0:0:
162,312,47544,2,0,P|198:303|242:284,1,49.5000015106202,2|0,0:0|0:0,0:0:0:0:
359,193,47698,2,0,L|430:206,3,58.4999973220826,8|8|8|8,0:0|0:0|0:0|0:0,0:0:0:0:
289,62,48006,38,0,P|272:93|266:129,1,72,8|0,0:0|0:0,0:0:0:0:
300,268,48160,6,0,L|309:310,9,26.9999991760254,0|0|0|0|0|0|8|8|8|8,0:0|0:0|0:0|0:0|0:0|0:0|0:0|0:0|0:0|0:0,0:0:0:0:
199,198,48929,70,0,P|191:159|175:129,1,72,8|0,0:0|0:0,0:0:0:0:
112,55,49083,6,0,L|157:35,7,26.9999991760254,0|0|0|0|0|0|8|8,0:0|0:0|0:0|0:0|0:0|0:0|0:0|0:0,0:0:0:0:
25,108,49698,5,8,0:0:0:0:
25,108,49775,1,8,0:0:0:0:
25,108,49852,2,0,B|40:148|16:198|16:198|45:232|94:204,1,161.999995056153,6|2,0:0|0:0,0:0:0:0:
199,198,50390,1,2,0:0:0:0:
199,198,50467,6,0,P|176:228|171:252,1,49.5000015106202,6|0,0:0|0:0,0:0:0:0:
229,329,50621,2,0,B|364:347|364:347|377:325|416:297,1,198.000006042481,2|2,0:0|0:0,0:0:0:0:
466,207,51006,1,2,0:0:0:0:
466,207,51083,2,0,B|331:225|331:225|317:203|279:175,1,198.000006042481,12|0,0:0|0:0,0:0:0:0:
231,40,51698,6,0,L|221:116,1,49.5000015106202,6|0,0:0|0:0,0:0:0:0:
136,158,51852,2,0,B|168:288|168:288|189:268|227:260,1,198.000006042481,2|2,0:0|0:0,0:0:0:0:
324,283,52237,1,2,0:0:0:0:
324,283,52313,2,0,P|348:330|334:383,1,99.0000030212403,12|0,0:0|0:0,0:0:0:0:
287,181,52621,2,0,P|331:145|391:140,1,99.0000030212403,0|0,0:0|0:0,0:0:0:0:
225,260,52929,22,0,P|174:272|130:254,1,76.5000014591217,8|0,0:0|0:0,0:0:0:0:
127,232,53083,22,0,P|164:226|200:238,1,76.5000014591217,8|0,0:0|0:0,0:0:0:0:
339,373,53390,54,0,P|343:329|354:267,1,76.5000014591217,8|0,0:0|0:0,0:0:0:0:
362,220,53544,6,0,P|367:257|371:298,1,76.9499990606689,8|0,0:0|0:0,0:0:0:0:
270,97,53852,70,0,P|304:85|346:77,1,76.5000014591217,8|0,0:0|0:0,0:0:0:0:
247,113,54006,6,0,P|209:105|173:93,1,76.9499990606689,8|0,0:0|0:0,0:0:0:0:
113,27,54313,21,2,0:0:0:0:
113,27,54390,1,0,0:0:0:0:
113,27,54467,1,2,0:0:0:0:
54,105,54621,1,2,0:0:0:0:
103,188,54775,1,8,0:0:0:0:
198,206,54929,1,8,0:0:0:0:
286,165,55083,1,8,0:0:0:0:
383,173,55237,1,8,0:0:0:0:
444,257,55390,38,0,P|434:293|426:338,1,76.5000014591217,12|0,0:0|0:0,0:0:0:0:
266,374,55544,2,0,P|233:366|186:313,1,76.5000014591217,8|8,0:0|0:0,0:0:0:0:
79,200,55698,5,8,0:0:0:0:
79,200,55775,1,8,0:0:0:0:
79,200,55852,70,0,P|90:161|100:113,1,76.5000014591217,12|0,0:0|0:0,0:0:0:0:
198,30,56006,2,0,L|211:105,1,76.5000014591217,8|8,0:0|0:0,0:0:0:0:
307,182,56160,5,8,0:0:0:0:
307,182,56237,1,8,0:0:0:0:
307,182,56313,70,0,P|344:177|382:172,1,76.5000014591217,4|0,0:0|0:0,0:0:0:0:
315,332,56467,2,0,B|285:342|266:372|266:372|170:347|170:347|168:302|118:272,1,229.500004377365,6|0,0:0|0:0,0:0:0:0:
79,200,56775,6,0,P|107:203|132:210,1,36,2|0,0:0|0:0,0:0:0:0:
239,284,56929,2,0,P|232:268|219:228,1,36,2|0,0:0|0:0,0:0:0:0:
211,105,57083,2,0,P|198:138|195:163,1,36,2|0,0:0|0:0,0:0:0:0:
0,214,57237,70,0,P|39:210|87:197,1,80.9999975280763,8|0,0:0|0:0,0:0:0:0:
208,24,57390,2,0,P|204:69|219:126,1,80.9999975280763,8|0,0:0|0:0,0:0:0:0:
315,308,57544,2,0,P|297:300|199:281,1,80.9999975280763,8|0,0:0|0:0,0:0:0:0:
180,204,57698,5,8,0:0:0:0:
180,204,58929,70,0,B|280:172|324:256|324:256|376:248|384:216|384:216|374:198|376:168,1,288,4|2,0:0|0:0,0:0:0:0:
468,48,59390,38,0,P|419:68|356:80,1,107.999996704102,8|0,0:0|0:0,0:0:0:0:
100,108,59698,1,2,0:0:0:0:
232,284,59852,1,2,0:0:0:0:
272,52,60006,1,8,0:0:0:0:
180,204,60160,6,0,P|187:251|196:348,1,125.999996154785,2|2,0:0|0:0,0:0:0:0:
300,192,60621,1,8,0:0:0:0:
84,276,60775,1,0,0:0:0:0:
252,76,60929,1,2,0:0:0:0:
320,328,61083,1,2,0:0:0:0:
240,48,61237,1,8,0:0:0:0:
232,284,61390,22,0,B|275:287|308:300|308:300|428:264|428:264|392:320|412:368,1,288,4|2,0:0|0:0,0:0:0:0:
300,192,61852,38,0,P|284:140|280:80,1,107.999996704102,8|0,0:0|0:0,0:0:0:0:
420,228,62160,1,2,0:0:0:0:
200,188,62313,1,2,0:0:0:0:
400,100,62467,1,8,0:0:0:0:
180,204,62621,6,0,B|116:228|116:180|32:212,1,125.999996154785,2|2,0:0|0:0,0:0:0:0:
80,328,63083,1,8,0:0:0:0:
256,104,63237,1,0,0:0:0:0:
276,348,63390,1,2,0:0:0:0:
148,124,63544,1,2,0:0:0:0:
420,264,63698,1,8,0:0:0:0:
244,228,63852,22,0,B|224:160|256:104|256:104|204:100|190:40|190:40|196:12|252:4,1,288,4|2,0:0|0:0,0:0:0:0:
472,136,64313,38,0,P|415:151|368:168,1,107.999996704102,8|0,0:0|0:0,0:0:0:0:
140,228,64621,1,2,0:0:0:0:
396,272,64775,1,2,0:0:0:0:
388,72,64929,1,8,0:0:0:0:
272,236,65083,6,0,P|296:323|305:382,1,125.999996154785,2|2,0:0|0:0,0:0:0:0:
368,167,65544,1,8,0:0:0:0:
156,328,65698,1,0,0:0:0:0:
420,296,65852,1,2,0:0:0:0:
168,136,66006,1,2,0:0:0:0:
368,40,66160,1,8,0:0:0:0:
252,216,66313,1,8,0:0:0:0:
252,216,66390,1,8,0:0:0:0:
252,216,66467,22,0,B|225:251|192:256|192:256|156:236|108:236|108:236|68:172,1,216,6|0,0:0|0:0,0:0:0:0:
12,56,66775,2,0,P|48:68|104:80,1,72,8|0,0:0|0:0,0:0:0:0:
179,15,66929,6,0,P|172:67|167:143,1,121.499996292114,6|0,0:0|0:0,0:0:0:0:
263,336,67237,6,0,P|258:275|251:215,1,121.499996292114,6|0,0:0|0:0,0:0:0:0:
316,76,67544,70,0,P|352:56|416:148,1,157.499995193482,6|0,0:0|0:0,0:0:0:0:
360,216,68006,70,0,B|324:208|268:228|268:228|228:200|228:200|188:228|112:220,1,229.500004377365,6|0,0:0|0:0,0:0:0:0:
82,186,68313,69,8,0:0:0:0:
82,186,68390,1,8,0:0:0:0:
82,186,68467,1,8,0:0:0:0:
82,186,68544,1,8,0:0:0:0:
82,186,68621,1,8,0:0:0:0:
82,186,68698,5,8,0:0:0:0:
82,186,68775,38,0,B|113:316|113:316|173:324|197:342,1,215.999993408203,4|2,0:0|0:0,0:0:0:0:
360,216,69237,2,0,P|363:162|372:100,1,107.999996704102,8|0,0:0|0:0,0:0:0:0:
228,224,69544,1,2,0:0:0:0:
472,168,69698,1,2,0:0:0:0:
356,340,69852,1,8,0:0:0:0:
380,88,70006,6,0,B|271:97|212:112|212:112|204:88|180:68,1,215.999993408203,6|2,0:0|0:0,0:0:0:0:
24,200,70467,1,8,0:0:0:0:
272,132,70621,1,0,0:0:0:0:
16,212,70775,1,2,0:0:0:0:
140,16,70929,1,2,0:0:0:0:
8,224,71083,1,8,0:0:0:0:
136,136,71237,6,0,P|146:185|168:340,1,180,4|2,0:0|0:0,0:0:0:0:
280,216,71698,2,0,P|320:160|416:168,1,135,8|0,0:0|0:0,0:0:0:0:
448,188,72006,2,0,P|412:192|360:212,1,62.9999980773926,2|0,0:0|0:0,0:0:0:0:
210,117,72160,2,0,P|242:127|286:133,1,62.9999980773926,2|0,0:0|0:0,0:0:0:0:
288,324,72313,2,0,P|282:281|268:236,1,62.9999980773926,8|0,0:0|0:0,0:0:0:0:
184,216,72467,54,0,B|76:180|76:180|120:240|84:304,1,215.999993408203,6|2,0:0|0:0,0:0:0:0:
0,360,72929,1,8,0:0:0:0:
128,112,73083,1,0,0:0:0:0:
172,320,73237,1,2,0:0:0:0:
296,112,73390,1,2,0:0:0:0:
20,240,73544,1,8,0:0:0:0:
280,216,73698,2,0,L|356:200,1,53.9999983520508,8|8,0:0|0:0,0:0:0:0:
210,117,73852,6,0,B|158:97|86:93|86:93|70:25|140:16,1,202.500007724762,12|0,0:0|0:0,0:0:0:0:
149,214,74160,2,0,P|161:263|177:366,1,107.999996704102,8|2,0:0|0:0,0:0:0:0:
236,108,74467,1,0,0:0:0:0:
28,224,74621,1,2,0:0:0:0:
268,244,74775,1,8,0:0:0:0:
136,180,74929,6,0,B|76:116|104:28|104:28|176:-4|192:88,1,251.999992309571,4|0,0:0|0:0,0:0:0:0:
387,211,75390,2,0,B|335:207|267:243|267:243|275:287|251:327,1,188.999994232178,8|0,0:0|0:0,0:0:0:0:
181,355,75698,2,0,P|154:347|72:333,1,62.9999980773926,2|0,0:0|0:0,0:0:0:0:
346,303,75852,2,0,P|375:293|426:284,1,62.9999980773926,8|8,0:0|0:0,0:0:0:0:
186,168,76006,2,0,P|172:203|171:262,1,62.9999980773926,8|0,0:0|0:0,0:0:0:0:
287,170,76160,6,0,B|266:29|266:29|248:73|215:90,1,216,4|0,0:0|0:0,0:0:0:0:
181,16,76467,1,2,0:0:0:0:
375,108,76621,22,0,P|424:117|506:124,1,90,8|2,0:0|0:0,0:0:0:0:
186,168,76929,2,0,P|141:173|97:181,1,90,8|2,0:0|0:0,0:0:0:0:
335,259,77237,2,0,P|341:284|348:329,1,45,8|0,0:0|0:0,0:0:0:0:
272,383,77390,54,0,B|257:338|206:333|206:333|191:243|291:200,1,216,4|0,0:0|0:0,0:0:0:0:
324,178,77698,1,2,0:0:0:0:
469,304,77852,6,0,P|418:309|356:320,1,90,8|2,0:0|0:0,0:0:0:0:
79,216,78160,2,0,P|123:222|168:227,1,90,2|0,0:0|0:0,0:0:0:0:
280,100,78467,2,0,P|274:58|260:19,2,60,2|2|2,0:0|0:0|0:0,0:0:0:0:
324,178,78775,21,6,0:0:0:0:
196,230,78929,2,0,P|144:180|207:87,1,180,2|0,0:0|0:0,0:0:0:0:
379,5,79390,2,0,P|371:54|369:110,1,90,8|0,0:0|0:0,0:0:0:0:
438,290,79698,2,0,P|405:267|322:251,1,90,0|0,0:0|0:0,0:0:0:0:
113,190,80006,5,2,0:0:0:0:
375,124,80160,1,8,0:0:0:0:
262,300,80313,2,0,P|218:310|165:316,1,90,2|0,0:0|0:0,0:0:0:0:
81,92,80621,2,0,L|200:109,1,90,8|0,0:0|0:0,0:0:0:0:
383,151,80929,1,2,0:0:0:0:
178,7,81083,1,8,0:0:0:0:
88,221,81237,6,0,B|78:278|123:335|123:335|154:338|173:315,1,180,12|0,0:0|0:0,0:0:0:0:
383,151,81698,2,0,B|364:127|333:130|333:130|288:188|297:247,1,180,4|0,0:0|0:0,0:0:0:0:
504,362,82160,2,0,P|496:321|483:268,1,90,0|2,0:0|0:0,0:0:0:0:
431,63,82467,5,8,0:0:0:0:
276,246,82621,2,0,P|244:241|186:230,1,76.5000014591217,8|8,0:0|0:0,0:0:0:0:
113,190,82775,1,8,0:0:0:0:
383,151,83083,5,8,0:0:0:0:
297,245,83237,1,2,0:0:0:0:
264,123,83390,1,8,0:0:0:0:
394,165,83544,22,0,L|380:352,1,180,4|2,0:0|0:0,0:0:0:0:
117,274,84006,2,0,P|101:232|112:189,1,90,8|0,0:0|0:0,0:0:0:0:
295,58,84313,1,2,0:0:0:0:
276,246,84467,1,2,0:0:0:0:
48,117,84621,1,8,0:0:0:0:
248,156,84775,6,0,B|366:135|366:135|375:107|395:76,1,180,4|2,0:0|0:0,0:0:0:0:
364,258,85237,2,0,P|336:252|258:245,1,90,8|0,0:0|0:0,0:0:0:0:
32,293,85544,1,2,0:0:0:0:
221,137,85698,1,2,0:0:0:0:
307,360,85852,1,8,0:0:0:0:
152,243,86006,6,0,B|126:218|126:218|136:157|146:37,1,180,4|2,0:0|0:0,0:0:0:0:
275,245,86467,2,0,P|287:294|293:364,1,90,8|0,0:0|0:0,0:0:0:0:
239,149,86775,1,2,0:0:0:0:
177,340,86929,1,2,0:0:0:0:
398,210,87083,1,8,0:0:0:0:
193,253,87237,6,0,B|136:249|101:288|101:288|74:247|74:247|40:287|-19:260,1,216,4|0,0:0|0:0,0:0:0:0:
13,192,87544,1,2,0:0:0:0:
239,149,87698,2,0,P|279:140|339:125,1,72,8|0,0:0|0:0,0:0:0:0:
351,33,87852,6,0,B|299:49|235:18|235:18|253:39|256:63,1,157.5,4|8,0:0|0:0,0:0:0:0:
309,133,88467,22,0,B|305:171|279:192|279:192|329:198|358:223|358:223|321:257|321:257|341:283|329:321,1,251.999992309571,4|2,0:0|0:0,0:0:0:0:
95,363,88929,2,0,P|95:343|115:303,1,53.9999983520508,8|0,0:0|0:0,0:0:0:0:
193,253,89083,1,2,0:0:0:0:
53,56,89237,2,0,P|60:84|66:127,1,53.9999983520508,8|0,0:0|0:0,0:0:0:0:
13,192,89390,1,2,0:0:0:0:
256,120,89544,2,0,L|321:135,1,53.9999983520508,8|0,0:0|0:0,0:0:0:0:
482,74,89698,6,0,B|422:105|422:105|384:79|345:95|345:95|305:177|418:209,1,251.999992309571,4|2,0:0|0:0,0:0:0:0:
461,322,90160,2,0,P|432:333|388:347,1,53.9999983520508,8|0,0:0|0:0,0:0:0:0:
333,301,90313,1,2,0:0:0:0:
45,223,90467,2,0,L|124:206,1,53.9999983520508,8|0,0:0|0:0,0:0:0:0:
193,253,90621,1,2,0:0:0:0:
349,93,90775,2,0,P|320:83|288:69,1,53.9999983520508,8|0,0:0|0:0,0:0:0:0:
205,46,90929,6,0,B|158:12|158:12|185:219,1,251.999992309571,4|2,0:0|0:0,0:0:0:0:
306,347,91390,2,0,P|327:317|333:267,1,53.9999983520508,8|0,0:0|0:0,0:0:0:0:
322,207,91544,1,2,0:0:0:0:
79,204,91698,2,0,L|103:279,1,53.9999983520508,8|0,0:0|0:0,0:0:0:0:
177,298,91852,1,2,0:0:0:0:
236,120,92006,2,0,P|217:115|171:100,1,53.9999983520508,8|0,0:0|0:0,0:0:0:0:
97,112,92160,54,0,L|388:89,1,251.999992309571,4|2,0:0|0:0,0:0:0:0:
435,83,92544,1,8,0:3:0:0:
435,83,92621,1,8,0:3:0:0:
273,3,92775,1,2,0:0:0:0:
322,207,92929,6,0,P|362:238|424:234,1,107.999996704102,4|2,0:0|0:0,0:0:0:0:
223,160,93390,38,0,P|165:165|125:210,1,108,4|2,0:0|0:0,0:0:0:0:
130,197,94467,1,2,0:0:0:0:
130,197,94929,21,2,0:0:0:0:
133,227,95006,1,2,0:0:0:0:
136,257,95083,1,2,0:0:0:0:
371,362,95237,38,0,P|395:322|392:287,1,72,8|8,0:3|0:3,0:0:0:0:
455,186,95390,2,0,B|317:235|317:235|236:196|295:107|295:107|319:138|361:140,1,360,4|0,0:0|0:0,0:0:0:0:
450,70,95852,6,0,B|369:56|369:56|352:29,1,108,4|2,0:0|0:0,0:0:0:0:
355,34,96775,21,2,0:0:0:0:
352,64,96852,1,2,0:0:0:0:
349,94,96929,1,2,0:0:0:0:
236,195,97083,6,0,B|161:207|113:167|113:167|146:224|134:282,1,215.999993408203,6|8,0:0|0:3,0:0:0:0:
38,317,97467,1,8,0:3:0:0:
38,317,97544,22,0,P|25:291|30:247,1,62.9999980773926,8|0,0:3|0:0,0:0:0:0:
182,58,97698,2,0,P|195:93|190:132,1,62.9999980773926,8|0,0:3|0:0,0:0:0:0:
220,287,97852,2,0,B|304:288|371:345|371:345|429:299|429:299|421:275|427:243|427:243|389:214|344:273,1,360,6|0,0:0|0:0,0:0:0:0:
291,193,98313,6,0,P|291:143|321:106,1,90,4|0,0:0|0:0,0:0:0:0:
403,40,98775,21,2,0:0:0:0:
404,45,98852,1,2,0:0:0:0:
405,50,98929,1,2,0:0:0:0:
406,55,99006,1,2,0:0:0:0:
407,60,99083,2,0,L|418:126,1,53.9999983520508,6|0,0:0|0:0,0:0:0:0:
188,201,99237,1,8,0:0:0:0:
167,176,99313,1,8,0:0:0:0:
146,151,99390,2,0,L|153:80,1,53.9999983520508,8|0,0:0|0:0,0:0:0:0:
291,193,99544,6,0,P|331:275|251:364,1,202.500007724762,6|0,0:0|0:0,0:0:0:0:
177,374,99852,1,2,0:0:0:0:
151,364,99929,1,2,0:0:0:0:
125,354,100006,1,2,0:0:0:0:
99,344,100083,1,2,0:0:0:0:
73,334,100160,1,8,0:0:0:0:
47,324,100237,1,8,0:0:0:0:
25,314,100313,22,0,B|166:273|166:273|131:262|95:238,1,216,8|0,0:0|0:0,0:0:0:0:
228,127,100621,1,8,0:0:0:0:
228,127,100698,1,8,0:0:0:0:
228,127,100775,6,0,L|308:114,1,80.9999975280763,6|0,0:0|0:0,0:0:0:0:
403,30,102775,21,8,0:0:0:0:
375,71,102852,1,8,0:0:0:0:
373,120,102929,1,8,0:0:0:0:
398,162,103006,1,8,0:0:0:0:
431,198,103083,1,8,0:0:0:0:
446,244,103160,1,8,0:0:0:0:
420,292,103237,6,0,B|434:134|434:134|476:111,1,198.000006042481,4|0,0:0|0:0,0:0:0:0:
299,258,103698,2,0,P|250:270|155:276,1,99.0000030212403,8|0,0:0|0:0,0:0:0:0:
10,171,104006,1,2,0:0:0:0:
126,93,104160,2,0,P|175:98|223:111,1,99.0000030212403,2|8,0:0|0:0,0:0:0:0:
135,350,104467,6,0,P|104:304|162:184,1,198.000006042481,2|0,0:0|0:0,0:0:0:0:
399,198,104929,2,0,P|421:252|404:327,1,99.0000030212403,8|0,0:0|0:0,0:0:0:0:
286,363,105237,1,2,0:0:0:0:
512,226,105390,1,2,0:0:0:0:
299,258,105544,2,0,P|206:246|112:230,1,148.50000453186,8|0,0:0|0:0,0:0:0:0:
10,171,105852,54,0,B|110:146|110:146|93:127|81:98,1,148.50000453186,4|0,0:0|0:0,0:0:0:0:
106,22,106160,1,8,0:0:0:0:
151,237,106313,2,0,P|147:287|133:354,1,99.0000030212403,0|2,0:0|0:0,0:0:0:0:
255,164,106621,2,0,P|245:115|242:66,1,99.0000030212403,2|8,0:0|0:0,0:0:0:0:
512,226,106929,6,0,P|431:205|351:194,1,148.50000453186,4|0,0:0|0:0,0:0:0:0:
299,258,107237,1,0,0:0:0:0:
477,87,107390,1,8,0:0:0:0:
487,349,107544,1,0,0:0:0:0:
255,164,107698,1,2,0:0:0:0:
512,239,107852,1,2,0:0:0:0:
207,349,108006,1,8,0:0:0:0:
106,115,108160,1,8,0:0:0:0:
106,115,108237,1,8,0:0:0:0:
106,115,108313,6,0,P|176:129|260:140,1,148.50000453186,12|0,0:0|0:0,0:0:0:0:
325,84,108621,1,8,0:0:0:0:
157,239,108775,1,0,0:0:0:0:
181,18,108929,1,2,0:0:0:0:
345,98,109083,1,2,0:0:0:0:
59,135,109237,1,8,0:0:0:0:
369,115,109390,54,0,B|425:155|410:196|410:196|331:223|361:313,1,198.000006042481,4|2,0:0|0:0,0:0:0:0:
168,362,109852,2,0,P|126:339|68:328,1,99.0000030212403,8|0,0:0|0:0,0:0:0:0:
36,201,110160,1,2,0:0:0:0:
323,293,110313,1,8,0:0:0:0:
323,293,110390,1,8,0:0:0:0:
323,293,110467,1,8,0:0:0:0:
258,60,110621,1,8,0:0:0:0:
258,60,110698,1,8,0:0:0:0:
258,60,110775,5,8,0:0:0:0:
224,221,110929,1,2,0:0:0:0:
165,40,111083,5,8,0:0:0:0:
144,292,111237,1,2,0:0:0:0:
275,27,111390,53,8,0:0:0:0:
277,304,111544,1,2,0:0:0:0:
151,7,111698,5,8,0:0:0:0:
165,330,111852,1,2,0:0:0:0:
410,135,112006,21,4,0:0:0:0:
86,87,112160,1,2,0:0:0:0:
428,255,112313,1,8,0:0:0:0:
83,329,112467,1,2,0:0:0:0:
274,217,112621,38,0,B|244:149|321:134|251:46,1,148.50000453186,2|0,0:0|0:0,0:0:0:0:
154,163,112929,2,0,P|159:205|169:267,2,77.9999964294435,2|2|2,0:0|0:0|0:0,0:0:0:0:
275,27,113237,53,4,0:0:0:0:
165,131,113390,2,0,P|103:151|47:163,1,107.999996704102,2|0,0:0|0:0,0:0:0:0:
164,240,113852,2,0,P|197:279|181:349,1,107.999996704102,8|0,0:0|0:0,0:0:0:0:
274,217,114313,2,0,P|283:188|301:153,1,53.9999983520508,0|2,0:0|0:0,0:0:0:0:
275,27,114621,5,8,0:0:0:0:
314,149,114775,2,0,L|335:245,1,80.9999975280763,2|0,0:0|0:0,0:0:0:0:
371,303,115083,5,8,0:0:0:0:
258,233,115237,1,8,0:0:0:0:
384,177,115390,1,2,0:0:0:0:
363,342,115544,6,0,P|261:330|126:320,1,198.000006042481,4|2,0:0|0:0,0:0:0:0:
22,217,116006,38,0,P|5:258|12:283,1,53.9999983520508,2|0,0:0|0:0,0:0:0:0:
77,367,116313,1,8,0:0:0:0:
119,207,116467,2,0,L|109:97,1,107.999996704102,0|2,0:0|0:0,0:0:0:0:
105,55,116852,1,2,0:0:0:0:
105,55,116929,5,2,0:0:0:0:
195,0,117083,1,8,0:0:0:0:
275,102,117237,2,0,P|300:116|347:132,1,53.9999983520508,4|0,0:0|0:0,0:0:0:0:
442,37,117544,5,8,0:0:0:0:
442,37,117621,1,2,0:0:0:0:
442,37,117698,1,2,0:0:0:0:
442,37,117775,1,2,0:0:0:0:
442,37,117852,5,2,0:0:0:0:
438,61,117929,1,2,0:0:0:0:
436,84,118006,1,2,0:0:0:0:
433,108,118083,1,2,0:0:0:0:
431,131,118160,37,6,0:0:0:0:
510,233,118313,2,0,P|454:241|388:261,1,107.999996704102,2|0,0:0|0:0,0:0:0:0:
312,355,118775,2,0,P|256:346|190:327,1,107.999996704102,8|0,0:0|0:0,0:0:0:0:
86,275,119237,2,0,L|101:338,1,53.9999983520508,0|2,0:0|0:0,0:0:0:0:
186,220,119544,5,8,0:0:0:0:
102,158,119698,2,0,P|50:178|-14:193,1,107.999996704102,2|8,0:0|0:0,0:0:0:0:
198,23,120237,22,0,L|189:97,1,72,8|8,0:0|0:0,0:0:0:0:
186,220,120467,38,0,P|251:227|335:252,1,144,4|2,0:0|0:0,0:0:0:0:
429,188,120929,2,0,P|434:218|442:260,1,53.9999983520508,2|0,0:0|0:0,0:0:0:0:
323,139,121237,1,8,0:0:0:0:
323,139,121390,2,0,P|325:112|333:77,1,53.9999983520508,0|0,0:0|0:0,0:0:0:0:
326,248,121698,6,0,P|271:294|206:290,1,125.999996154785,0|2,0:0|0:0,0:0:0:0:
143,124,122160,2,0,P|210:148|239:206,1,125.999996154785,0|4,0:0|0:0,0:0:0:0:
120,289,122621,2,0,P|125:253|149:218,2,62.9999980773926,2|2|10,0:0|0:0|0:0,0:0:0:0:
244,200,123083,54,0,L|232:113,1,72,8|8,0:0|0:0,0:0:0:0:
269,29,123237,6,0,L|222:14,9,26.9999991760254,0|0|0|0|0|0|8|8|8|8,0:0|0:0|0:0|0:0|0:0|0:0|0:0|0:0|0:0|0:0,0:0:0:0:
323,139,124006,70,0,L|332:210,1,72,8|8,0:0|0:0,0:0:0:0:
376,319,124160,6,0,L|423:304,7,26.9999991760254,0|0|0|0|0|0|0|0,0:0|0:0|0:0|0:0|0:0|0:0|0:0|0:0,0:0:0:0:
246,281,124775,21,8,0:0:0:0:
246,281,124852,1,0,0:0:0:0:
246,281,124929,2,0,P|231:323|225:369,1,49.5000015106202,2|0,0:0|0:0,0:0:0:0:
88,258,125083,2,0,P|80:233|81:194,1,49.5000015106202,2|0,0:0|0:0,0:0:0:0:
146,101,125237,2,0,P|116:93|77:79,3,58.4999973220826,8|8|8|8,0:0|0:0|0:0|0:0,0:0:0:0:
267,156,125544,38,0,P|303:145|348:127,1,58.4999973220826,8|8,0:0|0:0,0:0:0:0:
441,178,125698,6,0,L|453:138,9,26.9999991760254,0|0|0|0|0|0|8|8|8|8,0:0|0:0|0:0|0:0|0:0|0:0|0:0|0:0|0:0|0:0,0:0:0:0:
376,319,126467,70,0,P|348:309|305:302,1,72,8|8,0:0|0:0,0:0:0:0:
203,311,126621,6,0,L|210:336,7,26.9999991760254,0|0|0|0|0|0|8|8,0:0|0:0|0:0|0:0|0:0|0:0|0:0|0:0,0:0:0:0:
156,205,127237,5,8,0:0:0:0:
156,205,127313,1,8,0:0:0:0:
156,205,127390,2,0,B|122:195|114:167|114:167|136:88|227:105,1,188.999994232178,6|2,0:0|0:0,0:0:0:0:
263,191,128006,6,0,L|250:254,1,49.5000015106202,6|0,0:0|0:0,0:0:0:0:
305,352,128160,2,0,B|164:326|164:326|149:350|116:369,1,198.000006042481,2|2,0:0|0:0,0:0:0:0:
71,226,128544,1,2,0:0:0:0:
71,226,128621,2,0,B|212:200|212:200|227:224|260:243,1,199.80000487793,12|0,0:0|0:0,0:0:0:0:
401,185,129160,1,0,0:0:0:0:
401,185,129237,6,0,P|409:154|411:115,1,49.5000015106202,6|0,0:0|0:0,0:0:0:0:
324,6,129390,2,0,B|278:-7|256:46|256:46|297:84|302:166,1,198.000006042481,2|2,0:0|0:0,0:0:0:0:
349,268,129775,1,2,0:0:0:0:
349,268,129852,2,0,P|407:283|468:246,1,99.0000030212403,12|0,0:0|0:0,0:0:0:0:
252,238,130160,2,0,P|210:280|211:352,1,99.0000030212403,0|0,0:0|0:0,0:0:0:0:
318,172,130467,22,0,L|306:90,1,76.5000014591217,8|0,0:0|0:0,0:0:0:0:
324,6,130621,22,0,L|312:81,1,76.9499990606689,8|0,0:0|0:0,0:0:0:0:
71,226,130929,54,0,P|104:247|163:252,1,76.5000014591217,8|0,0:0|0:0,0:0:0:0:
227,221,131083,6,0,P|182:226|150:244,1,76.9499990606689,8|0,0:0|0:0,0:0:0:0:
398,350,131390,70,0,P|399:312|370:262,1,76.5000014591217,8|0,0:0|0:0,0:0:0:0:
368,249,131544,6,0,L|458:275,1,76.9499990606689,8|0,0:0|0:0,0:0:0:0:
502,198,131852,21,2,0:0:0:0:
502,198,131929,1,0,0:0:0:0:
502,198,132006,1,2,0:0:0:0:
436,118,132160,1,2,0:0:0:0:
333,117,132313,1,8,0:0:0:0:
263,192,132467,1,8,0:0:0:0:
168,232,132621,1,8,0:0:0:0:
69,202,132775,1,8,0:0:0:0:
33,103,132929,38,0,P|34:54|59:17,1,76.5000014591217,12|0,0:0|0:0,0:0:0:0:
159,118,133083,2,0,L|169:206,1,76.5000014591217,8|8,0:0|0:0,0:0:0:0:
256,337,133237,5,8,0:0:0:0:
256,337,133313,1,8,0:0:0:0:
256,337,133390,70,0,P|291:325|351:314,1,76.5000014591217,12|0,0:0|0:0,0:0:0:0:
461,243,133544,2,0,P|476:204|472:161,1,76.5000014591217,8|8,0:0|0:0,0:0:0:0:
319,44,133698,5,8,0:0:0:0:
319,44,133775,1,8,0:0:0:0:
319,44,133852,70,0,P|318:81|332:117,1,76.5000014591217,4|0,0:0|0:0,0:0:0:0:
245,235,134006,2,0,B|225:229|196:218|196:218|149:262|91:247|91:247|119:231|128:175,1,229.500004377365,6|0,0:0|0:0,0:0:0:0:
85,101,134313,6,0,L|147:90,1,36,2|0,0:0|0:0,0:0:0:0:
319,44,134467,2,0,L|299:100,1,36,2|0,0:0|0:0,0:0:0:0:
248,270,134621,2,0,L|241:204,1,36,2|0,0:0|0:0,0:0:0:0:
319,44,134775,70,0,P|356:37|411:24,1,80.9999975280763,8|0,0:0|0:0,0:0:0:0:
85,101,134929,2,0,P|47:94|-7:81,1,80.9999975280763,8|0,0:0|0:0,0:0:0:0:
248,270,135083,2,0,P|259:316|262:372,1,80.9999975280763,8|0,0:0|0:0,0:0:0:0:
218,140,135237,5,8,0:0:0:0:
218,140,136467,70,0,B|188:200|246:244|246:244|196:278|201:330|201:330|146:348|127:264,1,288,4|2,0:0|0:0,0:0:0:0:
344,161,136929,38,0,P|395:153|456:141,1,107.999996704102,8|0,0:0|0:0,0:0:0:0:
191,116,137237,1,2,0:0:0:0:
428,237,137390,1,2,0:0:0:0:
381,45,137544,1,8,0:0:0:0:
246,244,137698,6,0,P|183:233|115:227,1,125.999996154785,2|2,0:0|0:0,0:0:0:0:
333,171,138160,1,8,0:0:0:0:
316,335,138313,1,0,0:0:0:0:
179,104,138467,1,2,0:0:0:0:
191,356,138621,1,2,0:0:0:0:
344,161,138775,1,8,0:0:0:0:
121,227,138929,22,0,B|70:254|58:302|58:302|46:227|-10:193|-10:193|31:173|61:135,1,288,4|2,0:0|0:0,0:0:0:0:
142,11,139390,38,0,P|175:48|169:123,1,107.999996704102,8|0,0:0|0:0,0:0:0:0:
181,334,139698,1,2,0:0:0:0:
344,161,139852,1,2,0:0:0:0:
86,87,140006,1,8,0:0:0:0:
246,244,140160,6,0,B|302:223|316:278|394:246,1,125.999996154785,2|2,0:0|0:0,0:0:0:0:
493,151,140621,1,8,0:0:0:0:
407,358,140775,1,0,0:0:0:0:
340,66,140929,1,2,0:0:0:0:
497,258,141083,1,2,0:0:0:0:
216,349,141237,1,8,0:0:0:0:
344,161,141390,22,0,B|281:164|249:106|249:106|229:134|203:149|203:149|157:137|139:156|139:156|151:188|158:215,1,288,4|2,0:0|0:0,0:0:0:0:
216,349,141852,38,0,L|344:330,1,107.999996704102,8|0,0:0|0:0,0:0:0:0:
464,225,142160,1,2,0:0:0:0:
180,63,142313,1,2,0:0:0:0:
256,265,142467,1,8,0:0:0:0:
331,81,142621,6,0,P|337:150|351:225,1,125.999996154785,2|2,0:0|0:0,0:0:0:0:
419,355,143083,1,8,0:0:0:0:
461,122,143237,1,0,0:0:0:0:
180,63,143390,1,2,0:0:0:0:
274,271,143544,1,2,0:0:0:0:
355,64,143698,1,8,0:0:0:0:
153,181,143852,1,8,0:0:0:0:
153,181,143929,1,8,0:0:0:0:
153,181,144006,22,0,B|116:167|44:195|44:195|15:173|16:102,1,161.999995056153,6|0,0:0|0:0,0:0:0:0:
71,43,144237,1,0,0:0:0:0:
71,43,144313,2,0,P|115:53|179:62,1,80.9999975280763,8|0,0:0|0:0,0:0:0:0:
355,64,144467,6,0,P|313:114|232:99,1,121.499996292114,6|0,0:0|0:0,0:0:0:0:
323,226,144775,2,0,P|387:237|414:315,1,121.499996292114,6|0,0:0|0:0,0:0:0:0:
470,168,145083,6,0,P|447:105|501:41,1,157.499995193482,6|0,0:0|0:0,0:0:0:0:
362,112,145544,54,0,B|373:181|378:270|378:270|419:284|441:309,1,229.500004377365,6|0,0:0|0:0,0:0:0:0:
362,362,145852,5,8,0:0:0:0:
325,372,145929,1,8,0:0:0:0:
286,372,146006,1,8,0:0:0:0:
252,353,146083,1,8,0:0:0:0:
219,333,146160,1,8,0:0:0:0:
180,331,146237,69,8,0:0:0:0:
148,362,146313,38,0,B|119:206|119:206|39:218,1,215.999993408203,4|2,0:0|0:0,0:0:0:0:
272,253,146775,2,0,P|334:263|397:271,1,107.999996704102,8|0,0:0|0:0,0:0:0:0:
209,99,147083,1,2,0:0:0:0:
219,333,147237,1,2,0:0:0:0:
40,188,147390,1,8,0:0:0:0:
345,158,147544,6,0,B|403:105|375:23|375:23|308:5|298:83,1,215.999993408203,6|2,0:0|0:0,0:0:0:0:
184,185,148006,1,8,0:0:0:0:
331,335,148160,1,0,0:0:0:0:
469,99,148313,1,2,0:0:0:0:
314,181,148467,2,0,P|260:191|195:199,1,107.999996704102,2|8,0:0|0:0,0:0:0:0:
88,99,148775,6,0,B|109:158|45:178|88:248,1,144,4|2,0:0|0:0,0:0:0:0:
199,365,149237,2,0,P|247:338|246:280,1,108,8|0,0:0|0:0,0:0:0:0:
207,197,149544,2,0,P|241:194|279:188,1,62.9999980773926,2|0,0:0|0:0,0:0:0:0:
437,354,149698,2,0,P|412:349|363:335,1,62.9999980773926,2|0,0:0|0:0,0:0:0:0:
433,143,149852,2,0,P|429:181|399:238,1,62.9999980773926,8|0,0:0|0:0,0:0:0:0:
275,157,150006,54,0,B|118:148|118:148|111:123|78:87,1,215.999993408203,6|2,0:0|0:0,0:0:0:0:
30,238,150467,2,0,P|39:284|55:349,1,107.999996704102,8|0,0:0|0:0,0:0:0:0:
165,166,150775,1,2,0:0:0:0:
211,340,150929,1,2,0:0:0:0:
264,67,151083,1,8,0:0:0:0:
440,234,151237,2,0,P|411:233|363:224,1,53.9999983520508,8|8,0:0|0:0,0:0:0:0:
261,188,151390,6,0,B|252:127|290:84|290:84|362:72|374:145,1,202.500007724762,12|0,0:0|0:0,0:0:0:0:
387,230,151698,21,8,0:0:0:0:
142,114,151852,1,2,0:0:0:0:
462,133,152006,1,2,0:0:0:0:
59,220,152160,6,0,P|66:248|71:279,1,53.9999983520508,6|4,0:0|0:0,0:0:0:0:
256,192,158775,12,0,163698,0:0:0:0:
67,304,158775,5,2,0:0:0:0:
143,227,158929,1,0,0:0:0:0:
44,204,159083,2,0,L|-4:219,1,36,0|0,0:0|0:0,0:0:0:0:
153,219,159390,1,0,0:0:0:0:
107,117,159544,2,0,L|64:104,1,36,0|0,0:0|0:0,0:0:0:0:
256,320,159852,53,2,0:0:0:0:
256,320,160006,1,2,0:0:0:0:
368,192,160160,5,0,0:0:0:0:
472,230,160313,1,0,0:0:0:0:
393,299,160467,1,0,0:0:0:0:
485,224,160621,1,0,0:0:0:0:
368,192,160775,1,0,0:0:0:0:
498,217,160929,1,0,0:0:0:0:
256,320,161083,69,2,0:0:0:0:
256,320,161237,1,2,0:0:0:0:
217,122,161390,5,0,0:0:0:0:
290,53,161544,2,0,L|280:5,1,36,0|0,0:0|0:0,0:0:0:0:
212,130,161852,1,0,0:0:0:0:
327,169,162006,1,0,0:0:0:0:
290,57,162160,1,0,0:0:0:0:
207,140,162313,1,0,0:0:0:0:
323,207,162467,22,0,L|315:305,1,90,2|0,0:0|0:0,0:0:0:0:
201,152,162775,6,0,L|209:250,1,90,2|0,0:0|0:0,0:0:0:0:
424,262,163083,6,0,L|416:360,1,90,2|0,0:0|0:0,0:0:0:0:
118,254,163390,6,0,L|126:352,1,90,2|2,0:0|0:0,0:0:0:0:
290,57,163852,5,0,0:0:0:0:
311,164,164006,1,2,0:0:0:0:
198,117,164160,1,0,0:0:0:0:
333,127,164313,1,2,0:0:0:0:
166,114,164467,2,0,L|84:105,1,62.9999980773926,0|2,0:0|0:0,0:0:0:0:
132,233,164775,6,0,P|139:268|148:332,1,90
56,294,164929,1,2,0:0:0:0:
56,294,165237,1,2,0:0:0:0:
144,208,165390,1,0,0:0:0:0:
177,335,165544,1,2,0:0:0:0:
31,296,165698,1,0,0:0:0:0:
241,252,165852,2,0,L|325:234,1,62.9999980773926,2|0,0:0|0:0,0:0:0:0:
485,74,166140,70,0,B|551:103|546:173|527:245|393:209|393:209|361:315|300:311|300:311|250:308|236:270|223:257|223:257|176:307|64:351|-113:319|-18:224|-32:133|39:152|90:171|111:158|111:158|126:151|126:132|143:123|144:108|174:96|174:96|211:90|246:102|246:102|236:75|218:38|227:14|237:-6|253:-25|287:-32|287:-32|323:-40|373:-20|364:11|381:34|381:34|404:72|492:81|534:68|543:62|543:62|592:224|507:261|507:261|413:263|413:263|415:325|301:383|198:318|198:318|-12:349|-12:349|-68:166|-68:166|93:108|202:56|202:56|181:-39|181:-39|406:-32|406:-32|426:32|529:37|529:37|577:19|577:19|591:277|591:277|457:308|457:308|438:354|438:354|-55:373|-55:373|-101:137|-101:137|161:34|161:34|126:-46|126:-46|446:-53|446:-53|511:1|511:1|596:-37|596:-37|619:321|619:321|509:337|509:337|476:366|476:366|-115:373|-115:373|-113:83|-113:83|96:19|96:19|87:-58|87:-58|638:-59|638:-59|640:378|640:378|-144:373|-144:373|-121:32|-121:32|40:-6|40:-6|44:-61|44:-61|656:-63|656:-63|673:428|673:428|-175:427|-175:427|-163:12|-163:12|-158:-52|-158:-52|9:-62|9:-62|-22:-1|-22:-1|-299:-2,1,12375
461,143,166160,70,0,B|445:142|445:142|460:143|460:143|460:143|460:143|460:143|460:143|445:142|445:142|460:143|460:143|445:142|445:142|460:143|460:143|445:142|445:142|460:143|460:143|445:142|445:142|460:144|460:144|445:143|445:143|460:144|460:144|445:143|445:143|460:143|460:143|445:143|445:143|460:143|460:143|445:143|445:143|460:144|460:144|445:143|445:143|461:144|461:144|445:143|445:143|461:144|461:144|445:143|445:143|338:130|301:39|301:39|310:57|310:57|301:39|301:39|310:57|310:57|301:39|301:39|310:58|310:58|301:39|301:39|310:58|310:58|301:39|301:39|310:58|310:58|301:39|301:39|310:58|310:58|301:39|301:39|310:58|310:58|301:40|301:40|310:58|310:58|301:39|301:39|350:162|301:239|301:239|287:217|287:217|301:239|301:239|287:217|287:217|301:239|301:239|287:218|287:218|301:238|301:238|287:218|287:218|301:239|301:239|287:217|287:217|301:239|301:239|287:217|287:217|301:239|301:239|287:218|287:218|301:239|301:239|287:217|287:217|301:239|301:239|301:239|301:239|286:217|286:217|255:173|198:166|198:166|186:188|186:188|198:166|198:166|186:187|186:187|197:167|197:167|197:168|197:168|186:187|186:187|198:168|198:168|186:187|186:187|197:167|197:167|186:188|186:188|198:168|198:168|186:188|186:188|197:168|197:168|186:188|186:188|146:254|40:229,1,2070
57,232,168006,6,0,P|141:226|205:145,1,170.999995433807,8|8,0:0|0:0,0:0:0:0:
301,39,168390,1,8,0:0:0:0:
301,39,168467,70,0,B|349:155|301:239|301:239|348:237|382:253|382:253|369:222|382:184,1,323.999990112305,6|2,0:0|0:0,0:0:0:0:
483,96,168929,86,0,B|461:143|461:143|505:203|493:306,1,188.999994232178,8|0,0:0|0:0,0:0:0:0:
424,335,169236,2,0,P|463:345|491:359,1,62.9999980773926,2|0,0:0|0:0,0:0:0:0:
326,358,169390,1,2,0:0:0:0:
400,207,169544,1,8,0:0:0:0:
211,283,169698,86,0,B|137:275|65:338|65:338|116:292|118:198,1,251.999992309571,2|2,0:0|0:0,0:0:0:0:
84,104,170160,2,0,P|111:113|143:121,1,53.9999983520508,8|0,0:0|0:0,0:0:0:0:
222,91,170313,1,0,0:0:0:0:
38,26,170467,1,2,0:0:0:0:
123,229,170621,1,2,0:0:0:0:
288,33,170775,1,8,0:0:0:0:
410,169,170929,86,0,B|404:228|451:262|451:262|411:286|393:362|393:362|364:298|324:287,1,323.999990112305,6|2,0:0|0:0,0:0:0:0:
184,358,171390,86,0,P|153:351|97:343,1,72,8|0,0:0|0:0,0:0:0:0:
10,249,171544,2,0,L|25:159,1,72
151,120,171698,2,0,P|166:159|185:193,1,72,2|0,0:0|0:0,0:0:0:0:
330,289,171852,2,0,P|299:282|243:274,1,72,2|0,0:0|0:0,0:0:0:0:
409,162,172006,2,0,P|447:155|514:141,1,72,8|0,0:0|0:0,0:0:0:0:
316,19,172160,2,0,P|301:48|298:101,1,72,2|0,0:0|0:0,0:0:0:0:
204,203,172313,6,0,P|234:193|277:184,1,53.9999983520508
330,289,172518,1,0,0:0:0:0:
140,273,172621,6,0,P|116:251|87:219,1,53.9999983520508,8|0,0:0|0:0,0:0:0:0:
151,120,172826,1,0,0:0:0:0:
230,290,172929,70,0,P|222:320|209:362,1,51.7500009870529,2|0,0:0|0:0,0:0:0:0:
151,120,173083,69,8,0:0:0:0:
144,112,173160,1,8,0:0:0:0:
134,102,173236,2,0,L|126:33,1,51.7500009870529,8|0,0:0|0:0,0:0:0:0:
217,70,173390,6,0,P|255:82|296:85,1,80.9999975280763,6|0,0:0|0:0,0:0:0:0:
380,18,173698,69,2,0:0:0:0:
405,47,173775,1,0,0:0:0:0:
417,84,173852,1,8,0:0:0:0:
413,123,173929,1,0,0:0:0:0:
396,159,174006,1,0,0:0:0:0:
364,182,174083,1,0,0:0:0:0:
326,199,174160,86,0,P|290:194|223:179,1,72,2|0,0:0|0:0,0:0:0:0:
151,120,174313,2,0,P|106:135|64:141,1,72,2|0,0:0|0:0,0:0:0:0:
0,234,174467,2,0,P|-2:274|20:313,1,72,8|0,0:0|0:0,0:0:0:0:
105,384,174621,2,0,P|108:353|128:306,1,72,2|0,0:0|0:0,0:0:0:0:
211,372,174775,85,0,0:0:0:0:
250,365,174852,1,0,0:0:0:0:
289,359,174929,1,2,0:0:0:0:
328,353,175006,1,0,0:0:0:0:
354,382,175083,1,8,0:0:0:0:
393,376,175160,1,0,0:0:0:0:
431,371,175236,1,0,0:0:0:0:
470,363,175313,1,0,0:0:0:0:
495,275,175390,86,0,L|464:162,1,72,2|0,0:0|0:0,0:0:0:0:
405,37,175544,2,0,P|381:65|373:123,1,72,2|0,0:0|0:0,0:0:0:0:
255,187,175698,2,0,L|168:202,1,72,8|0,0:0|0:0,0:0:0:0:
150,119,175852,6,0,P|105:91|60:99,1,80.9999975280763,6|0,0:0|0:0,0:0:0:0:
85,102,176160,2,0,P|57:115|24:122,1,58.4999973220826,2|0,0:0|0:0,0:0:0:0:
71,207,176313,69,8,0:0:0:0:
99,243,176390,85,0,0:0:0:0:
121,284,176467,85,0,0:0:0:0:
119,328,176544,85,0,0:0:0:0:
99,370,176621,85,2,0:0:0:0:
136,342,176698,85,0,0:0:0:0:
180,328,176775,85,2,0:0:0:0:
226,328,176852,85,0,0:0:0:0:
269,345,176929,85,8,0:0:0:0:
309,368,177006,85,0,0:0:0:0:
355,375,177083,85,2,0:0:0:0:
401,368,177160,85,0,0:0:0:0:
437,340,177236,85,0,0:0:0:0:
440,293,177313,85,0,0:0:0:0:
409,244,177390,86,0,P|373:255|348:283,1,72,2|0,0:0|0:0,0:0:0:0:
99,243,177544,86,0,P|151:239|176:211,1,72,12|0,0:0|0:0,0:0:0:0:
251,26,177698,86,0,P|258:59|278:114,1,72,2|0,0:0|0:0,0:0:0:0:
287,178,177852,6,0,B|220:192|211:130|137:150,1,150,8|0,0:3|0:0,0:0:0:0:
358,108,178160,5,8,0:3:0:0:
391,99,178262,1,8,0:3:0:0:
428,92,178365,1,8,0:3:0:0:
464,87,178467,54,0,P|473:120|469:170,1,58.4999973220826,6|0,0:0|0:0,0:0:0:0:
350,279,178621,54,0,B|451:250|451:250|471:275|511:294,1,161.999995056153,2|2,0:0|0:0,0:0:0:0:
356,363,178929,1,0,0:0:0:0:
356,363,179006,1,2,0:0:0:0:
356,363,179083,2,0,L|175:337,1,161.999995056153,12|2,0:0|0:0,0:0:0:0:
37,242,179544,21,2,0:0:0:0:
52,237,179621,1,2,0:0:0:0:
73,230,179698,2,0,P|106:239|144:243,1,58.4999973220826,6|0,0:0|0:0,0:0:0:0:
225,164,179852,54,0,B|235:103|172:82|172:82|140:93|141:134,1,161.999995056153,2|2,0:0|0:0,0:0:0:0:
223,255,180160,1,0,0:0:0:0:
223,255,180236,1,2,0:0:0:0:
223,255,180313,2,0,B|251:283|320:268|320:268|322:227|371:191|371:191|384:245|444:259,1,283.499991348267,6|0,0:0|0:0,0:0:0:0:
474,158,180929,22,0,P|477:117|431:67,1,90,8|0,0:0|0:0,0:0:0:0:
326,45,181083,6,0,L|239:65,1,87.749995983124,8|0,0:0|0:0,0:0:0:0:
62,68,181390,70,0,P|36:104|39:148,1,90,8|0,0:0|0:0,0:0:0:0:
59,271,181544,6,0,P|105:276|162:279,1,87.749995983124,8|0,0:0|0:0,0:0:0:0:
252,160,181852,70,0,L|342:139,1,90,8|0,0:0|0:0,0:0:0:0:
425,253,182006,6,0,P|417:304|410:355,1,90,8|0,0:0|0:0,0:0:0:0:
306,378,182313,5,8,0:3:0:0:
306,378,182390,1,8,0:3:0:0:
306,378,182467,1,8,0:3:0:0:
221,346,182621,1,8,0:3:0:0:
193,260,182775,1,2,0:0:0:0:
238,179,182929,1,2,0:0:0:0:
323,149,183083,1,2,0:0:0:0:
352,64,183236,1,2,0:0:0:0:
236,0,183390,53,6,0:0:0:0:
190,22,183467,85,2,0:0:0:0:
165,66,183544,85,8,0:0:0:0:
165,116,183621,85,8,0:0:0:0:
193,157,183698,85,8,0:0:0:0:
238,179,183775,85,8,0:0:0:0:
288,180,183852,86,0,P|322:175|390:147,1,62.9999980773926,12|2,0:0|0:0,0:0:0:0:
258,89,184006,85,2,0:0:0:0:
212,111,184083,85,2,0:0:0:0:
193,157,184160,85,8,0:0:0:0:
189,206,184236,85,8,0:0:0:0:
214,249,184313,85,8,0:0:0:0:
258,272,184390,85,8,0:0:0:0:
308,271,184467,86,0,P|342:266|410:238,1,62.9999980773926,12|0,0:0|0:0,0:0:0:0:
256,192,184544,12,0,186929,0:0:0:0:
238,239,186467,6,0,B|321:268|314:196|402:226,1,161.999995056153,8|0,0:3|0:0,0:0:0:0:
369,303,186698,1,8,0:3:0:0:
365,311,186775,1,8,0:3:0:0:
361,323,186852,1,8,0:3:0:0:
356,333,186929,69,0,0:0:0:0:
270,158,186929,6,0,P|262:109|256:77,1,80.9999975280763,6|0,0:0|0:0,0:0:0:0:
366,107,188929,70,0,P|334:97|274:94,1,80.9999975280763,8|0,0:0|0:0,0:0:0:0:
139,211,189083,6,0,P|179:207|218:197,1,80.9999975280763,8|0,0:0|0:0,0:0:0:0:
308,175,189390,6,0,P|298:220|308:265,1,80.9999975280763,6|0,0:0|0:0,0:0:0:0:
403,318,190621,5,2,0:0:0:0:
403,318,190698,1,2,0:0:0:0:
403,318,190775,1,2,0:0:0:0:
304,254,191083,5,8,0:3:0:0:
283,256,191159,1,8,0:3:0:0:
263,258,191236,1,8,0:3:0:0:
243,261,191313,1,8,0:3:0:0:
172,275,191390,22,0,L|73:287,1,80.9999975280763,8|0,0:0|0:0,0:0:0:0:
113,191,191544,6,0,L|17:177,1,80.9999975280763,8|0,0:0|0:0,0:0:0:0:
92,100,191852,6,0,P|101:62|83:21,1,80.9999975280763,6|0,0:0|0:0,0:0:0:0:
304,254,193852,70,0,P|375:264|449:271,1,144,2|0,0:0|0:0,0:0:0:0:
197,212,194006,5,8,0:0:0:0:
197,212,194083,1,8,0:0:0:0:
197,212,194160,2,0,P|137:223|50:233,1,125.999996154785,8|0,0:0|0:0,0:0:0:0:
273,147,194467,54,0,B|266:93|302:34|302:34|222:-14|188:95,1,229.500004377365,6|0,0:0|0:0,0:0:0:0:
369,103,194775,2,0,P|406:116|454:124,1,76.5000014591217,0|0,0:0|0:0,0:0:0:0:
304,254,194929,6,0,P|271:294|313:369,1,125.999996154785,6|0,0:0|0:0,0:0:0:0:
197,212,195236,6,0,P|178:163|92:162,1,125.999996154785
273,147,195544,70,0,P|324:155|368:81,1,125.999996154785,6|0,0:0|0:0,0:0:0:0:
327,23,195852,69,2,0:0:0:0:
278,252,196006,1,2,0:0:0:0:
204,55,196160,1,2,0:0:0:0:
301,371,196313,1,8,0:0:0:0:
198,23,196467,1,8,0:0:0:0:
198,384,196621,1,8,0:0:0:0:
330,0,196775,1,8,0:0:0:0:
98,173,197313,6,0,B|130:304|130:304|163:276|213:260,1,215.999993408203
294,221,198006,22,0,P|204:187|294:220,1,321.30000196106,4|8,0:0|0:0,0:0:0:0:
98,173,198313,5,2,0:0:0:0:
200,350,198467,2,0,P|255:357|331:360,1,107.999996704102,8|0,0:0|0:0,0:0:0:0:
87,62,198775,1,2,0:0:0:0:
52,330,198929,1,0,0:0:0:0:
294,221,199083,1,0,0:0:0:0:
184,167,199237,6,0,P|191:99|203:29,1,125.999996154785,2|2,0:0|0:0,0:0:0:0:
98,173,199698,1,8,0:0:0:0:
328,107,199852,1,0,0:0:0:0:
256,313,200006,1,2,0:0:0:0:
72,158,200160,1,2,0:0:0:0:
401,203,200313,1,8,0:0:0:0:
164,272,200467,6,0,B|81:251|24:312|24:312|-14:251|14:217|14:217|31:236|59:247,1,288,4|2,0:0|0:0,0:0:0:0:
256,313,200929,38,0,P|306:304|381:294,1,107.999996704102,8|0,0:0|0:0,0:0:0:0:
233,163,201236,2,0,P|180:151|113:134,1,107.999996704102,2|0,0:0|0:0,0:0:0:0:
124,365,201390,1,2,0:0:0:0:
38,70,201544,1,8,0:0:0:0:
139,220,201698,6,0,P|130:301|125:356,1,125.999996154785,2|2,0:0|0:0,0:0:0:0:
252,155,202160,1,8,0:0:0:0:
38,237,202313,1,0,0:0:0:0:
259,339,202467,1,2,0:0:0:0:
146,60,202621,1,2,0:0:0:0:
413,102,202775,1,8,0:0:0:0:
213,241,202929,22,0,B|178:241|140:220|140:220|186:285|186:285|260:224|361:292,1,288,4|2,0:0|0:0,0:0:0:0:
208,118,203390,38,0,P|201:49|241:14,1,107.999996704102,8|0,0:0|0:0,0:0:0:0:
464,93,203698,2,0,L|480:215,1,107.999996704102,2|0,0:0|0:0,0:0:0:0:
218,214,203852,1,2,0:0:0:0:
405,0,204006,1,8,0:0:0:0:
381,179,204160,6,0,B|365:235|417:246|376:324,1,125.999996154785,2|2,0:0|0:0,0:0:0:0:
250,371,204621,1,8,0:0:0:0:
479,199,204775,1,0,0:0:0:0:
331,67,204929,2,0,L|259:80,1,53.9999983520508,2|0,0:0|0:0,0:0:0:0:
106,142,205083,2,0,P|130:157|148:176,1,53.9999983520508,2|0,0:0|0:0,0:0:0:0:
258,281,205236,2,0,P|273:251|288:200,1,53.9999983520508,8|0,0:0|0:0,0:0:0:0:
230,154,205390,21,8,0:0:0:0:
230,154,205467,1,8,0:0:0:0:
230,154,205544,2,0,L|247:308,1,144,6|0,0:0|0:0,0:0:0:0:
250,371,205775,1,0,0:0:0:0:
250,371,205852,1,8,0:0:0:0:
377,245,206006,6,0,P|380:188|313:143,1,125.999996154785,6|0,0:0|0:0,0:0:0:0:
103,222,206313,6,0,P|99:285|148:329,1,125.999996154785,6|0,0:0|0:0,0:0:0:0:
258,281,206621,70,0,L|198:111,1,161.999995056153,6|0,0:0|0:0,0:0:0:0:
71,57,207083,70,0,B|106:58|131:76|131:76|151:46|192:32|192:32|219:51|249:56|249:56|289:34|314:38,1,229.500004377365,6|0,0:0|0:0,0:0:0:0:
376,16,207390,5,8,0:0:0:0:
425,51,207467,1,8,0:0:0:0:
454,104,207544,1,8,0:0:0:0:
470,162,207621,1,8,0:0:0:0:
459,222,207698,1,8,0:0:0:0:
424,272,207775,69,8,0:0:0:0:
355,311,207852,38,0,B|296:326|235:272|235:272|186:288|201:371,1,215.999993408203,4|2,0:0|0:0,0:0:0:0:
78,250,208313,2,0,P|54:196|72:125,1,107.999996704102,8|0,0:0|0:0,0:0:0:0:
204,27,208621,2,0,P|221:81|200:132,1,107.999996704102,2|0,0:0|0:0,0:0:0:0:
248,259,208775,1,2,0:0:0:0:
35,122,208929,1,8,0:0:0:0:
314,134,209083,6,0,B|450:114|450:114|401:166|403:215,1,215.999993408203,6|2,0:0|0:0,0:0:0:0:
408,179,209390,1,0,0:0:0:0:
392,363,209544,1,8,0:0:0:0:
499,194,209698,1,0,0:0:0:0:
189,249,209852,1,2,0:0:0:0:
495,313,210006,1,2,0:0:0:0:
440,50,210160,1,8,0:0:0:0:
281,207,210313,6,0,P|218:238|59:258,1,215.999993408203,4|2,0:0|0:0,0:0:0:0:
45,37,210775,2,0,P|112:39|138:110,1,135,8|0,0:0|0:0,0:0:0:0:
144,125,211083,2,0,P|107:133|73:143,1,62.9999980773926,2|0,0:0|0:0,0:0:0:0:
252,60,211236,2,0,P|256:29|271:-6,1,62.9999980773926,2|0,0:0|0:0,0:0:0:0:
340,149,211390,2,0,P|358:170|364:209,1,62.9999980773926,8|0,0:0|0:0,0:0:0:0:
257,339,211544,54,0,B|218:385|218:385|240:206,1,215.999993408203,6|2,0:0|0:0,0:0:0:0:
268,0,212006,1,8,0:0:0:0:
387,216,212160,1,0,0:0:0:0:
82,139,212313,1,2,0:0:0:0:
366,62,212467,1,2,0:0:0:0:
47,36,212621,1,8,0:0:0:0:
231,176,212775,2,0,L|240:257,1,53.9999983520508,8|8,0:0|0:0,0:0:0:0:
364,203,212929,6,0,B|497:160|497:160|464:144|426:121,1,202.500007724762,12|0,0:0|0:0,0:0:0:0:
366,62,213236,1,8,0:0:0:0:
436,292,213390,1,2,0:0:0:0:
469,44,213544,1,0,0:0:0:0:
189,150,213698,2,0,P|135:146|69:136,1,107.999996704102,2|8,0:0|0:0,0:0:0:0:
50,302,214006,6,0,B|106:239|207:249|207:249|157:288|159:330,1,251.999992309571,4|0,0:0|0:0,0:0:0:0:
334,338,214467,2,0,B|359:346|380:374|380:374|429:299|349:213,1,188.999994232178,8|0,0:0|0:0,0:0:0:0:
364,158,214775,2,0,P|401:169|437:180,1,62.9999980773926,2|0,0:0|0:0,0:0:0:0:
278,67,214929,2,0,P|306:57|361:47,1,62.9999980773926,8|8,0:0|0:0,0:0:0:0:
189,150,215083,2,0,P|242:178|267:186,1,62.9999980773926,8|0,0:0|0:0,0:0:0:0:
60,49,215236,6,0,B|36:59|3:62|3:62|-27:168|54:195,1,188.999994232178,4|0,0:0|0:0,0:0:0:0:
92,241,215544,1,2,0:0:0:0:
244,179,215698,6,0,L|232:67,1,90,8|2,0:0|0:0,0:0:0:0:
334,338,216006,6,0,L|343:248,1,90,8|2,0:0|0:0,0:0:0:0:
170,373,216313,2,0,L|161:313,1,45,8|0,0:0|0:0,0:0:0:0:
229,270,216467,54,0,B|156:321|97:313|97:313|112:271|89:235,1,216,4|0,0:0|0:0,0:0:0:0:
16,281,216775,1,2,0:0:0:0:
250,122,216929,6,0,P|301:136|358:164,1,90,8|2,0:0|0:0,0:0:0:0:
85,132,217236,6,0,P|43:149|0:160,1,90,2|0,0:0|0:0,0:0:0:0:
169,75,217544,2,0,P|173:25|172:-7,2,77.9999964294435,2|2|2,0:0|0:0|0:0,0:0:0:0:
168,212,217852,5,6,0:0:0:0:
250,122,218006,2,0,P|333:66|420:111,1,180,2|0,0:0|0:0,0:0:0:0:
405,247,218467,2,0,P|361:268|296:259,1,90,8|0,0:0|0:0,0:0:0:0:
83,191,218775,2,0,P|127:191|167:211,1,90,0|0,0:0|0:0,0:0:0:0:
249,384,219083,5,2,0:0:0:0:
266,143,219236,1,8,0:0:0:0:
232,374,219390,2,0,P|212:328|239:271,1,90,2|0,0:0|0:0,0:0:0:0:
401,90,219698,2,0,P|420:129|411:173,1,90,8|0,0:0|0:0,0:0:0:0:
167,211,220006,1,2,0:0:0:0:
394,281,220160,1,8,0:0:0:0:
308,29,220313,5,12,0:0:0:0:
308,29,220390,1,8,0:0:0:0:
308,29,220467,1,0,0:0:0:0:
295,190,220621,1,0,0:0:0:0:
437,75,220775,1,0,0:0:0:0:
246,98,220929,1,0,0:0:0:0:
356,253,221083,1,0,0:0:0:0:
345,107,221236,1,0,0:0:0:0:
139,201,221390,1,2,0:0:0:0:
293,362,221544,6,0,P|301:334|306:297,1,45,8|8,0:0|0:0,0:0:0:0:
295,190,221698,1,8,0:0:0:0:
256,192,221775,1,8,0:0:0:0:
217,195,221852,1,8,0:0:0:0:
178,198,221929,1,8,0:0:0:0:
139,201,222006,1,8,0:0:0:0:
100,204,222083,1,8,0:0:0:0:
61,207,222160,5,8,0:0:0:0:
57,213,222236,1,8,0:0:0:0:
53,219,222313,1,8,0:0:0:0:
49,225,222390,1,8,0:0:0:0:
45,231,222467,1,8,0:0:0:0:
41,237,222544,1,8,0:0:0:0:
37,244,222621,6,0,B|38:257|38:257|38:253|38:253|38:260|38:260|38:257|38:257|39:263|39:263|38:260|38:260|39:267|39:267|39:263|39:263|39:271|39:271|39:267|39:267|40:274|40:274|39:271|39:271|40:279|40:279|41:284|41:284|40:279|40:279|41:289|41:289|41:284|41:284|42:295|42:295|41:289|41:289|43:301|43:301|42:295|42:295|43:308|43:308|43:301|43:301|44:315|44:315|43:308|43:308|45:321|45:321|44:315|44:315|45:327|45:327|45:321|45:321|46:334|46:334|45:327|45:327|47:339|47:339|46:334|46:334|47:346|47:346|47:339|47:339|48:353|48:353|47:346|47:346|49:361|49:361|48:353|48:353|50:368|50:368|49:361|49:361|50:375|50:375|35:230,1,485.999985168458,6|6,0:0|0:0,0:0:0:0:
225,101,223390,53,8,0:0:0:0:
271,70,223467,1,8,0:0:0:0:
326,62,223544,1,8,0:0:0:0:
379,76,223621,1,8,0:0:0:0:
418,115,223698,1,8,0:0:0:0:
437,167,223775,1,8,0:0:0:0:
418,219,223852,6,0,B|416:232|416:232|416:228|416:228|416:235|416:235|416:232|416:232|415:238|415:238|416:235|416:235|415:242|415:242|415:238|415:238|415:246|415:246|415:242|415:242|414:249|414:249|415:246|415:246|414:254|414:254|413:259|413:259|414:254|414:254|413:264|413:264|413:259|413:259|412:270|412:270|413:264|413:264|411:276|411:276|412:270|412:270|411:283|411:283|411:276|411:276|410:290|410:290|411:283|411:283|409:296|409:296|410:290|410:290|409:302|409:302|409:296|409:296|408:309|408:309|409:302|409:302|407:314|407:314|408:309|408:309|407:321|407:321|407:314|407:314|406:328|406:328|407:321|407:321|405:336|405:336|406:328|406:328|404:343|404:343|405:336|405:336|404:350|404:350|419:205,1,485.999985168458,6|6,0:0|0:0,0:0:0:0:
311,186,224621,38,0,P|317:224|321:267,1,62.9999980773926,2|2,0:0|0:0,0:0:0:0:
257,301,224852,1,2,0:0:0:0:
215,314,224929,1,2,0:0:0:0:
172,301,225006,1,2,0:0:0:0:
140,275,225083,38,0,B|126:273|126:273|130:273|130:273|123:273|123:273|126:273|126:273|120:272|120:272|123:273|123:273|116:272|116:272|120:272|120:272|112:272|112:272|116:272|116:272|109:271|109:271|112:272|112:272|104:271|104:271|99:270|99:270|104:271|104:271|94:270|94:270|99:270|99:270|88:269|88:269|94:270|94:270|82:268|82:268|88:269|88:269|75:268|75:268|82:268|82:268|68:267|68:267|75:268|75:268|62:266|62:266|68:267|68:267|56:266|56:266|62:266|62:266|49:265|49:265|56:266|56:266|44:264|44:264|49:265|49:265|37:264|37:264|44:264|44:264|30:263|30:263|37:264|37:264|22:262|22:262|30:263|30:263|15:261|15:261|22:262|22:262|8:261|8:261|153:276,1,485.999985168458,6|6,0:0|0:0,0:0:0:0:
245,129,225852,2,0,P|211:144|173:147,1,62.9999980773926,8|8,0:0|0:0,0:0:0:0:
92,69,226083,1,8,0:0:0:0:
92,69,226160,2,0,P|50:54|24:9,1,76.5000014591217,8|0,0:0|0:0,0:0:0:0:
196,47,226313,70,0,B|175:287,1,216,4|0,0:0|0:0,0:0:0:0:
239,333,226621,2,0,P|273:349|321:352,1,72,2|2,0:0|0:0,0:0:0:0:
437,248,226775,2,0,P|429:210|425:171,1,72,8|0,0:0|0:0,0:0:0:0:
408,16,226929,2,0,P|383:39|328:71,1,72,2|0,0:0|0:0,0:0:0:0:
196,47,227083,2,0,P|177:38|110:30,1,72,6|0,0:0|0:0,0:0:0:0:
14,130,227236,2,0,P|15:178|51:231,1,72,2|0,0:0|0:0,0:0:0:0:
110,287,227390,2,0,P|138:273|200:257,1,72,8|0,0:0|0:0,0:0:0:0:
181,155,227544,6,0,B|195:157|195:157|191:157|191:157|198:157|198:157|195:157|195:157|201:158|201:158|198:157|198:157|205:158|205:158|201:158|201:158|209:158|209:158|205:158|205:158|212:159|212:159|209:158|209:158|217:159|217:159|222:160|222:160|217:159|217:159|227:160|227:160|222:160|222:160|233:161|233:161|227:160|227:160|239:162|239:162|233:161|233:161|246:162|246:162|239:162|239:162|253:163|253:163|246:162|246:162|259:164|259:164|253:163|253:163|265:164|265:164|259:164|259:164|272:165|272:165|265:164|265:164|277:166|277:166|272:165|272:165|284:166|284:166|277:166|277:166|291:167|291:167|284:166|284:166|299:168|299:168|291:167|291:167|306:169|306:169|299:168|299:168|313:169|313:169|182:155,1,485.999985168458,6|6,0:0|0:0,0:0:0:0:
14,130,228160,1,2,0:0:0:0:
14,130,228236,1,2,0:0:0:0:
14,130,228313,1,2,0:0:0:0:
162,154,228467,70,0,B|331:129|331:129|359:38,1,242.999992584229,4|0,0:0|0:0,0:0:0:0:
444,150,228775,6,0,B|442:164|442:164|442:160|442:160|442:167|442:167|442:164|442:164|441:170|441:170|442:167|442:167|441:174|441:174|441:170|441:170|441:178|441:178|441:174|441:174|440:181|440:181|441:178|441:178|440:186|440:186|439:191|439:191|440:186|440:186|439:196|439:196|439:191|439:191|438:202|438:202|439:196|439:196|437:208|437:208|438:202|438:202|437:215|437:215|437:208|437:208|436:222|436:222|437:215|437:215|435:228|435:228|436:222|436:222|435:234|435:234|435:228|435:228|434:241|434:241|435:234|435:234|433:246|433:246|434:241|434:241|433:253|433:253|433:246|433:246|432:260|432:260|433:253|433:253|431:268|431:268|432:260|432:260|430:275|430:275|431:268|431:268|430:282|430:282|445:137,1,485.999985168458,6|6,0:0|0:0,0:0:0:0:
323,337,229390,1,2,0:0:0:0:
294,332,229467,1,2,0:0:0:0:
265,328,229544,1,8,0:0:0:0:
140,258,229698,70,0,B|93:270|59:298|59:298|-12:214|83:124,1,242.999992584229,4|0,0:0|0:0,0:0:0:0:
120,73,230006,6,0,B|106:71|106:71|110:71|110:71|103:71|103:71|106:71|106:71|100:70|100:70|103:71|103:71|96:70|96:70|100:70|100:70|91:70|91:70|96:70|96:70|88:69|88:69|91:70|91:70|83:69|83:69|77:68|77:68|83:69|83:69|72:68|72:68|77:68|77:68|66:66|66:66|72:68|72:68|59:65|59:65|66:66|66:66|53:65|53:65|59:65|59:65|46:64|46:64|53:65|53:65|40:63|40:63|46:64|46:64|34:63|34:63|40:63|40:63|27:62|27:62|34:63|34:63|22:61|22:61|27:62|27:62|14:61|14:61|22:61|22:61|9:60|9:60|14:61|14:61|3:59|3:59|9:60|9:60|-4:58|-4:58|3:59|3:59|-11:58|-11:58|134:74,1,485.999985168458,6|6,0:0|0:0,0:0:0:0:
158,219,230621,6,0,L|233:208,1,62.9999980773926,2|2,0:0|0:0,0:0:0:0:
269,149,230775,1,2,0:0:0:0:
372,32,230929,2,0,L|464:51,1,62.9999980773926,8|8,0:0|0:0,0:0:0:0:
471,115,231083,1,8,0:0:0:0:
365,226,231236,54,0,B|325:249|325:249|109:209,1,216,6|0,0:0|0:0,0:0:0:0:
58,203,231544,2,0,P|60:242|78:280,1,72,2|0,0:0|0:0,0:0:0:0:
196,384,231698,2,0,P|204:344|207:303,1,72,2|0,0:0|0:0,0:0:0:0:
198,135,231852,2,0,L|309:157,1,72,8|0,0:0|0:0,0:0:0:0:
372,32,232006,2,0,L|448:15,1,72,8|0,0:0|0:0,0:0:0:0:
501,130,232160,2,0,P|500:164|478:209,1,72,8|8,0:0|0:0,0:0:0:0:
376,277,232313,2,0,L|392:357,1,72,8|8,0:0|0:0,0:0:0:0:
454,430,232467,5,12,0:0:0:0:
