osu file format v14

[General]
AudioFilename: audio.mp3
AudioLeadIn: 0
PreviewTime: 57281
Countdown: 0
SampleSet: Soft
StackLeniency: 0.7
Mode: 0
LetterboxInBreaks: 0
WidescreenStoryboard: 1

[Editor]
Bookmarks: 2424,11566,20709,29852,38995,48138,57281,66423,84709,89281,93852
DistanceSpacing: 1.9
BeatDivisor: 8
GridSize: 32
TimelineZoom: 3.399999

[Metadata]
Title:Shadow gate to love
TitleUnicode:Shadow gate to love
Artist:Guilty Kiss
ArtistUnicode:Guilty Kiss
Creator:Kisses
Version:Kisses
Source:Love Live! Sunshine!!
Tags:Left Karen Dream117er Nardoxyribonucleic ラブライブ!サンシャイン!! love live school idol project suzuki aina 鈴木愛奈 aida rikako 逢田梨香子 kobayashi aika 小林愛香 ohara mari 小原鞠莉 ギルティキス
BeatmapID:1426947
BeatmapSetID:630109

[Difficulty]
HPDrainRate:6
CircleSize:4.1
OverallDifficulty:10
ApproachRate:9
SliderMultiplier:3
SliderTickRate:1

[Events]
//Background and Video events
0,0,"sfw BG.jpg",0,0
//Break Periods
//Storyboard Layer 0 (Background)
//Storyboard Layer 1 (Fail)
//Storyboard Layer 2 (Pass)
//Storyboard Layer 3 (Foreground)
//Storyboard Sound Samples

[TimingPoints]
282,571.428571428571,4,2,0,70,1,0
282,-100,4,2,0,70,0,0
496,-100,4,2,0,5,0,0
567,-76.9230769230769,4,2,0,70,0,0
781,-76.9230769230769,4,2,0,5,0,0
853,-125,4,2,0,70,0,0
1424,-100,4,2,0,70,0,0
1639,-100,4,2,0,5,0,0
1710,-76.9230769230769,4,2,0,70,0,0
1924,-76.9230769230769,4,2,0,5,0,0
1996,-166.666666666667,4,2,0,70,0,0
2353,-166.666666666667,4,2,0,5,0,0
2424,571.428571428571,4,2,0,70,1,0
2852,-100,4,2,0,5,0,0
6138,-90.9090909090909,4,2,0,50,0,0
6209,-90.9090909090909,4,2,0,5,0,0
6281,-90.9090909090909,4,2,0,50,0,0
6352,-90.9090909090909,4,2,0,5,0,0
6423,-142.857142857143,4,2,0,70,0,0
6709,-90.9090909090909,4,2,0,50,0,0
6781,-90.9090909090909,4,2,0,5,0,0
6852,-90.9090909090909,4,2,0,50,0,0
6923,-90.9090909090909,4,2,0,5,0,0
6995,-200,4,2,0,70,0,0
10709,-111.111111111111,4,2,0,70,0,0
10995,-83.3333333333333,4,2,0,70,0,0
11281,-200,4,2,0,70,0,0
11566,-83.3333333333333,4,2,0,70,0,0
11995,-100,4,2,0,70,0,0
12209,-100,4,2,0,5,0,0
12281,-100,4,2,0,70,0,0
12495,-100,4,2,0,5,0,0
12566,-100,4,2,0,70,0,0
12781,-100,4,2,0,5,0,0
12852,-125,4,2,0,70,0,0
13281,-125,4,2,0,70,0,0
13566,-125,4,2,0,70,0,0
13852,-76.9230769230769,4,2,0,70,0,0
14281,-100,4,2,0,70,0,0
14495,-100,4,2,0,5,0,0
14566,-100,4,2,0,70,0,0
14781,-100,4,2,0,5,0,0
14852,-100,4,2,0,70,0,0
15066,-100,4,2,0,5,0,0
15138,-125,4,2,0,70,0,0
16138,-76.9230769230769,4,2,0,70,0,0
16566,-100,4,2,0,70,0,0
16781,-100,4,2,0,5,0,0
16852,-100,4,2,0,70,0,0
17066,-100,4,2,0,5,0,0
17138,-100,4,2,0,70,0,0
17352,-100,4,2,0,5,0,0
17423,-125,4,2,0,70,0,0
18423,-76.9230769230769,4,2,0,70,0,0
18852,-100,4,2,0,70,0,0
19066,-100,4,2,0,5,0,0
19138,-100,4,2,0,70,0,0
19352,-100,4,2,0,5,0,0
19423,-100,4,2,0,70,0,0
19638,-100,4,2,0,5,0,0
19709,-125,4,2,0,70,0,0
20138,-76.9230769230769,4,2,0,70,0,0
20209,-76.9230769230769,4,2,0,5,0,0
20281,-76.9230769230769,4,2,0,70,0,0
20352,-76.9230769230769,4,2,0,5,0,0
20423,-76.9230769230769,4,2,0,70,0,0
20638,-76.9230769230769,4,2,0,5,0,0
20709,-125,4,2,0,70,0,0
20923,-125,4,2,0,5,0,0
20995,-125,4,2,0,70,0,0
21066,-125,4,2,0,5,0,0
21138,-125,4,2,0,70,0,0
21352,-125,4,2,0,5,0,0
21423,-125,4,2,0,70,0,0
21638,-125,4,2,0,5,0,0
21709,-125,4,2,0,70,0,0
22209,-125,4,2,0,5,0,0
22281,-125,4,2,0,70,0,0
22923,-125,4,2,0,5,0,0
22995,-125,4,2,0,70,0,0
23209,-125,4,2,0,5,0,0
23281,-125,4,2,0,70,0,0
23352,-125,4,2,0,5,0,0
23423,-125,4,2,0,70,0,0
23638,-125,4,2,0,5,0,0
23709,-125,4,2,0,70,0,0
23923,-125,4,2,0,5,0,0
23995,-125,4,2,0,70,0,0
24209,-125,4,2,0,5,0,0
24281,-125,4,2,0,70,0,0
24495,-125,4,2,0,5,0,0
24566,-125,4,2,0,70,0,0
24638,-125,4,2,0,5,0,0
24709,-125,4,2,0,70,0,0
24995,-125,4,2,0,70,0,0
25281,-125,4,2,0,70,0,0
25495,-125,4,2,0,5,0,0
25566,-125,4,2,0,70,0,0
25638,-125,4,2,0,5,0,0
25709,-125,4,2,0,70,0,0
25923,-125,4,2,0,5,0,0
25995,-125,4,2,0,70,0,0
26209,-125,4,2,0,5,0,0
26281,-200,4,2,0,70,0,0
26566,-200,4,2,0,5,0,0
26709,-125,4,2,0,70,0,0
26781,-125,4,2,0,5,0,0
26852,-125,4,2,0,70,0,0
27138,-333.333333333333,4,2,0,70,0,0
27495,-333.333333333333,4,2,0,5,0,0
27566,-125,4,2,0,70,0,0
27638,-125,4,2,0,5,0,0
27709,-125,4,2,0,70,0,0
27923,-125,4,2,0,5,0,0
27995,-125,4,2,0,70,0,0
28209,-125,4,2,0,5,0,0
28281,-125,4,2,0,70,0,0
28495,-125,4,2,0,5,0,0
28566,-200,4,2,0,70,0,0
28781,-200,4,2,0,5,0,0
28852,-125,4,2,0,70,0,0
28923,-125,4,2,0,5,0,0
28995,-125,4,2,0,70,0,0
29066,-125,4,2,0,5,0,0
29138,-125,4,2,0,70,0,0
29209,-125,4,2,0,5,0,0
29281,-125,4,2,0,70,0,0
29781,-125,4,2,0,5,0,0
29852,-125,4,2,0,70,0,0
30066,-125,4,2,0,5,0,0
30138,-125,4,2,0,70,0,0
30209,-125,4,2,0,5,0,0
30281,-125,4,2,0,70,0,0
30495,-125,4,2,0,5,0,0
30566,-125,4,2,0,70,0,0
30781,-125,4,2,0,5,0,0
30852,-200,4,2,0,70,0,0
31209,-200,4,2,0,5,0,0
31281,-125,4,2,0,70,0,0
31352,-125,4,2,0,5,0,0
31423,-125,4,2,0,70,0,0
31709,-333.333333333333,4,2,0,70,0,0
32066,-333.333333333333,4,2,0,5,0,0
32138,-125,4,2,0,70,0,0
32352,-125,4,2,0,5,0,0
32423,-125,4,2,0,70,0,0
32495,-125,4,2,0,5,0,0
32566,-125,4,2,0,70,0,0
32781,-125,4,2,0,5,0,0
32852,-125,4,2,0,70,0,0
33066,-125,4,2,0,5,0,0
33138,-90.9090909090909,4,2,0,70,0,0
33495,-90.9090909090909,4,2,0,5,0,0
33566,-125,4,2,0,70,0,0
33638,-125,4,2,0,5,0,0
33709,-125,4,2,0,70,0,0
33923,-125,4,2,0,5,0,0
33995,-200,4,2,0,70,0,0
34352,-200,4,2,0,5,0,0
34423,-125,4,2,0,70,0,0
34638,-125,4,2,0,5,0,0
34709,-125,4,2,0,70,0,0
34781,-125,4,2,0,5,0,0
34852,-125,4,2,0,70,0,0
35066,-125,4,2,0,5,0,0
35138,-125,4,2,0,70,0,0
35352,-125,4,2,0,5,0,0
35423,-200,4,2,0,70,0,0
35781,-200,4,2,0,5,0,0
35852,-125,4,2,0,70,0,0
35923,-125,4,2,0,5,0,0
35995,-125,4,2,0,70,0,0
36209,-125,4,2,0,5,0,0
36281,-333.333333333333,4,2,0,70,0,0
36638,-333.333333333333,4,2,0,5,0,0
36709,-125,4,2,0,70,0,0
36781,-125,4,2,0,5,0,0
36852,-125,4,2,0,70,0,0
37066,-125,4,2,0,5,0,0
37138,-125,4,2,0,70,0,0
37352,-125,4,2,0,5,0,0
37423,-125,4,2,0,70,0,0
37638,-125,4,2,0,5,0,0
37709,-200,4,2,0,70,0,0
37923,-200,4,2,0,5,0,0
37995,-125,4,2,0,70,0,0
38066,-125,4,2,0,5,0,0
38138,-125,4,2,0,70,0,0
38209,-125,4,2,0,5,0,0
38281,-125,4,2,0,70,0,0
38352,-125,4,2,0,5,0,0
38423,-125,4,2,0,70,0,0
38995,-111.111111111111,4,2,0,70,0,0
39423,-166.666666666667,4,2,0,70,0,0
39852,-83.3333333333333,4,2,0,70,0,0
40138,-111.111111111111,4,2,0,70,0,0
40566,-166.666666666667,4,2,0,70,0,0
40995,-83.3333333333333,4,2,0,70,0,0
41281,-111.111111111111,4,2,0,70,0,0
41709,-166.666666666667,4,2,0,70,0,0
42138,-83.3333333333333,4,2,0,70,0,0
42423,-111.111111111111,4,2,0,70,0,0
42923,-111.111111111111,4,2,0,5,0,0
42995,-111.111111111111,4,2,0,70,0,0
43066,-111.111111111111,4,2,0,5,0,0
43138,-111.111111111111,4,2,0,70,0,0
43209,-111.111111111111,4,2,0,5,0,0
43281,-111.111111111111,4,2,0,70,0,0
43352,-111.111111111111,4,2,0,5,0,0
43423,-111.111111111111,4,2,0,70,0,0
43495,-111.111111111111,4,2,0,5,0,0
43566,-111.111111111111,4,2,0,70,0,0
43995,-166.666666666666,4,2,0,70,0,0
44423,-83.3333333333333,4,2,0,70,0,0
44709,-111.111111111111,4,2,0,70,0,0
45209,-111.111111111111,4,2,0,5,0,0
45281,-166.666666666666,4,2,0,70,0,0
45852,-111.111111111111,4,2,0,70,0,0
45923,-111.111111111111,4,2,0,5,0,0
45995,-111.111111111111,4,2,0,70,0,0
46281,-166.666666666666,4,2,0,70,0,0
46709,-83.3333333333333,4,2,0,70,0,0
46995,-133.333333333333,4,2,0,70,0,0
48138,-111.111111111111,4,2,0,70,0,0
48566,-166.666666666666,4,2,0,70,0,0
48995,-83.3333333333333,4,2,0,70,0,0
49281,-111.111111111111,4,2,0,70,0,0
49709,-166.666666666666,4,2,0,70,0,0
50138,-83.3333333333333,4,2,0,70,0,0
50423,-111.111111111111,4,2,0,70,0,0
50852,-166.666666666667,4,2,0,70,0,0
51281,-83.3333333333333,4,2,0,70,0,0
51566,-111.111111111111,4,2,0,70,0,0
51995,-166.666666666666,4,2,0,70,0,0
52709,-111.111111111111,4,2,0,70,0,0
53138,-166.666666666666,4,2,0,70,0,0
53566,-83.3333333333332,4,2,0,70,0,0
53852,-111.111111111111,4,2,0,70,0,0
54352,-111.111111111111,4,2,0,5,0,0
54423,-166.666666666667,4,2,0,70,0,0
54995,-111.111111111111,4,2,0,70,0,0
55209,-111.111111111111,4,2,0,5,0,0
55281,-111.111111111111,4,2,0,70,0,0
55352,-111.111111111111,4,2,0,5,0,0
55423,-111.111111111111,4,2,0,70,0,0
55638,-111.111111111111,4,2,0,5,0,0
55709,-111.111111111111,4,2,0,70,0,0
55781,-111.111111111111,4,2,0,5,0,0
55852,-111.111111111111,4,2,0,70,0,0
56709,-100,4,2,0,70,0,0
57281,-142.857142857143,4,2,0,70,0,1
57495,-142.857142857143,4,2,0,5,0,1
57566,-100,4,2,0,70,0,1
57638,-100,4,2,0,5,0,1
57709,-83.3333333333333,4,2,0,70,0,1
57923,-83.3333333333333,4,2,0,5,0,1
57995,-100,4,2,0,70,0,1
58209,-100,4,2,0,5,0,1
58281,-100,4,2,0,70,0,1
58495,-100,4,2,0,5,0,1
58566,-100,4,2,0,70,0,1
58781,-100,4,2,0,5,0,1
58852,-100,4,2,0,70,0,1
59066,-100,4,2,0,5,0,1
59138,-100,4,2,0,70,0,1
59209,-100,4,2,0,5,0,1
59281,-100,4,2,0,70,0,1
59495,-100,4,2,0,5,0,1
59566,-142.857142857143,4,2,0,70,0,1
59781,-142.857142857143,4,2,0,5,0,1
59852,-100,4,2,0,70,0,1
59923,-100,4,2,0,5,0,1
59995,-83.3333333333333,4,2,0,70,0,1
60209,-83.3333333333333,4,2,0,5,0,1
60281,-100,4,2,0,70,0,1
60495,-100,4,2,0,5,0,1
60566,-100,4,2,0,70,0,1
60781,-100,4,2,0,5,0,1
60852,-100,4,2,0,70,0,1
61066,-100,4,2,0,5,0,1
61138,-100,4,2,0,70,0,1
61352,-100,4,2,0,5,0,1
61423,-100,4,2,0,70,0,1
61495,-100,4,2,0,5,0,1
61566,-100,4,2,0,70,0,1
61781,-100,4,2,0,5,0,1
61852,-142.857142857143,4,2,0,70,0,1
62066,-142.857142857143,4,2,0,5,0,1
62138,-100,4,2,0,70,0,1
62209,-100,4,2,0,5,0,1
62281,-83.3333333333334,4,2,0,70,0,1
62495,-83.3333333333334,4,2,0,5,0,1
62566,-100,4,2,0,70,0,1
62781,-100,4,2,0,5,0,1
62852,-100,4,2,0,70,0,1
63066,-100,4,2,0,5,0,1
63138,-100,4,2,0,70,0,1
63352,-100,4,2,0,5,0,1
63423,-100,4,2,0,70,0,1
63638,-100,4,2,0,5,0,1
63709,-100,4,2,0,70,0,1
63781,-100,4,2,0,5,0,1
63852,-100,4,2,0,70,0,1
63923,-100,4,2,0,5,0,1
63995,-100,4,2,0,70,0,1
64066,-100,4,2,0,5,0,1
64138,-142.857142857143,4,2,0,70,0,1
64495,-142.857142857143,4,2,0,5,0,1
64566,-71.4285714285714,4,2,0,70,0,1
64638,-71.4285714285714,4,2,0,5,0,1
64709,-71.4285714285714,4,2,0,70,0,1
64923,-71.4285714285714,4,2,0,5,0,1
64995,-100,4,2,0,70,0,1
65209,-100,4,2,0,5,0,1
65281,-142.857142857143,4,2,0,70,0,1
65495,-142.857142857143,4,2,0,5,0,1
65566,-100,4,2,0,70,0,1
65638,-100,4,2,0,5,0,1
65709,-100,4,2,0,70,0,1
65781,-100,4,2,0,5,0,1
65852,-100,4,2,0,70,0,1
65923,-100,4,2,0,5,0,1
65995,-100,4,2,0,70,0,1
66066,-100,4,2,0,5,0,1
66138,-100,4,2,0,70,0,1
66423,-142.857142857143,4,2,0,70,0,1
66638,-142.857142857143,4,2,0,5,0,1
66709,-100,4,2,0,70,0,1
66781,-100,4,2,0,5,0,1
66852,-83.3333333333333,4,2,0,70,0,1
67066,-83.3333333333333,4,2,0,5,0,1
67138,-100,4,2,0,70,0,1
67352,-100,4,2,0,5,0,1
67423,-100,4,2,0,70,0,1
67638,-100,4,2,0,5,0,1
67709,-100,4,2,0,70,0,1
67923,-100,4,2,0,5,0,1
67995,-100,4,2,0,70,0,1
68209,-100,4,2,0,5,0,1
68281,-100,4,2,0,70,0,1
68352,-100,4,2,0,5,0,1
68423,-100,4,2,0,70,0,1
68638,-100,4,2,0,5,0,1
68709,-142.857142857143,4,2,0,70,0,1
68923,-142.857142857143,4,2,0,5,0,1
68995,-100,4,2,0,70,0,1
69066,-100,4,2,0,5,0,1
69138,-83.3333333333333,4,2,0,70,0,1
69352,-83.3333333333333,4,2,0,5,0,1
69423,-100,4,2,0,70,0,1
69638,-100,4,2,0,5,0,1
69709,-100,4,2,0,70,0,1
69923,-100,4,2,0,5,0,1
69995,-100,4,2,0,70,0,1
70209,-100,4,2,0,5,0,1
70281,-100,4,2,0,70,0,1
70495,-100,4,2,0,5,0,1
70566,-100,4,2,0,70,0,1
70638,-100,4,2,0,5,0,1
70709,-100,4,2,0,70,0,1
70923,-100,4,2,0,5,0,1
70995,-142.857142857143,4,2,0,70,0,1
71209,-142.857142857143,4,2,0,5,0,1
71281,-100,4,2,0,70,0,1
71352,-100,4,2,0,5,0,1
71423,-83.3333333333333,4,2,0,70,0,1
71638,-83.3333333333333,4,2,0,5,0,1
71709,-100,4,2,0,70,0,1
71923,-100,4,2,0,5,0,1
71995,-100,4,2,0,70,0,1
72209,-100,4,2,0,5,0,1
72281,-100,4,2,0,70,0,1
72495,-100,4,2,0,5,0,1
72566,-100,4,2,0,70,0,1
72781,-100,4,2,0,5,0,1
72852,-100,4,2,0,70,0,1
72923,-100,4,2,0,5,0,1
72995,-100,4,2,0,70,0,1
73209,-100,4,2,0,5,0,1
73281,-142.857142857143,4,2,0,70,0,1
74423,-125,4,2,0,70,0,1
75566,-76.9230769230769,4,2,0,70,0,0
75995,-100,4,2,0,70,0,0
76209,-100,4,2,0,5,0,0
76281,-100,4,2,0,70,0,0
76495,-100,4,2,0,5,0,0
76566,-100,4,2,0,70,0,0
76781,-100,4,2,0,5,0,0
76852,-125,4,2,0,70,0,0
77852,-76.9230769230769,4,2,0,70,0,0
78281,-100,4,2,0,70,0,0
78495,-100,4,2,0,5,0,0
78566,-100,4,2,0,70,0,0
78781,-100,4,2,0,5,0,0
78852,-100,4,2,0,70,0,0
79281,-125,4,2,0,70,0,0
79495,-125,4,2,0,5,0,0
79566,-125,4,2,0,70,0,0
79781,-125,4,2,0,5,0,0
79852,-125,4,2,0,70,0,0
80066,-125,4,2,0,5,0,0
80138,-76.9230769230769,4,2,0,70,0,0
80352,-76.9230769230769,4,2,0,5,0,0
80423,-100,4,2,0,70,0,0
80495,-100,4,2,0,5,0,0
80566,-100,4,2,0,70,0,0
80781,-100,4,2,0,5,0,0
80852,-100,4,2,0,70,0,0
81066,-100,4,2,0,5,0,0
81138,-100,4,2,0,70,0,0
81352,-100,4,2,0,5,0,0
81423,-125,4,2,0,70,0,0
82423,-76.9230769230769,4,2,0,70,0,0
82852,-100,4,2,0,70,0,0
83066,-100,4,2,0,5,0,0
83138,-100,4,2,0,70,0,0
83352,-100,4,2,0,5,0,0
83423,-100,4,2,0,70,0,0
83852,-125,4,2,0,70,0,0
84066,-125,4,2,0,5,0,0
84138,-125,4,2,0,70,0,0
84352,-125,4,2,0,5,0,0
84423,-125,4,2,0,70,0,0
84638,-125,4,2,0,5,0,0
84709,-76.9230769230769,4,2,0,70,0,0
85138,-100,4,2,0,70,0,0
85352,-100,4,2,0,5,0,0
85423,-100,4,2,0,70,0,0
85638,-100,4,2,0,5,0,0
85709,-100,4,2,0,70,0,0
85923,-100,4,2,0,5,0,0
85995,-125,4,2,0,70,0,0
86995,-76.9230769230769,4,2,0,70,0,0
87423,-100,4,2,0,70,0,0
87638,-100,4,2,0,5,0,0
87709,-100,4,2,0,70,0,0
87923,-100,4,2,0,5,0,0
87995,-100,4,2,0,70,0,0
88423,-125,4,2,0,70,0,0
88709,-76.9230769230769,4,2,0,70,0,0
88781,-76.9230769230769,4,2,0,5,0,0
88852,-76.9230769230769,4,2,0,70,0,0
88923,-76.9230769230769,4,2,0,5,0,0
88995,-76.9230769230769,4,2,0,70,0,0
89066,-76.9230769230769,4,2,0,5,0,0
89138,-76.9230769230769,4,2,0,70,0,0
89209,-76.9230769230769,4,2,0,5,0,0
89281,-100,4,2,0,40,0,0
89709,-166.666666666667,4,2,0,50,0,0
90423,-125,4,2,0,50,0,0
90852,-166.666666666667,4,2,0,50,0,0
91566,-142.857142857143,4,2,0,50,0,0
93209,-142.857142857143,4,2,0,5,0,0
93281,-142.857142857143,4,2,0,50,0,0
93495,-142.857142857143,4,2,0,5,0,0
93566,-142.857142857143,4,2,0,50,0,0
93781,-142.857142857143,4,2,0,5,0,0
93852,-125,4,2,0,50,0,0
94066,-125,4,2,0,5,0,0
94138,-125,4,2,0,50,0,0
94209,-125,4,2,0,5,0,0
94281,-125,4,2,0,50,0,0
94495,-125,4,2,0,5,0,0
94566,-125,4,2,0,50,0,0
94781,-125,4,2,0,5,0,0
94852,-125,4,2,0,50,0,0
95066,-125,4,2,0,5,0,0
95138,-125,4,2,0,50,0,0
95352,-125,4,2,0,5,0,0
95423,-125,4,2,0,50,0,0
95495,-125,4,2,0,5,0,0
95566,-125,4,2,0,50,0,0
95781,-125,4,2,0,5,0,0
95852,-125,4,2,0,50,0,0
96066,-125,4,2,0,5,0,0
96138,-125,4,2,0,50,0,0
96352,-125,4,2,0,5,0,0
96423,-125,4,2,0,50,0,0
96495,-125,4,2,0,5,0,0
96566,-125,4,2,0,50,0,0
96781,-125,4,2,0,5,0,0
96852,-125,4,2,0,50,0,0
97066,-125,4,2,0,5,0,0
97138,-125,4,2,0,50,0,0
97352,-125,4,2,0,5,0,0
97423,-125,4,2,0,50,0,0
97638,-125,4,2,0,5,0,0
97709,-125,4,2,0,50,0,0
97781,-125,4,2,0,5,0,0
97852,-125,4,2,0,50,0,0
98066,-125,4,2,0,5,0,0
98138,-125,4,2,0,50,0,0
98352,-125,4,2,0,5,0,0
98423,-125,4,2,0,50,0,0
98638,-125,4,2,0,5,0,0
98709,-125,4,2,0,50,0,0
98781,-125,4,2,0,5,0,0
98852,-125,4,2,0,50,0,0
99066,-125,4,2,0,5,0,0
99138,-125,4,2,0,50,0,0
99352,-125,4,2,0,5,0,0
99423,-125,4,2,0,50,0,0
99638,-125,4,2,0,5,0,0
99709,-125,4,2,0,50,0,0
99923,-125,4,2,0,5,0,0
99995,-125,4,2,0,50,0,0
100066,-125,4,2,0,5,0,0
100138,-125,4,2,0,50,0,0
100352,-125,4,2,0,5,0,0
100423,-125,4,2,0,50,0,0
100638,-125,4,2,0,5,0,0
100709,-125,4,2,0,50,0,0
100923,-125,4,2,0,5,0,0
100995,-125,4,2,0,50,0,0
101066,-125,4,2,0,5,0,0
101138,-125,4,2,0,50,0,0
101352,-125,4,2,0,5,0,0
101423,-125,4,2,0,50,0,0
101638,-125,4,2,0,5,0,0
101709,-125,4,2,0,50,0,0
101923,-125,4,2,0,5,0,0
101995,-125,4,2,0,50,0,0
102209,-125,4,2,0,5,0,0
102281,-125,4,2,0,50,0,0
102352,-125,4,2,0,5,0,0
102423,-208.333333333333,4,2,0,50,0,0
102495,-208.333333333333,4,2,0,20,0,0

[Colours]
Combo1 : 22,182,138
Combo2 : 241,73,73
Combo3 : 196,94,157
Combo4 : 48,120,228
Combo5 : 224,224,224
Combo6 : 149,244,244

[HitObjects]
154,8,282,6,0,B|145:138,1,112.5,4|0,0:3|0:0,0:0:0:0:
1,149,567,6,0,B|30:126|63:132|63:132|98:169|155:147,1,146.249993305207,4|0,0:3|0:0,0:0:0:0:
310,211,853,22,0,P|253:234|192:219,1,120,4|0,0:3|0:0,0:0:0:0:
445,371,1424,38,0,L|437:258,1,112.5,4|0,0:3|0:0,0:0:0:0:
459,80,1710,6,0,B|453:142|453:142|466:176|466:176|460:223,1,146.249993305207,4|0,0:3|0:0,0:0:0:0:
279,208,1996,22,0,P|318:178|381:195,1,112.499996566773,4|0,0:3|0:0,0:0:0:0:
474,57,2424,38,0,B|390:-1|357:133|261:57,1,225,4|0,0:0|0:0,0:0:0:0:
219,233,6138,86,0,L|213:179,1,41.2500012588501,2|0,0:0|0:0,0:0:0:0:
246,111,6281,2,0,L|238:172,1,41.2500012588501,2|0,0:0|0:0,0:0:0:0:
403,203,6423,38,0,P|365:220|324:215,1,78.7499975967408,0|0,1:0|0:0,0:0:0:0:
271,91,6709,38,0,L|314:99,1,41.2500012588501,2|0,0:0|0:0,0:0:0:0:
149,151,6852,2,0,L|99:160,1,41.2500012588501,2|0,0:0|0:0,0:0:0:0:
272,329,6995,38,0,P|308:288|310:230,1,112.5,4|0,0:3|0:0,0:0:0:0:
47,186,10709,38,0,L|56:286,1,101.249996910095
142,320,10995,6,0,L|128:185,1,134.999995880127
209,189,11281,22,0,L|214:246,1,56.25
269,135,11566,54,0,B|305:97|354:108|354:108|383:139|436:136,1,179.999994506836,4|0,0:3|0:0,0:0:0:0:
464,162,11995,70,0,L|351:171,1,112.5,2|0,1:2|0:0,0:0:0:0:
215,65,12281,2,0,P|181:116|194:180,1,112.5,2|0,0:0|0:0,0:0:0:0:
320,293,12566,2,0,B|276:325|276:325|221:309,1,112.5,2|0,0:0|0:0,0:0:0:0:
89,274,12852,38,0,L|96:213,2,60
140,357,13281,2,0,L|203:347,1,60,0|0,1:0|0:0,0:0:0:0:
336,200,13566,2,0,P|304:199|276:209,1,60
81,247,13852,54,0,B|66:195|66:195|113:129|188:168,1,194.999991073609,4|0,0:3|0:0,0:0:0:0:
208,142,14281,70,0,L|200:26,1,112.5,2|0,1:2|0:0,0:0:0:0:
339,134,14566,2,0,P|297:162|233:160,1,112.5,2|0,0:0|0:0,0:0:0:0:
66,108,14852,2,0,B|43:165|43:165|64:218,1,112.5,2|0,0:0|0:0,0:0:0:0:
223,304,15138,38,0,L|229:240,2,60
102,363,15566,2,0,P|92:341|88:306,1,60,0|0,1:0|0:0,0:0:0:0:
195,164,15852,2,0,P|206:192|209:222,1,60
0,48,16138,54,0,B|76:41|76:41|110:61|110:61|189:54,1,194.999991073609,4|0,0:3|0:0,0:0:0:0:
208,27,16566,70,0,L|95:16,1,112.5,2|0,1:2|0:0,0:0:0:0:
195,164,16852,2,0,B|248:183|248:183|302:146,1,112.5,2|0,0:0|0:0,0:0:0:0:
122,336,17138,2,0,P|96:297|103:231,1,112.5,2|0,0:0|0:0,0:0:0:0:
244,308,17423,38,0,L|238:368,2,60
194,212,17852,2,0,L|120:221,1,60,0|0,1:0|0:0,0:0:0:0:
1,284,18138,2,0,P|29:293|59:292,1,60
248,120,18423,54,0,B|154:85|154:85|69:138,1,194.999991073609,4|0,0:3|0:0,0:0:0:0:
74,168,18852,70,0,L|195:184,1,112.5,2|0,1:2|0:0,0:0:0:0:
294,29,19138,2,0,P|237:16|180:43,1,112.5,2|0,0:0|0:0,0:0:0:0:
263,251,19423,2,0,B|319:267|319:267|366:226,1,112.5,2|0,0:0|0:0,0:0:0:0:
414,90,19709,38,0,L|421:149,2,60
502,174,20138,6,0,P|476:186|441:187,1,48.7499977684022,0|0,1:0|0:0,0:0:0:0:
436,263,20281,2,0,P|457:276|481:282,1,48.7499977684022,0|0,1:0|0:0,0:0:0:0:
250,194,20423,2,0,P|307:154|386:177,1,146.249993305207,4|0,0:3|0:0,0:0:0:0:
458,102,20709,54,0,P|413:95|368:129,1,90,4|0,0:0|0:0,0:0:0:0:
289,133,20995,2,0,L|283:96,1,30,2|0,0:0|0:0,0:0:0:0:
124,55,21138,2,0,B|170:68|170:68|205:44,1,90,2|0,1:2|0:0,0:0:0:0:
45,15,21423,2,0,P|35:60|50:103,1,90,0|0,1:0|0:0,0:0:0:0:
50,243,21709,38,0,L|62:123,1,120,2|0,0:0|0:0,0:0:0:0:
140,75,22138,2,0,L|145:115,1,30,2|0,0:0|0:0,0:0:0:0:
202,208,22281,2,0,P|219:178|216:140,1,60,2|0,0:0|1:0,0:0:0:0:
315,244,22566,2,0,B|247:284|247:284|176:241,1,150,2|0,0:0|0:0,0:0:0:0:
131,349,22995,38,0,P|126:304|148:266,1,90,2|0,0:0|0:0,0:0:0:0:
103,208,23281,2,0,L|107:237,1,30,2|0,0:0|0:0,0:0:0:0:
201,321,23423,2,0,L|303:311,1,90,2|0,1:2|0:0,0:0:0:0:
400,295,23709,2,0,P|360:277|304:288,1,90,2|0,0:0|0:0,0:0:0:0:
472,359,23995,38,0,B|494:320|494:320|484:276,1,90,2|0,0:0|0:0,0:0:0:0:
472,159,24281,2,0,L|463:272,1,90,2|0,0:0|0:0,0:0:0:0:
390,309,24566,2,0,L|392:339,1,30,2|0,0:0|0:0,0:0:0:0:
285,184,24709,2,0,P|319:170|361:172,1,60,0|0,1:0|0:0,0:0:0:0:
489,61,24995,2,0,P|459:59|430:68,1,60
218,31,25281,38,0,B|263:51|263:51|324:41,1,90,2|0,0:0|0:0,0:0:0:0:
403,80,25566,2,0,L|400:114,1,30,2|0,0:0|0:0,0:0:0:0:
389,229,25709,2,0,P|370:196|379:137,1,90,2|0,1:2|0:0,0:0:0:0:
276,101,25995,2,0,P|236:119|184:114,1,90,2|0,0:0|0:0,0:0:0:0:
11,60,26281,6,0,P|44:41|94:45,1,75,2|0,0:0|0:0,0:0:0:0:
174,97,26709,22,0,L|179:67,1,30,2|0,0:0|0:0,0:0:0:0:
67,134,26852,2,0,L|71:195,1,60,2|0,0:0|1:0,0:0:0:0:
204,265,27138,54,0,B|175:278|175:278|145:275,1,56.2499982833863,2|0,0:0|0:0,0:0:0:0:
115,303,27566,70,0,L|111:332,1,30,2|0,0:0|0:0,0:0:0:0:
294,316,27709,2,0,P|307:271|298:225,1,90,2|0,0:0|0:0,0:0:0:0:
279,344,27995,2,0,L|373:357,1,90,2|0,1:2|0:0,0:0:0:0:
401,187,28281,2,0,B|354:175|354:175|314:198,1,90,2|0,0:0|0:0,0:0:0:0:
193,98,28566,6,0,P|227:96|252:104,1,56.25,2|0,0:0|0:0,0:0:0:0:
294,215,28852,22,0,L|299:245,1,30,0|0,3:0|3:0,3:0:0:0:
379,277,28995,2,0,L|375:307,1,30,0|0,3:0|3:0,3:0:0:0:
420,176,29138,2,0,L|463:166,1,30,0|0,3:0|3:0,3:0:0:0:
461,347,29281,2,0,P|427:351|400:340,1,60,0|0,1:0|0:0,0:0:0:0:
277,344,29566,2,0,L|378:332,1,90,0|0,3:0|3:0,3:0:0:0:
195,384,29852,38,0,B|175:346|175:346|188:297,1,90,2|0,0:0|0:0,0:0:0:0:
158,238,30138,2,0,L|162:268,1,30,2|0,0:0|0:0,0:0:0:0:
1,351,30281,2,0,P|53:360|100:337,1,90,2|0,1:2|0:0,0:0:0:0:
137,211,30566,2,0,L|28:198,1,90
246,181,30852,6,0,P|263:228|252:281,1,93.75,2|0,0:0|0:0,0:0:0:0:
271,346,31281,22,0,L|268:315,1,30,2|0,0:0|0:0,0:0:0:0:
158,238,31423,2,0,L|96:244,1,60,2|0,0:0|1:0,0:0:0:0:
0,369,31709,54,0,P|28:380|57:379,1,56.2499982833863,2|0,0:0|0:0,0:0:0:0:
184,360,32138,70,0,L|176:257,1,90,2|0,0:0|0:0,0:0:0:0:
232,178,32423,2,0,L|238:136,1,30,2|0,0:0|0:0,0:0:0:0:
83,87,32566,2,0,P|122:66|165:72,1,90,2|0,1:2|0:0,0:0:0:0:
336,182,32852,2,0,B|297:207|297:207|251:197,1,90
98,253,33138,54,0,B|137:300|137:300|154:151,1,206.250006294251,2|0,0:0|0:0,0:0:0:0:
185,91,33566,70,0,L|186:120,1,30,2|0,0:0|0:0,0:0:0:0:
18,196,33709,2,0,P|1:157|12:96,1,90,2|0,0:0|1:0,0:0:0:0:
130,249,33995,54,0,L|35:239,1,93.75,2|0,0:0|0:0,0:0:0:0:
213,301,34423,70,0,B|231:261|231:261|218:196,1,90,2|0,0:0|0:0,0:0:0:0:
246,147,34709,2,0,L|242:179,1,30,2|0,0:0|0:0,0:0:0:0:
306,320,34852,2,0,L|398:312,1,90,2|0,1:2|0:0,0:0:0:0:
511,286,35138,2,0,P|470:270|425:278,1,90,2|0,0:0|0:0,0:0:0:0:
238,376,35423,6,0,B|216:337|216:337|226:285,1,93.75,2|0,0:0|0:0,0:0:0:0:
287,221,35852,22,0,L|317:227,1,30,2|0,0:0|0:0,0:0:0:0:
166,135,35995,2,0,P|116:131|76:152,1,90,2|0,0:0|0:0,0:0:0:0:
36,282,36281,54,0,L|31:219,1,56.2499982833863,2|0,0:0|0:0,0:0:0:0:
64,175,36709,70,0,L|60:205,1,30,2|0,0:0|0:0,0:0:0:0:
131,356,36852,2,0,P|178:363|218:348,1,90,2|0,0:0|0:0,0:0:0:0:
217,229,37138,2,0,L|226:325,1,90,2|0,1:2|0:0,0:0:0:0:
94,278,37423,2,0,B|47:289|47:289|7:268,1,90,2|0,0:0|0:0,0:0:0:0:
72,85,37709,6,0,P|45:85|18:95,1,56.25,2|0,0:0|0:0,0:0:0:0:
132,33,37995,22,0,L|138:3,1,30,0|0,3:0|3:0,3:0:0:0:
138,138,38138,2,0,L|141:167,1,30,0|0,3:0|3:0,3:0:0:0:
198,87,38281,2,0,L|242:81,1,30,0|0,3:0|3:0,3:0:0:0:
151,252,38423,2,0,P|114:250|91:238,1,60,0|0,1:0|0:0,0:0:0:0:
0,350,38709,2,0,P|27:337|56:338,1,60,0|0,3:0|0:0,3:0:0:0:
221,165,38995,6,0,P|261:220|251:296,1,134.999995880127,4|0,0:3|0:0,0:0:0:0:
488,322,39423,38,0,L|387:307,1,89.9999972534181,0|0,1:3|0:0,0:0:0:0:
230,371,39852,54,0,P|278:374|327:350,1,89.9999972534181,8|0,0:3|0:0,0:0:0:0:
419,212,40138,70,0,P|353:210|309:162,1,134.999995880127,4|0,0:3|0:0,0:0:0:0:
127,100,40566,38,0,L|230:91,1,89.9999972534181,2|0,0:0|0:0,0:0:0:0:
376,45,40995,54,0,P|332:30|276:33,1,89.9999972534181,2|0,0:0|0:0,0:0:0:0:
84,215,41281,70,0,P|149:230|207:186,1,134.999995880127,4|0,0:3|0:0,0:0:0:0:
376,340,41709,38,0,P|331:341|291:321,1,89.9999972534181,4|0,0:3|0:0,0:0:0:0:
161,271,42138,54,0,L|169:360,1,89.9999972534181,4|0,0:3|0:0,0:0:0:0:
259,206,42423,70,0,P|314:171|391:192,1,134.999995880127,4|0,0:3|0:0,0:0:0:0:
454,114,42852,2,0,L|459:81,1,33.7499989700318,2|0,0:0|0:0,0:0:0:0:
481,258,42995,54,0,P|464:257|448:252,1,33.7499989700318,2|0,1:2|0:0,0:0:0:0:
441,297,43138,2,0,P|427:286|417:273,1,33.7499989700318
390,315,43281,2,0,P|385:298|384:281,1,33.7499989700318
338,306,43423,2,0,P|343:289|352:275,1,33.7499989700318
241,184,43566,22,0,P|170:171|107:203,1,134.999995880127,4|0,0:3|0:0,0:0:0:0:
274,41,43995,38,0,P|317:63|365:57,1,89.9999972534181,0|0,1:0|0:0,0:0:0:0:
466,134,44423,54,0,L|476:223,1,89.9999972534181,8|0,0:3|0:0,0:0:0:0:
310,351,44709,70,0,P|361:318|439:330,1,134.999995880127,4|0,0:3|0:0,0:0:0:0:
509,249,45138,2,0,L|504:282,1,33.7499989700318,2|0,0:0|0:0,0:0:0:0:
362,170,45281,38,0,P|358:105|396:50,1,134.999995880127,2|0,1:2|0:0,0:0:0:0:
295,0,45852,38,0,L|298:34,1,33.7499989700318,4|0,0:3|0:0,0:0:0:0:
187,85,45995,2,0,P|154:72|106:74,1,67.4999979400635,4|0,0:3|0:0,0:0:0:0:
0,229,46281,38,0,P|48:233|90:215,1,89.9999972534181,0|0,1:0|0:0,0:0:0:0:
185,270,46709,54,0,L|194:359,1,89.9999972534181,4|0,0:3|0:0,0:0:0:0:
340,224,46995,38,0,L|346:168,3,56.2500021457673,2|0|0|0,0:0|0:0|0:0|0:0,0:0:0:0:
399,81,47566,2,0,P|367:68|329:70,3,56.2500021457673,2|0|0|0,0:0|0:0|0:0|0:0,0:0:0:0:
206,239,48138,22,0,L|349:224,1,134.999995880127,4|0,0:3|0:0,0:0:0:0:
481,372,48566,38,0,P|448:345|435:290,1,89.9999972534181,0|0,1:3|0:0,0:0:0:0:
493,209,48995,54,0,L|503:114,1,89.9999972534181,8|0,0:3|0:0,0:0:0:0:
307,65,49281,70,0,P|357:28|426:45,1,134.999995880127,4|0,0:3|0:0,0:0:0:0:
278,261,49709,38,0,L|264:158,1,89.9999972534181,2|0,0:0|0:0,0:0:0:0:
185,79,50138,54,0,P|150:105|94:108,1,89.9999972534181,2|0,0:0|0:0,0:0:0:0:
298,0,50423,70,0,P|346:52|340:114,1,134.999995880127,4|0,0:3|0:0,0:0:0:0:
500,234,50852,38,0,L|402:223,1,89.9999972534181,0|0,1:3|0:0,0:0:0:0:
309,330,51281,54,0,P|292:293|298:242,1,89.9999972534181,4|0,0:3|0:0,0:0:0:0:
211,96,51566,70,0,P|156:136|74:125,1,134.999995880127,4|0,0:3|0:0,0:0:0:0:
0,260,51995,38,0,B|66:224|102:318|186:262,1,179.999994506836,2|0,0:0|0:0,0:0:0:0:
282,193,52709,38,0,P|346:179|402:214,1,134.999995880127,4|0,0:3|0:0,0:0:0:0:
500,40,53138,38,0,L|492:148,1,89.9999972534181,0|0,1:0|0:0,0:0:0:0:
399,91,53566,54,0,P|388:53|398:-2,1,89.9999972534181,4|0,0:3|0:0,0:0:0:0:
152,29,53852,70,0,P|224:38|284:-1,1,134.999995880127,4|0,0:3|0:0,0:0:0:0:
312,87,54281,2,0,L|316:121,1,33.7499989700318,2|0,0:0|0:0,0:0:0:0:
382,298,54423,38,0,P|421:253|420:169,1,134.999995880127,0|0,1:0|0:0,0:0:0:0:
233,180,54995,38,0,P|214:142|221:82,1,101.249996910095,4|0,0:3|0:0,0:0:0:0:
298,61,55281,6,0,L|301:27,1,33.7499989700318,2|0,0:0|0:0,0:0:0:0:
217,210,55423,70,0,L|95:221,1,101.249996910095,4|0,0:3|0:0,0:0:0:0:
45,170,55709,6,0,L|42:131,1,33.7499989700318,2|0,0:0|0:0,0:0:0:0:
0,332,55852,70,0,P|94:374|168:314,1,202.499993820191,4|0,0:3|0:0,0:0:0:0:
245,43,56709,54,0,L|237:21,6,18.75
331,81,56995,2,0,L|340:53,6,18.75
273,175,57281,70,0,L|281:258,1,78.7499975967408,4|0,0:0|0:0,0:0:0:0:
359,324,57566,54,0,L|363:279,1,37.5,2|0,0:0|0:0,0:0:0:0:
170,369,57709,2,0,P|113:334|39:352,1,134.999995880127,2|0,1:2|0:0,0:0:0:0:
45,240,57995,70,0,B|69:188|69:188|44:126,1,112.5,2|0,0:0|0:0,0:0:0:0:
178,0,58281,2,0,L|162:116,1,112.5,2|0,0:0|0:0,0:0:0:0:
280,138,58566,2,0,P|230:161|170:142,1,112.5,2|0,0:0|0:0,0:0:0:0:
71,263,58852,2,0,L|196:250,1,112.5,2|0,0:0|0:0,0:0:0:0:
261,294,59138,2,0,L|297:301,1,37.5,2|0,0:0|0:0,0:0:0:0:
342,73,59281,2,0,P|368:124|358:182,1,112.5,4|0,0:3|0:0,0:0:0:0:
338,286,59566,38,0,L|329:203,1,78.7499975967408,4|0,0:3|0:0,0:0:0:0:
279,137,59852,54,0,L|240:131,1,37.5,2|0,0:0|0:0,0:0:0:0:
91,174,59995,2,0,B|159:193|159:193|226:150,1,134.999995880127,2|0,1:2|0:0,0:0:0:0:
168,30,60281,70,0,P|218:6|274:14,1,112.5,2|0,0:0|0:0,0:0:0:0:
416,51,60566,2,0,L|304:37,1,112.5,2|0,0:0|0:0,0:0:0:0:
401,89,60852,2,0,L|512:75,1,112.5,2|0,0:0|0:0,0:0:0:0:
442,196,61138,2,0,P|388:204|338:180,1,112.5,2|0,0:0|0:0,0:0:0:0:
283,117,61423,2,0,L|276:74,1,37.5,2|0,0:0|0:0,0:0:0:0:
191,267,61566,2,0,B|165:217|165:217|175:161,1,112.5,4|0,0:3|0:0,0:0:0:0:
243,54,61852,38,0,P|207:38|146:43,1,78.7499975967408,4|0,0:3|0:0,0:0:0:0:
114,137,62138,54,0,L|151:132,1,37.5,2|0,0:0|0:0,0:0:0:0:
174,295,62281,2,0,B|105:315|105:315|42:272,1,134.999995880127,0|0,1:2|0:0,0:0:0:0:
0,156,62566,70,0,L|111:168,1,112.5,2|0,0:0|0:0,0:0:0:0:
201,319,62852,2,0,P|234:283|232:212,1,112.5,2|0,0:0|0:0,0:0:0:0:
270,83,63138,2,0,L|261:196,1,112.5,2|0,0:0|0:0,0:0:0:0:
363,299,63423,2,0,B|419:314|419:314|478:282,1,112.5,2|0,0:0|0:0,0:0:0:0:
499,190,63709,54,0,L|519:135,1,37.5,0|0,3:0|0:0,3:0:0:0:
429,145,63852,2,0,L|431:86,1,37.5,0|0,3:0|0:0,3:0:0:0:
357,177,63995,2,0,L|338:121,1,37.5,0|0,3:0|0:0,3:0:0:0:
222,346,64138,70,0,P|203:284|223:222,1,131.249995994568,4|0,0:3|0:0,0:0:0:0:
155,156,64566,54,0,L|161:103,1,52.4999983978272,2|0,1:2|0:0,0:0:0:0:
343,223,64709,2,0,L|509:205,1,157.499995193482,0|0,1:0|0:0,0:0:0:0:
504,77,64995,70,0,P|462:106|388:96,1,112.5,2|0,0:0|0:0,0:0:0:0:
243,47,65281,38,0,P|278:33|330:39,1,78.7499975967408,2|0,0:0|0:0,0:0:0:0:
373,114,65566,38,0,L|377:165,1,37.5,0|0,3:0|3:0,3:0:0:0:
430,270,65709,2,0,L|433:232,1,37.5,0|0,3:0|3:0,3:0:0:0:
405,66,65852,6,0,L|401:117,1,37.5,0|0,3:0|3:0,3:0:0:0:
401,304,65995,2,0,L|397:266,1,37.5,0|0,3:0|3:0,3:0:0:0:
223,147,66138,38,0,L|227:114,6,18.75,2|0|0|0|0|0|0,0:0|0:0|0:0|0:0|0:0|0:0|0:0,0:0:0:0:
285,248,66423,70,0,L|374:236,1,78.7499975967408,4|0,0:0|0:0,0:0:0:0:
424,170,66709,54,0,L|461:177,1,37.5,2|0,0:0|0:0,0:0:0:0:
512,358,66852,2,0,P|449:378|391:342,1,134.999995880127,2|0,1:2|0:0,0:0:0:0:
266,260,67138,70,0,B|241:311|241:311|257:375,1,112.5,2|0,0:0|0:0,0:0:0:0:
136,248,67423,2,0,P|188:222|253:239,1,112.5,2|0,0:0|0:0,0:0:0:0:
390,374,67709,2,0,L|278:384,1,112.5,2|0,0:0|0:0,0:0:0:0:
342,189,67995,2,0,P|370:242|363:302,1,112.5,2|0,0:0|0:0,0:0:0:0:
423,364,68281,2,0,L|460:369,1,37.5,2|0,0:0|0:0,0:0:0:0:
236,370,68423,2,0,B|189:337|189:337|118:348,1,112.5,4|0,0:3|0:0,0:0:0:0:
96,242,68709,38,0,L|103:338,1,78.7499975967408,4|0,0:3|0:0,0:0:0:0:
37,384,68995,54,0,L|-1:379,1,37.5,2|0,0:0|0:0,0:0:0:0:
24,186,69138,2,0,P|81:153|157:178,1,134.999995880127,2|0,1:2|0:0,0:0:0:0:
190,37,69423,70,0,L|181:157,1,112.5,2|0,0:0|0:0,0:0:0:0:
238,328,69709,2,0,B|263:278|263:278|249:222,1,112.5,2|0,0:0|0:0,0:0:0:0:
365,173,69995,2,0,P|310:162|262:189,1,112.5,2|0,0:0|0:0,0:0:0:0:
387,204,70281,2,0,L|526:191,1,112.5,2|0,0:0|0:0,0:0:0:0:
507,116,70566,2,0,L|511:79,1,37.5,2|0,0:0|0:0,0:0:0:0:
322,240,70709,2,0,B|303:297|303:297|332:358,1,112.5,4|0,0:3|0:0,0:0:0:0:
300,211,70995,38,0,L|291:119,1,78.7499975967408,4|0,0:3|0:0,0:0:0:0:
358,83,71281,54,0,L|395:87,1,37.5,2|0,0:0|0:0,0:0:0:0:
207,142,71423,2,0,P|179:98|200:20,1,134.999995880127,0|0,1:0|0:0,0:0:0:0:
344,112,71709,70,0,L|333:235,1,112.5,2|0,0:0|0:0,0:0:0:0:
216,174,71995,2,0,B|158:161|158:161|111:196,1,112.5,2|0,0:0|0:0,0:0:0:0:
103,328,72281,2,0,P|127:289|109:220,1,112.5,2|0,0:0|0:0,0:0:0:0:
14,75,72566,2,0,L|25:203,1,112.5,2|0,0:0|0:0,0:0:0:0:
53,271,72852,2,0,L|16:281,1,37.5,2|0,0:0|0:0,0:0:0:0:
216,174,72995,2,0,P|272:160|325:183,1,112.5,4|0,0:3|0:0,0:0:0:0:
343,258,73281,38,0,L|350:197,3,52.4999983978272,2|0|0|0,0:0|0:0|0:0|0:0,0:0:0:0:
414,142,73852,2,0,L|408:89,3,52.4999983978272
328,35,74423,2,0,B|312:44|312:44|303:29|303:29|297:47|297:47|288:31|288:31|281:48|281:48|272:32|272:32|265:49|265:49|256:33|256:33|249:50|249:50|240:35|240:35|233:51|233:51|224:36|224:36|106:22|102:154|187:157,1,435,4|0,0:0|0:0,0:0:0:0:
224,203,75566,54,0,B|216:175|183:172|183:172|204:327,1,194.999991073609,4|0,0:3|0:0,0:0:0:0:
217,334,75995,70,0,B|275:349|275:349|318:308,1,112.5,2|0,1:2|0:0,0:0:0:0:
360,170,76281,2,0,L|350:288,1,112.5,2|0,0:0|0:0,0:0:0:0:
495,346,76566,2,0,P|454:371|388:368,1,112.5,2|0,0:0|0:0,0:0:0:0:
203,356,76852,38,0,L|198:296,2,60
44,267,77281,2,0,P|75:253|113:251,1,60,0|0,1:0|0:0,0:0:0:0:
266,182,77566,2,0,L|186:172,1,60
131,43,77852,54,0,B|140:117|140:117|116:150|116:150|124:233,1,194.999991073609,4|0,0:3|0:0,0:0:0:0:
144,268,78281,70,0,B|197:285|197:285|245:255,1,112.5,2|0,0:0|0:0,0:0:0:0:
388,366,78566,2,0,L|272:353,1,112.5,2|0,0:0|0:0,0:0:0:0:
176,168,78852,2,0,P|221:145|317:168,1,150,2|0,0:0|0:0,0:0:0:0:
348,167,79281,38,0,L|359:74,1,90,2|0,0:0|0:0,0:0:0:0:
460,44,79566,2,0,P|415:36|372:48,1,90,2|0,1:2|0:0,0:0:0:0:
257,21,79852,2,0,P|294:45|338:52,1,90,2|0,0:0|0:0,0:0:0:0:
494,210,80138,54,0,B|423:233|423:233|363:192,1,146.249993305207,4|0,0:3|0:0,0:0:0:0:
298,240,80423,70,0,L|294:289,1,37.5,2|0,0:0|0:0,0:0:0:0:
149,362,80566,2,0,P|127:318|128:251,1,112.5,2|0,1:2|0:0,0:0:0:0:
253,96,80852,2,0,L|263:207,1,112.5,2|0,0:0|0:0,0:0:0:0:
259,360,81138,2,0,B|314:373|314:373|361:341,1,112.5,2|0,0:0|0:0,0:0:0:0:
459,255,81423,38,0,L|391:246,2,60
511,147,81852,2,0,P|490:136|444:131,1,60,0|0,1:0|0:0,0:0:0:0:
312,63,82138,2,0,L|373:55,1,60
218,199,82423,54,0,P|170:134|212:26,1,194.999991073609,4|0,0:3|0:0,0:0:0:0:
220,7,82852,70,0,L|104:17,1,112.5,2|0,0:0|0:0,0:0:0:0:
269,111,83138,2,0,B|324:123|324:123|371:93,1,112.5,2|0,0:0|0:0,0:0:0:0:
509,271,83423,2,0,P|473:218|494:126,1,150,2|0,0:0|0:0,0:0:0:0:
486,111,83852,38,0,L|387:95,1,90,2|0,0:0|0:0,0:0:0:0:
271,131,84138,2,0,P|320:136|359:118,1,90,2|0,1:2|0:0,0:0:0:0:
360,0,84423,2,0,L|366:102,1,90,2|0,0:0|0:0,0:0:0:0:
512,252,84709,54,0,B|529:105|529:105|489:138,1,194.999991073609,4|0,0:3|0:0,0:0:0:0:
466,130,85138,70,0,P|443:84|456:26,1,112.5,2|0,1:2|0:0,0:0:0:0:
327,132,85423,2,0,L|438:148,1,112.5,2|0,0:0|0:0,0:0:0:0:
433,335,85709,2,0,B|410:284|410:284|425:218,1,112.5,2|0,0:0|0:0,0:0:0:0:
272,195,85995,38,0,L|212:203,2,60
298,98,86423,2,0,L|291:39,1,60,0|0,1:0|0:0,0:0:0:0:
378,179,86709,2,0,P|378:215|369:246,1,60
207,111,86995,54,0,B|131:103|131:103|89:118|89:118|4:106,1,194.999991073609,4|0,0:3|0:0,0:0:0:0:
3,81,87423,70,0,P|50:56|122:68,1,112.5,2|0,0:0|0:0,0:0:0:0:
209,241,87709,2,0,B|235:193|235:193|222:117,1,112.5,2|0,0:0|0:0,0:0:0:0:
383,0,87995,2,0,P|323:39|240:30,1,150,2|0,0:0|0:0,0:0:0:0:
215,21,88423,38,0,L|206:110,1,90,2|0,0:0|0:0,0:0:0:0:
102,186,88709,38,0,L|164:177,1,48.7499977684022,4|0,0:3|0:0,0:0:0:0:
328,162,88852,2,0,L|266:153,1,48.7499977684022,4|0,0:3|0:0,0:0:0:0:
56,214,88995,6,0,L|104:220,1,48.7499977684022,4|0,0:3|0:0,0:0:0:0:
378,132,89138,2,0,L|329:138,1,48.7499977684022,4|0,0:3|0:0,0:0:0:0:
277,310,89281,70,0,P|237:255|258:180,1,150,2|0,0:0|0:0,0:0:0:0:
99,358,89709,38,0,L|283:338,1,179.999994506836,2|0,0:0|0:0,0:0:0:0:
437,245,90423,38,0,P|384:218|326:227,1,120,2|0,0:0|0:0,0:0:0:0:
469,342,90852,38,0,B|504:274|430:251|476:155,1,179.999994506836,2|0,0:0|0:0,0:0:0:0:
376,13,91566,38,0,L|387:125,1,104.999996795654,2|0,0:0|0:0,0:0:0:0:
328,274,91995,2,0,P|306:236|320:164,2,104.999996795654,2|0|0,0:0|0:0|0:0,0:0:0:0:
51,341,92995,38,0,P|89:349|127:342,1,78.7499975967408,0|0,0:2|0:0,0:0:0:0:
234,364,93280,2,0,P|201:341|163:332,1,78.7499975967408
140,238,93566,2,0,L|149:159,1,78.7499975967408
218,50,93852,70,0,L|330:36,1,90,2|0,0:0|0:0,0:0:0:0:
447,85,94138,38,0,L|417:81,1,30,2|0,0:0|0:0,0:0:0:0:
212,73,94281,38,0,L|324:59,1,90,2|0,0:0|0:0,0:0:0:0:
373,159,94566,38,0,L|283:170,1,90,2|0,0:0|0:0,0:0:0:0:
218,50,94852,38,0,L|330:36,1,90,2|0,0:0|0:0,0:0:0:0:
212,73,95138,2,0,L|324:59,1,90,2|0,0:0|0:0,0:0:0:0:
447,85,95423,38,0,L|417:81,1,30,2|0,0:0|0:0,0:0:0:0:
218,50,95566,38,0,L|330:36,1,90,2|0,0:0|0:0,0:0:0:0:
373,159,95852,38,0,L|283:170,1,90,2|0,0:0|0:0,0:0:0:0:
218,50,96138,38,0,L|330:36,1,90,2|0,0:0|0:0,0:0:0:0:
447,85,96423,38,0,L|417:81,1,30,2|0,0:0|0:0,0:0:0:0:
212,73,96566,38,0,L|301:61,1,90,2|0,0:0|0:0,0:0:0:0:
218,50,96852,2,0,L|307:38,1,90,2|0,0:0|0:0,0:0:0:0:
373,159,97138,38,0,L|283:170,1,90,2|0,0:0|0:0,0:0:0:0:
212,73,97423,38,0,L|301:61,1,90,2|0,0:0|0:0,0:0:0:0:
447,85,97709,38,0,L|417:81,1,30,2|0,0:0|0:0,0:0:0:0:
218,50,97852,38,0,L|307:38,1,90,2|0,0:0|0:0,0:0:0:0:
373,159,98138,38,0,L|283:170,1,90,2|0,0:0|0:0,0:0:0:0:
367,182,98423,2,0,L|277:193,1,90,2|0,0:0|0:0,0:0:0:0:
138,147,98709,2,0,L|167:150,1,30,2|0,0:0|0:0,0:0:0:0:
301,61,98852,38,0,L|211:72,1,90,2|0,0:0|0:0,0:0:0:0:
277,193,99138,38,0,L|366:181,1,90,2|0,0:0|0:0,0:0:0:0:
307,38,99423,38,0,L|217:49,1,90,2|0,0:0|0:0,0:0:0:0:
301,61,99709,2,0,L|211:72,1,90,2|0,0:0|0:0,0:0:0:0:
138,147,99995,38,0,L|167:150,1,30,2|0,0:0|0:0,0:0:0:0:
307,38,100138,38,0,L|217:49,1,90,2|0,0:0|0:0,0:0:0:0:
283,170,100423,38,0,L|372:158,1,90,2|0,0:0|0:0,0:0:0:0:
301,61,100709,38,0,L|211:72,1,90,2|0,0:0|0:0,0:0:0:0:
138,147,100995,38,0,L|167:150,1,30,2|0,0:0|0:0,0:0:0:0:
307,38,101138,38,0,L|217:49,1,90,2|0,0:0|0:0,0:0:0:0:
301,61,101423,2,0,L|211:72,1,90,2|0,0:0|0:0,0:0:0:0:
277,193,101709,38,0,L|366:181,1,90,2|0,0:0|0:0,0:0:0:0:
307,38,101995,38,0,L|217:49,1,90,2|0,0:0|0:0,0:0:0:0:
138,147,102281,38,0,L|167:150,1,30,2|0,0:0|0:0,0:0:0:0:
230,282,102423,54,0,B|164:246|128:340|44:284,1,180.000004394531,2|0,0:0|0:0,0:0:0:0:
