osu file format v14

[General]
AudioFilename: audio.mp3
AudioLeadIn: 0
PreviewTime: 57281
Countdown: 0
SampleSet: Soft
StackLeniency: 0.7
Mode: 0
LetterboxInBreaks: 0
WidescreenStoryboard: 1

[Editor]
Bookmarks: 11566,20709,29852,38995,48138,57281,66423,75566
DistanceSpacing: 1.7
BeatDivisor: 8
GridSize: 32
TimelineZoom: 2.2

[Metadata]
Title:Shadow gate to love
TitleUnicode:Shadow gate to love
Artist:Guilty Kiss
ArtistUnicode:Guilty Kiss
Creator:Kisses
Version:Easy
Source:Love Live! Sunshine!!
Tags:Left Karen Dream117er Nardoxyribonucleic ラブライブ!サンシャイン!! love live school idol project suzuki aina 鈴木愛奈 aida rikako 逢田梨香子 kobayashi aika 小林愛香 ohara mari 小原鞠莉 ギルティキス
BeatmapID:1426947
BeatmapSetID:630109

[Difficulty]
HPDrainRate:2.5
CircleSize:3.5
OverallDifficulty:3
ApproachRate:2.5
SliderMultiplier:1.8
SliderTickRate:1

[Events]
//Background and Video events
0,0,"sfw BG.jpg",0,0
//Break Periods
2,2624,10066
//Storyboard Layer 0 (Background)
//Storyboard Layer 1 (Fail)
//Storyboard Layer 2 (Pass)
//Storyboard Layer 3 (Foreground)
//Storyboard Sound Samples

[TimingPoints]
282,571.428571428571,4,2,0,70,1,0
2424,571.428571428571,4,2,0,70,1,0
2709,-100,4,2,0,50,0,0
11566,-100,4,2,0,70,0,0
57281,-100,4,2,0,70,0,1
75566,-100,4,2,0,70,0,0
89281,-100,4,2,0,50,0,0
93852,-100,4,2,0,40,0,0

[Colours]
Combo1 : 224,224,224
Combo2 : 241,73,73
Combo3 : 196,94,157
Combo4 : 48,120,228

[HitObjects]
195,148,282,6,0,B|149:139|149:139|104:171,2,90,4|4|4,0:3|0:3|0:3,0:3:0:0:
324,272,1424,2,0,B|370:281|370:281|405:256,2,90,4|4|4,0:3|0:3|0:3,0:3:0:0:
350,139,2424,1,4,0:0:0:0:
106,377,11566,6,0,L|90:238,1,135,4|2,0:3|1:2,0:0:0:0:
12,196,12281,1,2,0:0:0:0:
84,143,12566,2,0,B|183:93|183:93|271:166,1,225,2|0,0:0|1:0,0:0:0:0:
327,337,13852,2,0,B|262:361|262:361|193:321,1,135,4|2,0:3|1:2,0:0:0:0:
173,243,14566,1,2,0:0:0:0:
239,181,14852,2,0,L|475:197,1,225,2|0,0:0|1:0,0:0:0:0:
476,18,16138,6,0,B|411:-1|411:-1|349:37,1,135,4|2,0:3|1:2,0:0:0:0:
293,101,16852,1,2,0:0:0:0:
219,49,17138,2,0,B|169:5|169:5|155:164,1,225,2|0,0:0|1:0,0:0:0:0:
97,334,18423,2,0,B|163:356|163:356|225:318,1,135,4|2,0:3|1:2,0:0:0:0:
299,362,19138,1,2,0:0:0:0:
354,291,19423,2,0,B|342:200|342:200|360:163|360:163|350:71,1,225,2|0,0:0|1:0,0:0:0:0:
271,26,20423,1,0,1:0:0:0:
195,75,20709,6,0,P|134:102|56:76,1,135,4|2,0:3|1:2,0:0:0:0:
37,262,21709,2,0,P|126:208|244:229,1,225,2|0,0:0|1:0,0:0:0:0:
410,167,22995,2,0,L|395:308,1,135,4|2,0:3|1:2,0:0:0:0:
327,359,23709,1,2,0:0:0:0:
246,316,23995,2,0,L|241:227,2,90,2|2|2,0:0|0:0|0:0,0:0:0:0:
81,163,25281,6,0,P|138:130|207:139,1,135,4|2,0:3|1:2,0:0:0:0:
305,0,26281,2,0,P|387:76|493:61,1,225,2|0,0:0|1:0,0:0:0:0:
470,240,27566,1,4,0:3:0:0:
336,258,27995,2,0,L|247:268,2,90,2|2|2,1:2|0:0|0:0,0:0:0:0:
193,85,29852,6,0,P|136:52|67:61,1,135,4|2,0:3|1:2,0:0:0:0:
22,233,30852,2,0,P|135:220|255:208,1,225,2|0,0:0|1:0,0:0:0:0:
278,31,32138,2,0,P|330:62|411:50,1,135,4|2,0:3|1:2,0:0:0:0:
462,121,32852,1,2,0:0:0:0:
421,201,33138,2,0,B|338:246|297:136|198:199,1,225,2|0,0:0|1:0,0:0:0:0:
57,295,34423,6,0,P|26:244|44:160,1,135,4|2,0:3|1:2,0:0:0:0:
161,43,35423,2,0,P|264:78|362:24,1,225,2|0,0:0|1:0,0:0:0:0:
454,179,36709,1,4,0:3:0:0:
354,270,37138,2,0,L|364:379,1,90,4|4,0:3|0:3,0:0:0:0:
274,381,37709,2,0,L|253:156,1,225,4|0,0:3|1:0,0:0:0:0:
135,20,38995,6,0,P|85:55|9:39,2,135,4|0|4,0:3|1:0|0:3,0:0:0:0:
209,70,40138,1,4,0:3:0:0:
371,290,41281,2,0,P|421:255|497:271,2,135,4|0|4,0:3|1:0|0:3,0:0:0:0:
324,367,42423,2,0,P|281:300|321:215,1,180,4|0,0:3|1:0,0:0:0:0:
209,73,43566,6,0,L|61:84,2,135,4|0|4,0:3|1:0|0:3,0:0:0:0:
286,15,44709,2,0,P|352:69|448:55,1,180,4|0,0:3|1:0,0:0:0:0:
464,237,45852,2,0,P|413:210|328:216,1,135,4|0,0:3|1:0,0:0:0:0:
218,276,46709,2,0,L|211:171,2,90,4|2|2,0:3|0:0|0:0,0:0:0:0:
273,346,47566,1,2,1:2:0:0:
93,360,48138,6,0,P|65:302|81:229,2,135,4|0|4,0:3|1:2|0:3,0:0:0:0:
183,355,49281,1,4,0:3:0:0:
454,171,50423,2,0,P|482:229|466:302,2,135,4|0|4,0:3|1:0|0:3,0:0:0:0:
480,84,51566,2,0,B|418:48|372:133|300:85,1,180,4|0,0:3|1:0,0:0:0:0:
148,174,52709,6,0,P|92:205|18:192,2,135,4|0|4,0:3|1:0|0:3,0:0:0:0:
167,86,53852,2,0,P|232:137|219:230,1,180,4|0,0:3|1:0,0:0:0:0:
343,358,54995,1,4,0:3:0:0:
208,344,55423,1,4,0:3:0:0:
73,330,55851,1,4,0:3:0:0:
73,330,57281,6,0,B|54:264|54:264|77:197,1,135,4|2,0:3|1:2,0:0:0:0:
139,138,57995,1,2,0:0:0:0:
215,185,58281,2,0,L|312:178,2,90,2|2|2,0:0|0:0|0:0,0:0:0:0:
160,257,59138,1,2,0:0:0:0:
240,364,59566,2,0,L|378:354,1,135,4|2,0:3|1:2,0:0:0:0:
440,291,60281,1,2,0:0:0:0:
384,220,60566,2,0,B|423:197|423:197|470:207,2,90,2|2|2,0:0|0:0|0:0,0:0:0:0:
303,260,61423,1,2,0:0:0:0:
240,140,61852,6,0,B|178:179|178:179|104:153,1,135,4|2,3:0|1:2,0:0:0:0:
54,96,62566,1,2,0:0:0:0:
31,183,62852,2,0,L|35:272,2,90,2|2|2,0:0|0:0|0:0,0:0:0:0:
120,158,63709,1,2,0:0:0:0:
110,23,64138,2,0,P|159:26|204:4,1,90,2|2,0:0|0:0,0:0:0:0:
254,78,64709,2,0,P|295:94|339:90,1,90,2|2,0:0|0:0,0:0:0:0:
375,173,65281,2,0,P|290:202|279:290,1,180,4|0,0:3|1:0,0:0:0:0:
331,353,66138,1,0,1:0:0:0:
241,360,66423,6,0,L|74:338,1,135,4|0,0:3|1:0,0:0:0:0:
66,261,67138,1,2,0:0:0:0:
141,212,67423,2,0,B|157:122,1,90,2|2,0:0|0:0,0:0:0:0:
236,166,67995,2,0,L|219:254,1,90,2|2,0:0|0:0,0:0:0:0:
312,351,68709,2,0,B|378:368|378:368|449:329,1,135,4|2,0:3|1:2,0:0:0:0:
472,253,69423,1,2,0:0:0:0:
415,183,69709,2,0,L|313:168,1,90,2|2,0:0|0:0,0:0:0:0:
265,102,70281,2,0,B|220:94|220:94|176:115,1,90,2|2,0:0|0:0,0:0:0:0:
45,117,70995,6,0,L|57:274,1,135,4|2,0:3|1:2,0:0:0:0:
20,334,71709,1,2,0:0:0:0:
101,371,71995,2,0,L|202:359,1,90,2|2,0:0|0:0,0:0:0:0:
256,298,72566,1,2,0:0:0:0:
329,349,72852,1,2,0:0:0:0:
313,214,73281,6,0,B|212:128|188:295|55:255|36:142|103:93|171:121,1,360,4|0,0:3|1:0,0:0:0:0:
497,55,75566,6,0,B|515:121|515:121|493:188,1,135,4|2,0:3|1:2,0:0:0:0:
437,254,76281,1,2,0:0:0:0:
366,198,76566,2,0,B|271:190|271:190|230:204|230:204|128:196,1,225,2|0,0:0|1:0,0:0:0:0:
27,59,77852,2,0,B|85:29|85:29|157:44,1,135,4|2,0:3|1:2,0:0:0:0:
237,7,78566,1,2,0:0:0:0:
295,75,78852,2,0,L|452:62,1,135,2|0,0:0|0:0,0:0:0:0:
465,146,79566,2,0,L|375:153,1,90,0|0,1:0|0:0,0:0:0:0:
316,222,80138,6,0,B|247:240|247:240|185:210,1,135,4|2,0:3|1:2,0:0:0:0:
153,129,80852,1,2,0:0:0:0:
68,159,81138,2,0,B|81:249|81:249|63:298|63:298|73:388,1,225,2|0,0:0|1:0,0:0:0:0:
244,328,82423,2,0,L|261:194,1,135,4|2,0:3|1:2,0:0:0:0:
216,115,83138,1,2,0:0:0:0:
275,47,83423,2,0,B|342:66|342:66|410:35,1,135,2|0,0:0|0:0,0:0:0:0:
472,94,84138,2,0,L|482:183,1,90,0|0,1:0|0:0,0:0:0:0:
419,247,84709,6,0,B|362:215|362:215|285:238,1,135,4|2,0:3|1:2,0:0:0:0:
214,197,85423,1,2,0:0:0:0:
166,273,85709,2,0,B|118:311|118:311|89:127,1,225,2|0,0:0|1:0,0:0:0:0:
243,50,86995,2,0,L|394:37,1,135,4|2,0:3|1:2,0:0:0:0:
443,99,87709,1,2,0:0:0:0:
389,171,87995,2,0,L|375:312,1,135,2|0,0:0|0:0,0:0:0:0:
288,329,88709,2,0,L|296:239,2,90,0|0|2,1:0|0:0|0:0,0:0:0:0:
256,192,89423,12,0,91566,0:0:0:0:
256,192,93852,5,2,0:0:0:0:
