osu file format v14

[General]
AudioFilename: audio.mp3
AudioLeadIn: 0
PreviewTime: 57281
Countdown: 0
SampleSet: Soft
StackLeniency: 0.5
Mode: 0
LetterboxInBreaks: 0
WidescreenStoryboard: 1

[Editor]
Bookmarks: 24709,38995,93853,98424
DistanceSpacing: 1.9
BeatDivisor: 8
GridSize: 32
TimelineZoom: 3.399999

[Metadata]
Title:Shadow gate to love
TitleUnicode:Shadow gate to love
Artist:Guilty Kiss
ArtistUnicode:Guilty Kiss
Creator:Kisses
Version:117's Hard
Source:Love Live! Sunshine!!
Tags:Left Karen Dream117er Nardoxyribonucleic ラブライブ!サンシャイン!! love live school idol project suzuki aina 鈴木愛奈 aida rikako 逢田梨香子 kobayashi aika 小林愛香 ohara mari 小原鞠莉 ギルティキス
BeatmapID:1359271
BeatmapSetID:630109

[Difficulty]
HPDrainRate:5
CircleSize:3
OverallDifficulty:6
ApproachRate:8
SliderMultiplier:2
SliderTickRate:1

[Events]
//Background and Video events
0,0,"sfw BG.jpg",0,0
//Break Periods
//Storyboard Layer 0 (Background)
//Storyboard Layer 1 (Fail)
//Storyboard Layer 2 (Pass)
//Storyboard Layer 3 (Foreground)
//Storyboard Sound Samples

[TimingPoints]
282,571.428571428571,4,2,17,40,1,0
1996,-66.6666666666667,4,2,17,40,0,0
2353,-66.6666666666667,4,2,17,5,0,0
2424,571.428571428571,4,2,17,40,1,0
2424,-133.333333333333,4,2,17,40,0,0
11566,-66.6666666666667,4,2,17,60,0,0
20709,-74.0740740740741,4,2,17,60,0,0
55923,-74.0740740740741,4,2,17,20,0,0
56995,-74.0740740740741,4,2,17,5,0,0
57281,-66.6666666666667,4,2,17,70,0,1
75566,-66.6666666666667,4,2,17,70,0,0
89281,-100,4,2,17,40,0,0
98423,-74.0740740740741,4,2,17,5,0,0

[Colours]
Combo1 : 22,182,138
Combo2 : 241,73,73
Combo3 : 196,94,157
Combo4 : 48,120,228
Combo5 : 224,224,224
Combo6 : 149,244,244

[HitObjects]
182,214,282,5,2,3:0:0:0:
161,116,567,1,2,3:0:0:0:
140,18,853,1,2,3:0:0:0:
140,18,1424,5,2,3:0:0:0:
161,116,1710,1,2,3:0:0:0:
182,214,1996,2,0,P|86:209|61:289,1,187.500007152558,2|0,3:0|0:0,0:0:0:0:
72,320,2424,6,0,B|117:357|117:357|183:338,1,112.500004291535,4|2,0:0|0:0,0:0:0:0:
263,314,3138,1,2,0:0:0:0:
347,362,3423,1,0,0:0:0:0:
347,362,3709,1,2,0:0:0:0:
443,349,3995,1,2,0:0:0:0:
443,349,4138,2,0,L|428:264,1,75.0000028610231,2|0,0:0|0:0,0:0:0:0:
429,275,4709,5,2,0:0:0:0:
412,178,4995,1,2,0:0:0:0:
412,178,5138,2,0,L|397:93,1,75.0000028610231,2|2,0:0|0:0,0:0:0:0:
380,8,5709,1,2,0:0:0:0:
309,74,5995,1,0,0:0:0:0:
309,74,6138,6,0,L|264:84,1,37.5000014305115,4|4,0:3|0:3,0:0:0:0:
249,125,6423,2,0,P|211:111|168:113,1,75.0000028610231,0|2,1:0|0:0,0:0:0:0:
143,203,6995,6,0,P|182:229|256:216,1,112.500004291535,4|2,0:3|0:0,0:0:0:0:
333,182,7709,1,2,0:0:0:0:
356,276,7995,1,0,0:0:0:0:
356,276,8281,1,2,0:0:0:0:
379,370,8566,1,2,0:0:0:0:
379,370,8709,2,0,L|297:359,1,75.0000028610231,2|0,0:0|0:0,0:0:0:0:
304,360,9281,5,2,0:0:0:0:
207,346,9566,1,2,0:0:0:0:
207,346,9709,2,0,L|125:335,1,75.0000028610231,2|0,0:0|0:0,0:0:0:0:
36,322,10281,1,2,0:0:0:0:
99,247,10566,1,0,0:0:0:0:
99,247,10709,6,0,P|106:227|109:194,1,37.5000014305115,4|0,0:3|0:0,0:0:0:0:
136,170,10995,2,0,P|122:153|95:134,1,37.5000014305115,4|0,0:3|0:0,0:0:0:0:
86,100,11281,2,0,P|65:103|35:117,1,37.5000014305115,4|0,0:3|0:0,0:0:0:0:
8,100,11566,6,0,P|22:188|34:262,1,150.000005722046,4|0,0:0|0:0,0:0:0:0:
23,343,11995,2,0,P|61:341|93:322,1,75.0000028610231,0|0,1:0|0:0,0:0:0:0:
189,338,12281,2,0,P|190:300|161:252,1,75.0000028610231,8|0,0:3|0:0,0:0:0:0:
214,177,12566,6,0,P|302:172|353:223,1,150.000005722046,4|0,0:3|0:0,0:0:0:0:
403,289,12995,1,2,0:0:0:0:
403,289,13138,1,2,0:0:0:0:
403,289,13281,2,0,P|439:290|485:266,1,75.0000028610231,0|0,1:0|0:0,0:0:0:0:
505,182,13566,2,0,L|489:98,1,75.0000028610231,8|0,0:3|0:0,0:0:0:0:
377,22,13852,6,0,L|404:170,1,150.000005722046,4|0,0:3|0:0,0:0:0:0:
284,219,14281,2,0,P|294:182|308:148,1,75.0000028610231,0|0,1:0|0:0,0:0:0:0:
209,77,14566,2,0,P|245:63|281:55,1,75.0000028610231,8|0,0:3|0:0,0:0:0:0:
178,170,14852,6,0,P|107:156|19:143,1,150.000005722046,4|0,0:3|0:0,0:0:0:0:
5,238,15281,1,0,0:0:0:0:
5,238,15423,1,0,0:0:0:0:
78,307,15566,2,0,P|99:276|105:240,1,75.0000028610231,0|0,1:0|0:0,0:0:0:0:
178,170,15852,2,0,P|172:134|164:81,1,75.0000028610231,8|0,0:3|0:0,0:0:0:0:
105,240,16138,6,0,P|152:269|246:245,1,150.000005722046,4|0,0:3|0:0,0:0:0:0:
337,243,16566,2,0,P|343:206|347:168,1,75.0000028610231,0|0,1:0|0:0,0:0:0:0:
409,91,16852,2,0,P|403:54|398:17,1,75.0000028610231,8|0,0:3|0:0,0:0:0:0:
483,159,17138,6,0,P|417:191|348:169,1,150.000005722046,4|0,0:3|0:0,0:0:0:0:
268,105,17566,1,2,0:0:0:0:
268,105,17709,1,2,0:0:0:0:
268,105,17852,2,0,P|249:139|247:178,1,75.0000028610231,0|0,1:0|0:0,0:0:0:0:
166,286,18138,2,0,P|203:287|237:272,1,75.0000028610231,8|0,0:3|0:0,0:0:0:0:
326,311,18423,6,0,P|368:291|492:297,1,150.000005722046,4|0,0:3|0:0,0:0:0:0:
509,199,18852,2,0,P|470:195|423:180,1,75.0000028610231,0|0,1:0|0:0,0:0:0:0:
323,121,19138,2,0,P|331:157|337:195,1,75.0000028610231,8|0,0:3|0:0,0:0:0:0:
217,333,19423,6,0,P|228:259|239:185,1,150.000005722046,4|0,0:3|0:0,0:0:0:0:
230,87,19852,1,0,0:0:0:0:
230,87,19995,1,0,0:0:0:0:
151,29,20138,2,0,P|109:35|62:59,1,75.0000028610231,0|0,1:0|0:0,0:0:0:0:
12,117,20423,1,8,0:3:0:0:
12,117,20566,1,0,0:0:0:0:
34,208,20709,6,0,P|78:240|162:230,1,135.000000514984,4|0,0:0|0:0,0:0:0:0:
239,185,21138,2,0,L|217:38,1,135.000000514984,0|2,1:0|0:0,0:0:0:0:
371,163,21709,6,0,P|359:204|346:303,1,135.000000514984,2|0,0:0|0:0,0:0:0:0:
287,370,22138,1,0,0:0:0:0:
287,370,22281,1,0,0:0:0:0:
287,370,22423,2,0,P|359:356|442:348,1,135.000000514984,0|8,1:0|0:3,0:0:0:0:
505,307,22852,1,0,0:0:0:0:
494,213,22995,6,0,P|455:174|454:92,1,135.000000514984,4|0,0:3|0:0,0:0:0:0:
506,20,23423,2,0,L|349:46,1,135.000000514984,0|2,1:0|0:0,0:0:0:0:
199,118,23995,6,0,L|129:104,1,67.5000002574921,2|0,0:0|0:0,0:0:0:0:
85,21,24281,2,0,P|40:69|38:135,1,135.000000514984,2|0,0:0|0:0,0:0:0:0:
85,226,24709,2,0,P|70:260|65:317,1,67.5000002574921,0|0,1:0|0:0,0:0:0:0:
179,254,24995,2,0,P|181:298|194:333,1,67.5000002574921,8|0,0:3|0:0,0:0:0:0:
278,232,25281,6,0,P|330:202|419:222,1,135.000000514984,4|0,0:3|0:0,0:0:0:0:
353,298,25709,2,0,L|329:140,1,135.000000514984,0|2,1:0|0:0,0:0:0:0:
504,26,26281,6,0,P|496:93|485:159,1,135.000000514984,2|0,0:0|0:0,0:0:0:0:
440,249,26709,2,0,P|471:260|505:259,1,67.5000002574921
386,162,26995,2,0,P|348:202|347:291,1,135.000000514984,0|8,1:0|0:3,0:0:0:0:
416,347,27423,1,0,0:0:0:0:
440,249,27566,5,4,0:3:0:0:
319,373,27709,2,0,L|233:356,1,67.5000002574921,2|0,0:0|0:0,0:0:0:0:
106,277,27995,2,0,P|172:267|239:258,2,135.000000514984,2|2|2,1:2|1:2|1:2,0:0:0:0:
3,87,28852,1,0,0:0:0:0:
3,87,28995,6,0,P|41:105|73:105,1,67.5000002574921,4|0,0:3|0:0,0:0:0:0:
139,35,29281,2,0,P|104:58|88:86,1,67.5000002574921,4|0,1:3|0:0,0:0:0:0:
112,178,29566,2,0,P|112:144|98:113,1,67.5000002574921,4|0,0:3|0:0,0:0:0:0:
68,269,29852,6,0,P|132:277|197:232,1,135.000000514984,4|0,0:3|0:0,0:0:0:0:
279,191,30281,2,0,P|269:140|264:107,1,67.5000002574921,0|0,1:0|0:0,0:0:0:0:
378,74,30566,2,0,P|372:107|366:141,1,67.5000002574921,2|0,0:0|0:0,0:0:0:0:
366,257,30852,6,0,P|422:220|513:244,1,135.000000514984,2|0,0:0|0:0,0:0:0:0:
512,325,31281,2,0,P|478:319|445:311,1,67.5000002574921
362,356,31566,2,0,P|305:344|214:329,1,135.000000514984,0|8,1:0|0:3,0:0:0:0:
139,361,31995,1,0,0:0:0:0:
139,361,32138,6,0,P|152:292|162:222,1,135.000000514984,4|0,0:3|0:0,0:0:0:0:
171,132,32566,2,0,P|138:134|108:149,1,67.5000002574921,0|0,1:0|0:0,0:0:0:0:
266,142,32852,2,0,P|264:109|250:79,1,67.5000002574921,2|0,0:0|0:0,0:0:0:0:
261,238,33138,6,0,P|317:228|414:209,1,135.000000514984,2|2,0:0|0:0,0:0:0:0:
480,251,33566,1,0,0:0:0:0:
404,307,33709,1,0,0:0:0:0:
393,213,33852,2,0,L|405:141,1,67.5000002574921,0|0,1:0|0:0,0:0:0:0:
424,53,34138,1,8,0:3:0:0:
424,53,34281,1,0,0:0:0:0:
322,14,34423,6,0,L|334:81,1,67.5000002574921,4|0,0:3|0:0,0:0:0:0:
298,169,34709,1,0,0:0:0:0:
209,136,34852,2,0,P|195:112|192:67,1,67.5000002574921,0|0,1:0|0:0,0:0:0:0:
173,229,35138,2,0,P|121:218|85:213,1,67.5000002574921,2|0,0:0|0:0,0:0:0:0:
7,350,35423,6,0,P|73:338|139:325,1,135.000000514984,2|0,0:0|0:0,0:0:0:0:
233,307,35852,1,0,0:0:0:0:
327,316,35995,2,0,P|324:279|299:235,1,67.5000002574921,0|0,0:0|1:0,0:0:0:0:
162,189,36281,2,0,P|192:204|226:209,1,67.5000002574921,0|8,0:0|0:3,0:0:0:0:
302,154,36566,1,0,0:0:0:0:
255,71,36709,6,0,P|188:83|122:96,1,135.000000514984,4|0,0:3|0:0,0:0:0:0:
49,157,37138,2,0,B|61:105|64:64|64:64|35:9,2,135.000000514984,2|2|2,1:2|1:2|1:2,0:0:0:0:
15,245,37852,1,0,0:0:0:0:
80,312,37995,1,0,0:0:0:0:
168,279,38138,6,0,P|161:236|147:193,1,67.5000002574921,4|0,0:3|0:0,0:0:0:0:
210,289,38423,2,0,P|225:248|234:204,1,67.5000002574921,4|0,0:3|0:0,0:0:0:0:
238,320,38709,2,0,P|271:292|301:258,1,67.5000002574921,4|0,0:3|0:0,0:0:0:0:
251,363,38995,6,0,P|304:353|407:330,1,135.000000514984,4|0,0:0|0:0,0:0:0:0:
471,368,39423,2,0,P|434:336|437:246,1,135.000000514984,0|0,1:0|0:0,0:0:0:0:
498,186,39852,1,8,0:3:0:0:
349,10,40138,5,4,0:3:0:0:
349,10,40281,2,0,P|339:76|329:143,1,135.000000514984,2|0,0:3|0:0,0:0:0:0:
261,211,40709,2,0,P|219:202|133:257,1,135.000000514984,0|2,1:0|0:3,0:0:0:0:
100,329,41138,1,0,0:0:0:0:
234,365,41281,6,0,L|222:299,1,67.5000002574921,4|0,0:3|0:0,0:0:0:0:
140,243,41566,1,0,0:0:0:0:
140,243,41709,2,0,P|150:183|160:100,1,135.000000514984,0|0,1:0|0:0,0:0:0:0:
172,15,42138,1,8,0:3:0:0:
353,109,42423,5,4,0:3:0:0:
352,109,42566,2,0,P|361:176|372:243,1,135.000000514984,2|0,0:3|0:0,0:0:0:0:
348,336,42995,2,0,P|388:344|425:353,2,67.5000002574921,0|0|8,1:3|0:3|0:3,0:3:0:0:
256,368,43423,1,0,0:0:0:0:
181,309,43566,6,0,P|141:277|43:287,1,135.000000514984,4|0,0:3|0:0,0:0:0:0:
102,368,43995,2,0,P|147:326|149:239,1,135.000000514984,0|0,1:0|0:0,0:0:0:0:
101,176,44423,2,0,P|67:169|34:163,1,67.5000002574921,8|0,0:3|0:0,0:0:0:0:
151,95,44709,5,4,0:3:0:0:
151,95,44852,2,0,B|204:85|243:80|243:80|304:108,1,135.000000514984,2|0,0:3|0:0,0:0:0:0:
358,154,45281,2,0,P|375:117|377:86,1,67.5000002574921,0|0,1:0|0:0,0:0:0:0:
268,30,45566,2,0,P|274:63|281:97,1,67.5000002574921,2|0,0:3|0:0,0:0:0:0:
266,190,45852,5,4,0:3:0:0:
266,190,45995,2,0,P|272:223|279:257,1,67.5000002574921,2|0,0:3|0:0,0:0:0:0:
262,350,46281,2,0,B|299:332|299:332|338:337|391:347,1,135.000000514984,0|0,1:0|0:0,0:0:0:0:
484,369,46709,1,8,0:3:0:0:
484,369,46995,2,0,P|478:334|469:288,1,67.5000002574921,4|0,0:3|0:0,0:0:0:0:
449,154,47281,6,0,P|434:184|428:218,1,67.5000002574921,4|0,0:3|0:0,0:0:0:0:
343,177,47566,2,0,P|360:204|386:225,1,67.5000002574921,4|0,1:3|0:0,0:0:0:0:
308,278,47852,2,0,P|342:275|374:264,1,67.5000002574921,4|0,0:3|0:0,0:0:0:0:
249,204,48138,6,0,P|215:256|235:343,1,135.000000514984,4|0,0:0|0:0,0:0:0:0:
308,278,48566,2,0,P|242:268|144:255,1,135.000000514984,0|0,1:0|0:0,0:0:0:0:
79,252,48995,1,8,0:3:0:0:
8,62,49281,5,4,0:3:0:0:
8,62,49423,2,0,P|74:52|141:42,1,135.000000514984,2|0,0:3|0:0,0:0:0:0:
229,78,49852,2,0,P|259:52|362:53,1,135.000000514984,0|2,1:0|0:3,0:0:0:0:
427,103,50281,1,0,0:0:0:0:
427,103,50423,6,0,P|441:72|444:39,1,67.5000002574921,4|0,0:3|0:0,0:0:0:0:
338,139,50709,1,0,0:0:0:0:
338,139,50852,2,0,P|346:190|362:283,1,135.000000514984,0|0,1:0|0:0,0:0:0:0:
379,365,51281,1,8,0:3:0:0:
151,272,51566,5,4,0:3:0:0:
151,272,51709,2,0,P|163:205|174:139,1,135.000000514984,2|0,0:3|0:0,0:0:0:0:
256,84,52138,2,0,P|219:51|122:58,1,135.000000514984,0|2,1:0|0:3,0:0:0:0:
65,111,52566,1,0,0:0:0:0:
98,199,52709,5,4,0:3:0:0:
98,199,52852,2,0,P|132:195|166:190,1,67.5000002574921,2|0,0:3|0:0,0:0:0:0:
308,261,53138,2,0,P|242:270|149:285,1,135.000000514984,0|0,1:0|0:0,0:0:0:0:
174,280,53566,1,8,0:3:0:0:
376,341,53852,5,4,0:3:0:0:
376,341,53995,2,0,P|406:302|399:209,1,135.000000514984,2|0,0:3|0:0,0:0:0:0:
322,114,54423,2,0,P|355:119|388:124,1,67.5000002574921,0|0,1:0|0:0,0:0:0:0:
468,19,54709,2,0,P|435:24|402:30,1,67.5000002574921,2|0,0:3|0:0,0:0:0:0:
278,129,54995,6,0,P|294:197|308:261,1,135.000000514984,2|0,1:2|0:0,0:0:0:0:
136,341,55423,2,0,P|106:302|113:209,1,135.000000514984,2|0,1:2|0:0,0:0:0:0:
172,134,55852,1,2,1:2:0:0:
256,192,55923,12,0,56995,0:0:0:0:
372,110,57281,5,4,0:0:0:0:
372,110,57566,1,0,0:0:0:0:
291,53,57709,2,0,P|277:87|275:125,1,75.0000028610231,0|0,1:0|0:0,0:0:0:0:
453,166,57995,2,0,P|468:123|468:87,1,75.0000028610231,8|0,0:3|0:0,0:0:0:0:
376,7,58281,6,0,P|293:23|217:37,1,150.000005722046,4|0,0:3|0:0,0:0:0:0:
164,108,58709,1,2,0:0:0:0:
259,130,58852,1,0,0:0:0:0:
228,34,58995,2,0,P|195:15|158:11,1,75.0000028610231,0|0,1:0|0:0,0:0:0:0:
39,67,59281,2,0,L|53:149,1,75.0000028610231,4|0,0:3|0:0,0:0:0:0:
70,241,59566,5,0,0:0:0:0:
70,241,59852,1,0,0:0:0:0:
143,176,59995,2,0,P|175:158|212:153,1,75.0000028610231,0|0,1:0|0:0,0:0:0:0:
273,296,60281,2,0,L|351:309,1,75.0000028610231,8|0,0:3|0:0,0:0:0:0:
470,317,60566,6,0,P|513:262|500:177,1,150.000005722046,4|0,0:3|0:0,0:0:0:0:
433,118,60995,2,0,P|438:78|471:32,1,75.0000028610231,2|0,0:0|0:0,0:0:0:0:
505,185,61281,1,0,1:0:0:0:
421,234,61423,1,0,0:0:0:0:
325,240,61566,2,0,P|283:233|220:222,1,75.0000028610231,4|0,0:3|0:0,0:0:0:0:
154,212,61852,5,4,0:3:0:0:
154,212,62138,1,0,0:0:0:0:
235,155,62281,2,0,P|249:189|251:227,1,75.0000028610231,0|0,1:0|0:0,0:0:0:0:
73,268,62566,2,0,P|58:225|58:189,1,75.0000028610231,8|0,0:3|0:0,0:0:0:0:
150,109,62852,6,0,P|233:125|309:139,1,150.000005722046,4|0,0:3|0:0,0:0:0:0:
385,92,63281,1,2,0:0:0:0:
305,37,63423,1,0,0:0:0:0:
297,136,63566,2,0,L|313:228,1,75.0000028610231,0|0,1:0|0:0,0:0:0:0:
190,282,63852,2,0,L|203:209,1,75.0000028610231,4|0,0:3|0:0,0:0:0:0:
246,363,64138,6,0,P|166:379|98:319,1,150.000005722046,4|2,0:3|0:0,0:0:0:0:
65,258,64566,1,0,1:0:0:0:
65,258,64709,2,0,P|77:195|93:81,1,150.000005722046,2|2,0:0|0:0,0:0:0:0:
58,16,65138,1,0,0:0:0:0:
111,97,65281,6,0,P|149:114|188:113,1,75.0000028610231,4|0,0:3|0:0,0:0:0:0:
273,81,65566,1,2,0:0:0:0:
273,81,65709,1,2,0:0:0:0:
273,81,65852,2,0,P|289:47|290:10,1,75.0000028610231,0|0,1:0|0:0,0:0:0:0:
181,114,66138,2,0,L|199:209,1,75.0000028610231,2|0,0:0|0:0,0:0:0:0:
212,283,66423,5,4,0:0:0:0:
212,283,66709,1,0,0:0:0:0:
265,201,66852,2,0,P|231:186|193:186,1,75.0000028610231,0|0,1:0|0:0,0:0:0:0:
158,364,67138,2,0,P|192:378|229:378,1,75.0000028610231,8|0,0:3|0:0,0:0:0:0:
312,287,67423,6,0,P|305:251|298:198,1,75.0000028610231,4|0,0:3|0:0,0:0:0:0:
315,116,67709,2,0,P|279:122|226:130,1,75.0000028610231,0|0,0:3|0:0,0:0:0:0:
144,113,67995,2,0,P|150:148|158:202,1,75.0000028610231,2|0,0:0|1:0,0:0:0:0:
141,284,68281,1,0,0:0:0:0:
141,284,68423,2,0,P|176:277|230:270,1,75.0000028610231,4|0,0:3|0:0,0:0:0:0:
312,287,68709,5,4,0:3:0:0:
312,287,68995,1,0,0:0:0:0:
231,342,69138,2,0,P|216:308|214:271,1,75.0000028610231,0|0,1:0|0:0,0:0:0:0:
392,230,69423,2,0,P|406:265|409:302,1,75.0000028610231,8|0,0:3|0:0,0:0:0:0:
305,182,69709,6,0,P|317:109|327:34,1,150.000005722046,4|0,0:3|0:0,0:0:0:0:
423,12,70138,1,2,0:0:0:0:
444,107,70281,1,0,0:0:0:0:
350,130,70423,2,0,P|307:130|263:107,1,75.0000028610231,0|0,1:0|0:0,0:0:0:0:
156,23,70709,2,0,P|175:55|182:92,1,75.0000028610231,4|0,0:3|0:0,0:0:0:0:
153,185,70995,5,4,0:3:0:0:
153,185,71281,1,0,0:0:0:0:
73,240,71423,2,0,P|34:231|-10:226,1,75.0000028610231,0|0,1:0|0:0,0:0:0:0:
153,185,71709,2,0,P|191:194|231:198,1,75.0000028610231,8|0,0:3|0:0,0:0:0:0:
300,365,71995,6,0,P|225:349|151:341,1,150.000005722046,4|0,0:3|0:0,0:0:0:0:
57,365,72423,2,0,P|55:326|70:287,1,75.0000028610231,2|0,0:0|0:0,0:0:0:0:
224,214,72709,2,0,P|193:234|157:242,1,75.0000028610231,0|0,1:0|0:0,0:0:0:0:
14,149,72995,2,0,P|47:166|71:194,1,75.0000028610231,4|0,0:3|0:0,0:0:0:0:
152,341,73281,5,4,0:3:0:0:
143,353,74423,5,4,1:3:0:0:
226,302,74709,1,0,0:0:0:0:
321,281,74995,1,2,0:0:0:0:
418,284,75281,1,2,0:0:0:0:
508,321,75566,6,0,P|494:233|482:159,1,150.000005722046,4|0,0:0|0:0,0:0:0:0:
490,74,75995,2,0,P|453:76|421:95,1,75.0000028610231,0|0,1:0|0:0,0:0:0:0:
370,258,76281,2,0,P|387:225|385:187,1,75.0000028610231,8|0,0:3|0:0,0:0:0:0:
323,112,76566,6,0,P|245:99|176:87,1,150.000005722046,4|0,0:3|0:0,0:0:0:0:
78,71,76995,1,2,0:0:0:0:
78,71,77138,1,2,0:0:0:0:
78,71,77281,2,0,P|77:107|101:153,1,75.0000028610231,0|0,1:0|0:0,0:0:0:0:
171,199,77566,2,0,P|140:180|88:177,1,75.0000028610231,8|0,0:3|0:0,0:0:0:0:
44,255,77852,6,0,P|100:301|179:295,1,150.000005722046,4|0,0:3|0:0,0:0:0:0:
283,218,78281,2,0,P|277:255|272:292,1,75.0000028610231,0|0,1:0|0:0,0:0:0:0:
380,363,78566,2,0,P|374:326|369:289,1,75.0000028610231,8|0,0:3|0:0,0:0:0:0:
343,136,78852,6,0,B|396:153|443:159|443:159|487:130,1,150.000005722046,4|0,0:3|0:3,0:3:0:0:
510,38,79281,1,0,0:0:0:0:
510,38,79423,1,0,0:0:0:0:
414,59,79566,2,0,P|393:90|387:126,1,75.0000028610231,0|0,1:0|0:0,0:0:0:0:
361,248,79852,2,0,P|391:268|428:274,1,75.0000028610231,8|0,0:3|0:0,0:0:0:0:
509,226,80138,6,0,P|434:237|333:252,1,150.000005722046,4|0,0:3|0:0,0:0:0:0:
262,370,80566,2,0,P|269:333|276:297,1,75.0000028610231,0|0,1:0|0:0,0:0:0:0:
274,198,80852,2,0,P|256:171|255:112,1,75.0000028610231,8|0,0:3|0:0,0:0:0:0:
285,37,81138,6,0,P|224:91|137:71,1,150.000005722046,4|0,0:3|0:0,0:0:0:0:
83,25,81566,1,2,0:0:0:0:
83,25,81709,1,2,0:0:0:0:
83,25,81852,2,0,P|64:59|62:98,1,75.0000028610231,0|0,1:0|0:0,0:0:0:0:
1,172,82138,2,0,P|35:191|74:193,1,75.0000028610231,8|0,0:3|0:0,0:0:0:0:
139,262,82423,6,0,B|199:249|251:242|251:242|301:267,1,150.000005722046,4|0,0:3|0:0,0:0:0:0:
357,322,82852,2,0,P|376:292|379:241,1,75.0000028610231,0|0,1:0|0:0,0:0:0:0:
427,167,83138,2,0,P|390:160|353:153,1,75.0000028610231,8|0,0:3|0:0,0:0:0:0:
258,110,83423,6,0,P|270:180|284:268,1,150.000005722046,4|0,0:3|0:0,0:0:0:0:
251,351,83852,1,2,0:0:0:0:
251,351,83995,1,0,0:0:0:0:
155,322,84138,2,0,P|136:292|133:241,1,75.0000028610231,0|0,1:0|0:0,0:0:0:0:
68,178,84423,2,0,P|98:159|149:156,1,75.0000028610231,8|0,0:3|0:0,0:0:0:0:
253,82,84709,6,0,P|312:125|396:109,1,150.000005722046,4|0,0:0|0:0,0:0:0:0:
461,54,85138,2,0,B|437:118|433:151|433:151|456:217,1,150.000005722046,0|8,1:0|0:3,0:0:0:0:
482,288,85566,1,0,0:0:0:0:
399,340,85709,6,0,B|336:358|300:364|300:364|246:335,1,150.000005722046,4|0,0:3|0:0,0:0:0:0:
180,280,86138,1,2,0:0:0:0:
180,280,86281,1,2,0:0:0:0:
180,280,86423,2,0,P|188:238|197:182,1,75.0000028610231,0|0,1:0|0:0,0:0:0:0:
221,87,86709,2,0,P|190:107|153:110,1,75.0000028610231,8|0,0:3|0:0,0:0:0:0:
74,56,86995,6,0,P|147:69|220:86,1,150.000005722046,4|0,0:3|0:0,0:0:0:0:
306,132,87423,2,0,P|348:123|389:113,1,75.0000028610231,0|0,1:0|0:0,0:0:0:0:
482,163,87709,2,0,P|489:126|496:89,1,75.0000028610231,8|0,0:3|0:0,0:0:0:0:
396,210,87995,6,0,P|440:267|431:363,1,150.000005722046,4|0,0:3|0:0,0:0:0:0:
324,374,88423,2,0,L|342:301,1,75.0000028610231,2|0,0:0|0:0,0:0:0:0:
296,213,88709,1,0,1:0:0:0:
296,213,88852,1,0,1:0:0:0:
202,185,88995,1,0,1:0:0:0:
202,185,89138,1,0,1:0:0:0:
112,217,89281,6,0,P|115:241|120:266,1,50,2|0,0:0|0:0,0:0:0:0:
56,338,89566,2,0,P|77:351|101:359,1,50,0|0,3:0|3:0,0:0:0:0:
192,331,89852,1,2,0:0:0:0:
192,331,90138,2,0,L|255:320,1,50,2|0,0:0|0:0,0:0:0:0:
343,356,90423,6,0,L|335:307,1,50,2|0,0:0|0:0,0:0:0:0:
367,203,90709,2,0,L|318:212,1,50,0|0,3:0|0:0,0:0:0:0:
214,179,90995,2,0,L|223:229,1,50,2|0,0:0|0:0,0:0:0:0:
242,322,91281,1,2,0:0:0:0:
400,217,91566,6,0,P|396:241|391:266,1,50,2|0,0:0|0:0,0:0:0:0:
455,338,91852,2,0,P|434:351|411:359,1,50,0|0,3:0|3:0,0:0:0:0:
320,331,92138,1,2,0:0:0:0:
320,331,92423,2,0,L|257:320,1,50,2|0,0:0|0:0,0:0:0:0:
168,356,92709,6,0,L|177:307,1,50,2|2,0:0|0:0,0:0:0:0:
144,203,92995,2,0,L|194:212,1,50,0|0,3:0|0:0,0:0:0:0:
297,179,93281,2,0,L|289:229,1,50,2|0,0:0|0:0,0:0:0:0:
270,322,93566,1,2,0:0:0:0:
256,192,93852,12,0,98423,0:0:0:0:
