osu file format v14

[General]
AudioFilename: audio.mp3
AudioLeadIn: 0
PreviewTime: 57281
Countdown: 0
SampleSet: Normal
StackLeniency: 0.7
Mode: 1
LetterboxInBreaks: 0
WidescreenStoryboard: 1

[Editor]
Bookmarks: 11566,20709,29852,38995,48138,57281,66423
DistanceSpacing: 0.8
BeatDivisor: 8
GridSize: 32
TimelineZoom: 2.2

[Metadata]
Title:Shadow gate to love
TitleUnicode:Shadow gate to love
Artist:Guilty Kiss
ArtistUnicode:Guilty Kiss
Creator:Kisses
Version:Oni
Source:Love Live! Sunshine!!
Tags:Left Karen Dream117er Nardoxyribonucleic ラブライブ!サンシャイン!! love live school idol project suzuki aina 鈴木愛奈 aida rikako 逢田梨香子 kobayashi aika 小林愛香 ohara mari 小原鞠莉 ギルティキス
BeatmapID:1330300
BeatmapSetID:630109

[Difficulty]
HPDrainRate:5.5
CircleSize:2
OverallDifficulty:6
ApproachRate:8
SliderMultiplier:1.4
SliderTickRate:1

[Events]
//Background and Video events
0,0,"sfw BG.jpg",0,30
//Break Periods
//Storyboard Layer 0 (Background)
//Storyboard Layer 1 (Fail)
//Storyboard Layer 2 (Pass)
//Storyboard Layer 3 (Foreground)
//Storyboard Sound Samples

[TimingPoints]
282,571.428571428571,4,1,0,70,1,0
282,-50,4,1,0,70,0,0
2424,571.428571428571,4,1,0,70,1,0
2424,-50,4,1,0,70,0,0
2709,-50,4,1,0,50,0,0
11566,-50,4,1,0,70,0,0
57281,-50,4,1,0,70,0,1
75566,-50,4,1,0,70,0,0
93852,-50,4,1,0,40,0,0

[HitObjects]
131,146,282,5,4,0:0:0:0:
163,229,567,1,12,0:0:0:0:
246,239,853,1,4,0:0:0:0:
328,220,1424,1,4,0:0:0:0:
328,220,1710,1,12,0:0:0:0:
328,220,1996,1,12,0:0:0:0:
328,220,2424,5,4,0:0:0:0:
229,244,2709,1,0,0:0:0:0:
241,254,2852,1,8,0:0:0:0:
314,269,3138,1,0,0:0:0:0:
303,268,3423,1,8,0:0:0:0:
317,269,3709,1,8,0:0:0:0:
106,169,3995,1,0,0:0:0:0:
314,269,4138,1,8,0:0:0:0:
314,269,4423,1,0,0:0:0:0:
317,269,4709,1,8,0:0:0:0:
314,269,4995,1,0,0:0:0:0:
314,269,5138,1,8,0:0:0:0:
314,269,5423,1,8,0:0:0:0:
317,269,5709,1,0,0:0:0:0:
288,160,5995,1,0,0:0:0:0:
288,160,6281,1,0,0:0:0:0:
257,187,6423,1,8,0:0:0:0:
241,188,6709,1,0,0:0:0:0:
288,160,6852,1,0,0:0:0:0:
152,229,6995,1,8,0:0:0:0:
316,236,7281,1,0,0:0:0:0:
316,236,7423,1,8,0:0:0:0:
316,236,7709,1,0,0:0:0:0:
316,236,7995,1,8,0:0:0:0:
316,236,8281,1,8,0:0:0:0:
316,236,8566,1,0,0:0:0:0:
316,236,8709,1,8,0:0:0:0:
316,236,8995,1,0,0:0:0:0:
316,236,9281,1,8,0:0:0:0:
316,236,9566,1,0,0:0:0:0:
316,236,9709,1,8,0:0:0:0:
316,236,9995,1,8,0:0:0:0:
316,236,10281,1,0,0:0:0:0:
316,236,10566,1,0,0:0:0:0:
316,236,10709,1,8,0:0:0:0:
316,236,10995,1,0,0:0:0:0:
316,236,11281,1,8,0:0:0:0:
316,236,11566,5,4,0:0:0:0:
266,217,11709,1,8,0:0:0:0:
192,236,11852,1,0,0:0:0:0:
192,236,11995,1,8,0:0:0:0:
192,236,12281,1,0,0:0:0:0:
192,236,12566,1,8,0:0:0:0:
233,198,12852,1,8,0:0:0:0:
224,128,13138,1,0,0:0:0:0:
225,211,13281,1,8,0:0:0:0:
70,173,13566,1,0,0:0:0:0:
301,100,13852,1,8,0:0:0:0:
196,136,13995,1,8,0:0:0:0:
293,202,14138,1,0,0:0:0:0:
293,202,14281,1,8,0:0:0:0:
293,202,14566,1,8,0:0:0:0:
293,202,14852,1,0,0:0:0:0:
293,202,15138,1,0,0:0:0:0:
152,98,15281,1,0,0:0:0:0:
152,98,15566,1,8,0:0:0:0:
194,134,15852,1,0,0:0:0:0:
164,170,16138,1,0,0:0:0:0:
283,168,16281,1,8,0:0:0:0:
281,137,16423,1,0,0:0:0:0:
164,170,16566,1,8,0:0:0:0:
164,170,16852,1,0,0:0:0:0:
164,170,17138,1,8,0:0:0:0:
266,151,17423,1,8,0:0:0:0:
266,151,17709,1,0,0:0:0:0:
283,175,17852,1,8,0:0:0:0:
283,175,18138,1,0,0:0:0:0:
278,180,18423,1,8,0:0:0:0:
193,137,18566,1,8,0:0:0:0:
241,190,18709,1,0,0:0:0:0:
241,190,18852,1,8,0:0:0:0:
241,190,19138,1,8,0:0:0:0:
241,190,19423,1,8,0:0:0:0:
241,190,19566,1,0,0:0:0:0:
237,148,19709,1,8,0:0:0:0:
238,212,19852,1,0,0:0:0:0:
149,173,19995,1,0,0:0:0:0:
238,212,20138,1,8,0:0:0:0:
238,212,20423,1,0,0:0:0:0:
238,212,20709,5,4,0:0:0:0:
325,161,20995,1,8,0:0:0:0:
344,206,21138,1,0,0:0:0:0:
402,233,21423,1,0,0:0:0:0:
413,191,21709,1,8,0:0:0:0:
427,162,22138,1,8,0:0:0:0:
268,108,22281,1,0,0:0:0:0:
361,104,22566,1,8,0:0:0:0:
146,173,22995,1,0,0:0:0:0:
393,177,23281,1,8,0:0:0:0:
292,211,23423,1,0,0:0:0:0:
288,244,23709,1,8,0:0:0:0:
197,194,23995,1,0,0:0:0:0:
243,188,24281,1,8,0:0:0:0:
234,197,24566,1,0,0:0:0:0:
234,197,24709,1,8,0:0:0:0:
232,198,24995,1,0,0:0:0:0:
234,197,25281,1,0,0:0:0:0:
292,189,25566,1,0,0:0:0:0:
292,189,25709,1,8,0:0:0:0:
210,128,25995,1,8,0:0:0:0:
210,128,26281,1,0,0:0:0:0:
210,128,26709,1,8,0:0:0:0:
210,128,26852,1,0,0:0:0:0:
399,254,27138,1,0,0:0:0:0:
332,215,27566,1,0,0:0:0:0:
274,137,27709,1,0,0:0:0:0:
246,129,27852,1,8,0:0:0:0:
289,150,27995,1,0,0:0:0:0:
330,155,28281,1,0,0:0:0:0:
330,155,28566,1,0,0:0:0:0:
330,155,28852,1,8,0:0:0:0:
330,155,28995,1,0,0:0:0:0:
85,195,29138,1,0,0:0:0:0:
330,155,29281,1,8,0:0:0:0:
330,155,29566,1,0,0:0:0:0:
152,196,29852,5,0,0:0:0:0:
230,222,30138,1,8,0:0:0:0:
230,231,30281,1,0,0:0:0:0:
323,241,30566,1,0,0:0:0:0:
246,188,30852,1,8,0:0:0:0:
229,157,31281,1,8,0:0:0:0:
229,157,31423,1,8,0:0:0:0:
249,192,31709,1,0,0:0:0:0:
260,166,32138,1,0,0:0:0:0:
317,168,32423,1,0,0:0:0:0:
317,168,32566,1,8,0:0:0:0:
317,168,32852,1,8,0:0:0:0:
317,168,33138,1,0,0:0:0:0:
317,168,33566,1,8,0:0:0:0:
317,168,33709,1,0,0:0:0:0:
317,168,33995,1,0,0:0:0:0:
317,168,34423,1,0,0:0:0:0:
317,168,34709,1,8,0:0:0:0:
317,168,34852,1,0,0:0:0:0:
317,168,35138,1,0,0:0:0:0:
317,168,35423,1,8,0:0:0:0:
317,168,35852,1,8,0:0:0:0:
317,168,35995,1,0,0:0:0:0:
255,224,36281,1,8,0:0:0:0:
255,224,36709,1,0,0:0:0:0:
244,223,36852,1,0,0:0:0:0:
210,137,36995,1,8,0:0:0:0:
193,235,37138,1,0,0:0:0:0:
193,235,37423,1,0,0:0:0:0:
193,235,37709,1,8,0:0:0:0:
108,220,37995,1,8,0:0:0:0:
108,220,38138,1,0,0:0:0:0:
167,153,38281,1,0,0:0:0:0:
256,192,38352,1,0,0:0:0:0:
310,242,38423,1,8,0:0:0:0:
232,181,38709,1,0,0:0:0:0:
235,183,38995,5,12,0:0:0:0:
326,190,39281,1,8,0:0:0:0:
367,310,39423,1,0,0:0:0:0:
181,214,39709,1,0,0:0:0:0:
218,187,39852,1,8,0:0:0:0:
335,230,40138,1,0,0:0:0:0:
205,151,40423,1,8,0:0:0:0:
335,230,40566,1,8,0:0:0:0:
274,262,40852,1,0,0:0:0:0:
247,204,40995,1,8,0:0:0:0:
279,141,41281,1,0,0:0:0:0:
235,158,41566,1,0,0:0:0:0:
268,149,41709,1,8,0:0:0:0:
222,99,41995,1,8,0:0:0:0:
268,149,42138,1,0,0:0:0:0:
268,149,42423,1,8,0:0:0:0:
186,118,42709,1,0,0:0:0:0:
268,149,42852,1,8,0:0:0:0:
186,118,42995,1,8,0:0:0:0:
154,111,43281,1,0,0:0:0:0:
245,198,43566,1,8,0:0:0:0:
117,172,43852,1,0,0:0:0:0:
245,198,43995,1,0,0:0:0:0:
255,141,44281,1,0,0:0:0:0:
245,198,44423,1,8,0:0:0:0:
245,198,44709,1,8,0:0:0:0:
215,177,45138,1,0,0:0:0:0:
245,190,45281,1,8,0:0:0:0:
250,227,45566,1,0,0:0:0:0:
307,246,45852,1,0,0:0:0:0:
83,147,45995,1,0,0:0:0:0:
174,178,46138,1,8,0:0:0:0:
274,205,46281,1,0,0:0:0:0:
347,129,46566,1,0,0:0:0:0:
314,164,46709,1,8,0:0:0:0:
285,137,46995,1,8,0:0:0:0:
250,147,47281,1,0,0:0:0:0:
269,124,47423,1,0,0:0:0:0:
192,192,47495,1,0,0:0:0:0:
250,147,47566,1,8,0:0:0:0:
250,147,47852,1,8,0:0:0:0:
235,183,48138,5,4,0:0:0:0:
326,190,48424,1,8,0:0:0:0:
367,310,48566,1,0,0:0:0:0:
181,214,48852,1,0,0:0:0:0:
218,187,48995,1,8,0:0:0:0:
335,230,49281,1,0,0:0:0:0:
205,151,49566,1,8,0:0:0:0:
335,230,49709,1,8,0:0:0:0:
241,168,49995,1,0,0:0:0:0:
247,204,50138,1,8,0:0:0:0:
279,141,50424,1,0,0:0:0:0:
235,158,50709,1,0,0:0:0:0:
268,149,50852,1,8,0:0:0:0:
222,99,51138,1,8,0:0:0:0:
268,149,51281,1,0,0:0:0:0:
268,149,51566,1,8,0:0:0:0:
186,118,51852,1,0,0:0:0:0:
268,149,51995,1,8,0:0:0:0:
186,118,52138,1,8,0:0:0:0:
154,111,52424,1,0,0:0:0:0:
186,225,52709,1,8,0:0:0:0:
171,171,52995,1,0,0:0:0:0:
230,202,53138,1,0,0:0:0:0:
261,169,53423,1,8,0:0:0:0:
230,202,53566,1,0,0:0:0:0:
230,202,53852,1,8,0:0:0:0:
180,169,54138,1,0,0:0:0:0:
279,192,54209,1,0,0:0:0:0:
314,157,54281,1,0,0:0:0:0:
375,240,54423,1,8,0:0:0:0:
300,168,54709,1,0,0:0:0:0:
288,228,54852,1,8,0:0:0:0:
240,106,54995,1,4,0:0:0:0:
158,175,55281,1,8,0:0:0:0:
240,106,55423,1,4,0:0:0:0:
241,204,55709,1,8,0:0:0:0:
240,106,55852,1,4,0:0:0:0:
267,161,57281,5,4,0:0:0:0:
172,257,57566,1,0,0:0:0:0:
172,257,57709,1,8,0:0:0:0:
306,278,57995,1,0,0:0:0:0:
306,278,58281,1,8,0:0:0:0:
306,278,58566,1,0,0:0:0:0:
306,278,58852,1,8,0:0:0:0:
196,111,59138,1,8,0:0:0:0:
306,278,59281,1,0,0:0:0:0:
123,122,59352,1,0,0:0:0:0:
256,160,59423,1,0,0:0:0:0:
252,155,59566,1,0,0:0:0:0:
337,189,59852,1,0,0:0:0:0:
337,189,59995,1,8,0:0:0:0:
355,216,60281,1,8,0:0:0:0:
355,216,60566,1,0,0:0:0:0:
372,213,60852,1,0,0:0:0:0:
110,126,61138,1,8,0:0:0:0:
224,205,61423,1,0,0:0:0:0:
330,191,61566,1,0,0:0:0:0:
352,96,61638,1,0,0:0:0:0:
352,96,61709,1,8,0:0:0:0:
146,213,61852,1,0,0:0:0:0:
269,208,62138,1,0,0:0:0:0:
269,208,62281,1,8,0:0:0:0:
226,148,62566,1,0,0:0:0:0:
297,151,62709,1,8,0:0:0:0:
297,151,62852,1,0,0:0:0:0:
197,158,63138,1,8,0:0:0:0:
227,184,63423,1,0,0:0:0:0:
197,158,63566,1,8,0:0:0:0:
325,108,63638,1,8,0:0:0:0:
325,108,63709,1,8,0:0:0:0:
197,158,63852,1,0,0:0:0:0:
219,194,64138,1,0,0:0:0:0:
290,202,64423,1,0,0:0:0:0:
213,186,64566,1,0,0:0:0:0:
213,186,64709,1,8,0:0:0:0:
226,190,64995,1,8,0:0:0:0:
183,167,65281,1,0,0:0:0:0:
183,167,65566,1,0,0:0:0:0:
300,153,65852,1,8,0:0:0:0:
303,162,65995,1,0,0:0:0:0:
303,162,66138,1,8,0:0:0:0:
303,162,66281,1,0,0:0:0:0:
288,96,66352,1,0,0:0:0:0:
267,161,66423,5,0,0:0:0:0:
172,257,66708,1,0,0:0:0:0:
172,257,66851,1,8,0:0:0:0:
306,278,67137,1,0,0:0:0:0:
306,278,67423,1,8,0:0:0:0:
306,278,67708,1,0,0:0:0:0:
306,278,67994,1,8,0:0:0:0:
306,278,68280,1,8,0:0:0:0:
306,278,68423,1,0,0:0:0:0:
179,164,68494,1,0,0:0:0:0:
128,160,68566,1,0,0:0:0:0:
252,155,68708,1,0,0:0:0:0:
337,189,68995,1,0,0:0:0:0:
337,189,69137,1,8,0:0:0:0:
355,216,69423,1,8,0:0:0:0:
355,216,69708,1,0,0:0:0:0:
372,213,69994,1,0,0:0:0:0:
224,205,70281,1,8,0:0:0:0:
224,205,70565,1,8,0:0:0:0:
330,191,70709,1,8,0:0:0:0:
242,104,70781,1,8,0:0:0:0:
242,104,70852,1,8,0:0:0:0:
139,165,70995,1,0,0:0:0:0:
120,180,71281,1,8,0:0:0:0:
120,180,71423,1,8,0:0:0:0:
209,219,71709,1,0,0:0:0:0:
209,219,71995,1,8,0:0:0:0:
209,219,72281,1,8,0:0:0:0:
209,219,72566,1,0,0:0:0:0:
128,96,72709,1,8,0:0:0:0:
209,219,72852,1,0,0:0:0:0:
209,219,72995,1,0,0:0:0:0:
209,219,73281,1,12,0:0:0:0:
209,219,73566,1,8,0:0:0:0:
209,219,73852,1,0,0:0:0:0:
209,219,74138,1,8,0:0:0:0:
209,219,74423,1,0,0:0:0:0:
149,109,74709,1,0,0:0:0:0:
237,158,74995,1,8,0:0:0:0:
237,158,75281,1,0,0:0:0:0:
316,236,75566,5,4,0:0:0:0:
266,217,75709,1,8,0:0:0:0:
192,236,75852,1,0,0:0:0:0:
192,236,75995,1,8,0:0:0:0:
192,236,76281,1,0,0:0:0:0:
192,236,76566,1,8,0:0:0:0:
233,198,76852,1,8,0:0:0:0:
224,128,77138,1,0,0:0:0:0:
225,211,77281,1,8,0:0:0:0:
70,173,77566,1,0,0:0:0:0:
301,100,77852,1,8,0:0:0:0:
196,136,77995,1,8,0:0:0:0:
293,202,78138,1,0,0:0:0:0:
293,202,78281,1,8,0:0:0:0:
293,202,78566,1,8,0:0:0:0:
293,202,78852,1,0,0:0:0:0:
293,202,79138,1,0,0:0:0:0:
152,98,79281,1,0,0:0:0:0:
152,98,79566,1,8,0:0:0:0:
194,134,79852,1,8,0:0:0:0:
164,170,80138,1,0,0:0:0:0:
283,168,80281,1,8,0:0:0:0:
281,137,80423,1,0,0:0:0:0:
164,170,80566,1,8,0:0:0:0:
164,170,80852,1,0,0:0:0:0:
164,170,81138,1,8,0:0:0:0:
266,151,81423,1,8,0:0:0:0:
266,151,81709,1,0,0:0:0:0:
283,175,81852,1,8,0:0:0:0:
283,175,82138,1,0,0:0:0:0:
86,174,82423,1,8,0:0:0:0:
95,180,82566,1,8,0:0:0:0:
175,219,82709,1,0,0:0:0:0:
175,219,82852,1,8,0:0:0:0:
232,239,83138,1,8,0:0:0:0:
232,239,83423,1,0,0:0:0:0:
172,170,83709,1,0,0:0:0:0:
172,170,83852,1,0,0:0:0:0:
172,170,84138,1,8,0:0:0:0:
272,182,84281,1,0,0:0:0:0:
272,182,84423,1,8,0:0:0:0:
316,236,84709,5,4,0:0:0:0:
266,217,84852,1,8,0:0:0:0:
192,236,84995,1,0,0:0:0:0:
192,236,85138,1,8,0:0:0:0:
192,236,85424,1,0,0:0:0:0:
192,236,85709,1,8,0:0:0:0:
233,198,85995,1,8,0:0:0:0:
224,128,86281,1,0,0:0:0:0:
225,211,86424,1,8,0:0:0:0:
70,173,86709,1,0,0:0:0:0:
301,100,86995,1,8,0:0:0:0:
196,136,87138,1,8,0:0:0:0:
293,202,87281,1,0,0:0:0:0:
293,202,87424,1,8,0:0:0:0:
293,202,87709,1,8,0:0:0:0:
293,202,87995,1,0,0:0:0:0:
293,202,88281,1,0,0:0:0:0:
152,98,88424,1,0,0:0:0:0:
152,98,88709,1,0,0:0:0:0:
103,149,88781,1,0,0:0:0:0:
299,186,88852,1,0,0:0:0:0:
194,134,88995,1,0,0:0:0:0:
256,192,89281,12,0,92709,0:0:0:0:
292,268,92995,5,0,0:0:0:0:
296,224,93281,1,8,0:0:0:0:
296,224,93566,1,0,0:0:0:0:
241,248,93852,1,8,0:0:0:0:
223,264,94138,1,0,0:0:0:0:
115,184,94281,1,8,0:0:0:0:
202,198,94566,1,0,0:0:0:0:
202,198,94852,1,8,0:0:0:0:
202,198,95138,1,8,0:0:0:0:
186,211,95423,1,0,0:0:0:0:
186,211,95566,1,8,0:0:0:0:
183,213,95852,1,0,0:0:0:0:
183,213,96138,1,8,0:0:0:0:
141,212,96423,1,0,0:0:0:0:
141,212,96566,1,8,0:0:0:0:
141,212,96852,1,8,0:0:0:0:
194,149,97138,1,0,0:0:0:0:
194,149,97423,1,0,0:0:0:0:
250,151,97709,1,0,0:0:0:0:
252,156,97852,1,8,0:0:0:0:
310,186,98138,1,0,0:0:0:0:
156,249,98423,5,0,0:0:0:0:
214,259,98709,1,0,0:0:0:0:
214,259,98852,1,8,0:0:0:0:
266,268,99138,1,0,0:0:0:0:
266,268,99423,1,8,0:0:0:0:
266,268,99709,1,8,0:0:0:0:
266,268,99995,1,0,0:0:0:0:
266,268,100138,1,8,0:0:0:0:
266,268,100423,1,0,0:0:0:0:
266,268,100709,1,8,0:0:0:0:
266,268,100995,1,0,0:0:0:0:
266,268,101138,1,8,0:0:0:0:
266,268,101423,1,8,0:0:0:0:
266,268,101709,1,0,0:0:0:0:
266,268,101995,1,8,0:0:0:0:
199,220,102281,1,0,0:0:0:0:
199,220,102423,1,0,0:0:0:0:
