osu file format v14

[General]
AudioFilename: audio.mp3
AudioLeadIn: 0
PreviewTime: 57281
Countdown: 0
SampleSet: Normal
StackLeniency: 0.7
Mode: 1
LetterboxInBreaks: 0
WidescreenStoryboard: 1

[Editor]
DistanceSpacing: 0.8
BeatDivisor: 8
GridSize: 32
TimelineZoom: 0.9

[Metadata]
Title:Shadow gate to love
TitleUnicode:Shadow gate to love
Artist:Guilty Kiss
ArtistUnicode:Guilty Kiss
Creator:Kisses
Version:Nardo's Inner Oni
Source:Love Live! Sunshine!!
Tags:Left Karen Dream117er Nardoxyribonucleic ラブライブ!サンシャイン!! love live school idol project suzuki aina 鈴木愛奈 aida rikako 逢田梨香子 kobayashi aika 小林愛香 ohara mari 小原鞠莉 ギルティキス
BeatmapID:1342870
BeatmapSetID:630109

[Difficulty]
HPDrainRate:6
CircleSize:5
OverallDifficulty:6.5
ApproachRate:8
SliderMultiplier:1.4
SliderTickRate:1

[Events]
//Background and Video events
0,0,"sfw BG.jpg",0,30
//Break Periods
//Storyboard Layer 0 (Background)
//Storyboard Layer 1 (Fail)
//Storyboard Layer 2 (Pass)
//Storyboard Layer 3 (Foreground)
//Storyboard Sound Samples

[TimingPoints]
282,571.428571428571,4,1,0,70,1,0
282,-50,4,1,0,70,0,0
2424,571.428571428571,4,1,0,50,1,0
2424,-50,4,1,0,50,0,0
11566,-50,4,1,0,70,0,0
20709,-50,4,1,0,60,0,0
38995,-50,4,1,0,70,0,0
57281,-50,4,1,0,80,0,1
75566,-50,4,1,0,70,0,0
93852,-50,4,1,0,40,0,0

[HitObjects]
256,192,282,5,0,0:0:0:0:
256,192,567,1,0,0:0:0:0:
256,192,853,1,8,0:0:0:0:
256,192,1424,1,0,0:0:0:0:
256,192,1710,1,8,0:0:0:0:
256,192,1996,1,8,0:0:0:0:
256,192,2424,1,4,0:0:0:0:
256,192,2852,1,0,0:0:0:0:
256,192,3138,1,0,0:0:0:0:
256,192,3423,1,8,0:0:0:0:
256,192,3709,1,0,0:0:0:0:
256,192,4138,1,8,0:0:0:0:
256,192,4709,1,8,0:0:0:0:
256,192,5138,1,0,0:0:0:0:
256,192,5423,1,0,0:0:0:0:
256,192,5709,1,8,0:0:0:0:
256,192,5995,1,0,0:0:0:0:
256,192,6138,1,8,0:0:0:0:
256,192,6281,1,0,0:0:0:0:
256,192,6423,1,0,0:0:0:0:
256,192,6495,1,0,0:0:0:0:
256,192,6566,1,0,0:0:0:0:
256,192,6709,1,8,0:0:0:0:
256,192,6995,1,0,0:0:0:0:
256,192,7423,1,0,0:0:0:0:
256,192,7709,1,0,0:0:0:0:
256,192,7995,1,8,0:0:0:0:
256,192,8281,1,0,0:0:0:0:
256,192,8709,1,8,0:0:0:0:
256,192,9281,1,8,0:0:0:0:
256,192,9709,1,0,0:0:0:0:
256,192,9995,1,0,0:0:0:0:
256,192,10281,1,8,0:0:0:0:
256,192,10566,1,0,0:0:0:0:
256,192,10709,1,8,0:0:0:0:
256,192,10995,1,0,0:0:0:0:
256,192,11138,1,0,0:0:0:0:
256,192,11281,1,8,0:0:0:0:
256,192,11566,1,4,0:0:0:0:
256,192,11852,1,0,0:0:0:0:
256,192,11995,1,8,0:0:0:0:
256,192,12281,1,8,0:0:0:0:
256,192,12423,1,0,0:0:0:0:
256,192,12566,1,8,0:0:0:0:
256,192,12852,1,0,0:0:0:0:
256,192,12995,1,8,0:0:0:0:
256,192,13138,1,0,0:0:0:0:
256,192,13281,1,8,0:0:0:0:
256,192,13423,1,8,0:0:0:0:
256,192,13495,1,8,0:0:0:0:
256,192,13566,1,0,0:0:0:0:
256,192,13709,1,0,0:0:0:0:
256,192,13852,1,8,0:0:0:0:
256,192,14138,1,0,0:0:0:0:
256,192,14281,1,8,0:0:0:0:
256,192,14566,1,8,0:0:0:0:
256,192,14709,1,8,0:0:0:0:
256,192,14852,1,0,0:0:0:0:
256,192,15138,1,0,0:0:0:0:
256,192,15281,1,8,0:0:0:0:
256,192,15423,1,0,0:0:0:0:
256,192,15495,1,0,0:0:0:0:
256,192,15566,1,8,0:0:0:0:
256,192,15709,1,0,0:0:0:0:
256,192,15852,1,0,0:0:0:0:
256,192,16138,1,8,0:0:0:0:
256,192,16423,1,0,0:0:0:0:
256,192,16566,1,8,0:0:0:0:
256,192,16852,1,8,0:0:0:0:
256,192,16995,1,0,0:0:0:0:
256,192,17138,1,8,0:0:0:0:
256,192,17423,1,0,0:0:0:0:
256,192,17566,1,8,0:0:0:0:
256,192,17709,1,0,0:0:0:0:
256,192,17852,1,8,0:0:0:0:
256,192,17995,1,8,0:0:0:0:
256,192,18066,1,8,0:0:0:0:
256,192,18138,1,0,0:0:0:0:
256,192,18281,1,0,0:0:0:0:
256,192,18423,1,8,0:0:0:0:
256,192,18709,1,0,0:0:0:0:
256,192,18852,1,8,0:0:0:0:
256,192,19138,1,8,0:0:0:0:
256,192,19281,1,8,0:0:0:0:
256,192,19423,1,0,0:0:0:0:
256,192,19495,1,8,0:0:0:0:
256,192,19566,1,0,0:0:0:0:
256,192,19709,1,8,0:0:0:0:
256,192,19781,1,0,0:0:0:0:
256,192,19852,1,8,0:0:0:0:
256,192,19923,1,8,0:0:0:0:
256,192,19995,1,0,0:0:0:0:
256,192,20138,1,8,0:0:0:0:
256,192,20281,1,0,0:0:0:0:
256,192,20423,1,8,0:0:0:0:
256,192,20709,1,4,0:0:0:0:
256,192,20995,1,8,0:0:0:0:
256,192,21138,1,0,0:0:0:0:
256,192,21423,1,0,0:0:0:0:
256,192,21709,1,8,0:0:0:0:
256,192,22138,1,8,0:0:0:0:
256,192,22281,1,0,0:0:0:0:
256,192,22566,1,8,0:0:0:0:
256,192,22995,1,8,0:0:0:0:
256,192,23281,1,0,0:0:0:0:
256,192,23423,1,8,0:0:0:0:
256,192,23709,1,0,0:0:0:0:
256,192,23995,1,0,0:0:0:0:
256,192,24281,1,8,0:0:0:0:
256,192,24566,1,0,0:0:0:0:
256,192,24709,1,8,0:0:0:0:
256,192,24995,1,0,0:0:0:0:
256,192,25281,1,0,0:0:0:0:
256,192,25566,1,8,0:0:0:0:
256,192,25709,1,0,0:0:0:0:
256,192,25995,1,0,0:0:0:0:
256,192,26281,1,8,0:0:0:0:
256,192,26709,1,8,0:0:0:0:
256,192,26852,1,0,0:0:0:0:
256,192,27138,1,8,0:0:0:0:
256,192,27566,1,8,0:0:0:0:
256,192,27852,1,0,0:0:0:0:
256,192,27995,1,8,0:0:0:0:
256,192,28281,1,8,0:0:0:0:
256,192,28566,1,0,0:0:0:0:
256,192,28852,1,8,0:0:0:0:
256,192,28995,1,0,0:0:0:0:
256,192,29138,1,8,0:0:0:0:
256,192,29281,1,8,0:0:0:0:
256,192,29352,1,8,0:0:0:0:
256,192,29423,1,8,0:0:0:0:
256,192,29566,1,0,0:0:0:0:
256,192,29709,1,8,0:0:0:0:
256,192,29852,1,0,0:0:0:0:
256,192,30138,1,8,0:0:0:0:
256,192,30281,1,0,0:0:0:0:
256,192,30566,1,0,0:0:0:0:
256,192,30852,1,8,0:0:0:0:
256,192,31281,1,8,0:0:0:0:
256,192,31423,1,0,0:0:0:0:
256,192,31709,1,8,0:0:0:0:
256,192,32138,1,8,0:0:0:0:
256,192,32423,1,0,0:0:0:0:
256,192,32566,1,0,0:0:0:0:
256,192,32852,1,8,0:0:0:0:
256,192,33138,1,0,0:0:0:0:
256,192,33566,1,0,0:0:0:0:
256,192,33709,1,8,0:0:0:0:
256,192,33995,1,0,0:0:0:0:
256,192,34423,1,0,0:0:0:0:
256,192,34709,1,8,0:0:0:0:
256,192,34852,1,8,0:0:0:0:
256,192,35138,1,0,0:0:0:0:
256,192,35423,1,8,0:0:0:0:
256,192,35852,1,0,0:0:0:0:
256,192,35995,1,8,0:0:0:0:
256,192,36281,1,8,0:0:0:0:
256,192,36566,1,8,0:0:0:0:
256,192,36709,1,0,0:0:0:0:
256,192,36995,1,0,0:0:0:0:
256,192,37138,1,8,0:0:0:0:
256,192,37423,1,8,0:0:0:0:
256,192,37709,1,8,0:0:0:0:
256,192,37852,1,0,0:0:0:0:
256,192,37995,1,8,0:0:0:0:
256,192,38138,1,0,0:0:0:0:
256,192,38209,1,0,0:0:0:0:
256,192,38281,1,0,0:0:0:0:
256,192,38423,1,8,0:0:0:0:
256,192,38566,1,8,0:0:0:0:
256,192,38709,1,0,0:0:0:0:
256,192,38995,1,12,0:0:0:0:
256,192,39281,1,0,0:0:0:0:
256,192,39423,1,8,0:0:0:0:
256,192,39709,1,8,0:0:0:0:
256,192,39852,1,0,0:0:0:0:
256,192,40138,1,8,0:0:0:0:
256,192,40423,1,0,0:0:0:0:
256,192,40566,1,8,0:0:0:0:
256,192,40709,1,0,0:0:0:0:
256,192,40852,1,0,0:0:0:0:
256,192,40995,1,8,0:0:0:0:
256,192,41281,1,0,0:0:0:0:
256,192,41566,1,0,0:0:0:0:
256,192,41709,1,8,0:0:0:0:
256,192,41995,1,8,0:0:0:0:
256,192,42138,1,0,0:0:0:0:
256,192,42423,1,0,0:0:0:0:
256,192,42709,1,8,0:0:0:0:
256,192,42852,1,0,0:0:0:0:
256,192,42995,1,8,0:0:0:0:
256,192,43138,1,8,0:0:0:0:
256,192,43281,1,0,0:0:0:0:
256,192,43566,1,0,0:0:0:0:
256,192,43852,1,8,0:0:0:0:
256,192,43995,1,0,0:0:0:0:
256,192,44281,1,0,0:0:0:0:
256,192,44423,1,8,0:0:0:0:
256,192,44709,1,0,0:0:0:0:
256,192,44995,1,8,0:0:0:0:
256,192,45138,1,0,0:0:0:0:
256,192,45281,1,8,0:0:0:0:
256,192,45566,1,0,0:0:0:0:
256,192,45709,1,0,0:0:0:0:
256,192,45852,1,8,0:0:0:0:
256,192,46138,1,0,0:0:0:0:
256,192,46281,1,8,0:0:0:0:
256,192,46709,1,8,0:0:0:0:
256,192,46995,1,0,0:0:0:0:
256,192,47138,1,8,0:0:0:0:
256,192,47281,1,0,0:0:0:0:
256,192,47423,1,0,0:0:0:0:
256,192,47495,1,0,0:0:0:0:
256,192,47566,1,8,0:0:0:0:
256,192,47709,1,8,0:0:0:0:
256,192,47852,1,0,0:0:0:0:
256,192,48138,1,12,0:0:0:0:
256,192,48423,1,0,0:0:0:0:
256,192,48566,1,8,0:0:0:0:
256,192,48852,1,8,0:0:0:0:
256,192,48995,1,0,0:0:0:0:
256,192,49281,1,8,0:0:0:0:
256,192,49566,1,0,0:0:0:0:
256,192,49709,1,8,0:0:0:0:
256,192,49852,1,0,0:0:0:0:
256,192,49995,1,0,0:0:0:0:
256,192,50138,1,8,0:0:0:0:
256,192,50423,1,0,0:0:0:0:
256,192,50709,1,0,0:0:0:0:
256,192,50852,1,8,0:0:0:0:
256,192,51138,1,8,0:0:0:0:
256,192,51281,1,0,0:0:0:0:
256,192,51566,1,0,0:0:0:0:
256,192,51852,1,8,0:0:0:0:
256,192,51995,1,0,0:0:0:0:
256,192,52138,1,8,0:0:0:0:
256,192,52281,1,0,0:0:0:0:
256,192,52423,1,8,0:0:0:0:
256,192,52566,1,8,0:0:0:0:
256,192,52709,1,0,0:0:0:0:
256,192,52995,1,0,0:0:0:0:
256,192,53138,1,8,0:0:0:0:
256,192,53423,1,8,0:0:0:0:
256,192,53566,1,0,0:0:0:0:
256,192,53852,1,8,0:0:0:0:
256,192,54138,1,0,0:0:0:0:
256,192,54281,1,8,0:0:0:0:
256,192,54423,1,0,0:0:0:0:
256,192,54566,1,8,0:0:0:0:
256,192,54709,1,8,0:0:0:0:
256,192,54852,1,0,0:0:0:0:
256,192,54923,1,0,0:0:0:0:
256,192,54995,1,8,0:0:0:0:
256,192,55423,1,12,0:0:0:0:
256,192,55852,1,12,0:0:0:0:
256,192,57281,1,4,0:0:0:0:
256,192,57566,1,8,0:0:0:0:
256,192,57709,1,0,0:0:0:0:
256,192,57995,1,0,0:0:0:0:
256,192,58138,1,8,0:0:0:0:
256,192,58281,1,0,0:0:0:0:
256,192,58566,1,0,0:0:0:0:
256,192,58709,1,8,0:0:0:0:
256,192,58852,1,0,0:0:0:0:
256,192,58923,1,0,0:0:0:0:
256,192,58995,1,8,0:0:0:0:
256,192,59138,1,0,0:0:0:0:
256,192,59281,1,8,0:0:0:0:
256,192,59423,1,8,0:0:0:0:
256,192,59566,1,0,0:0:0:0:
256,192,59852,1,8,0:0:0:0:
256,192,59995,1,0,0:0:0:0:
256,192,60281,1,0,0:0:0:0:
256,192,60423,1,8,0:0:0:0:
256,192,60566,1,0,0:0:0:0:
256,192,60852,1,0,0:0:0:0:
256,192,60995,1,8,0:0:0:0:
256,192,61138,1,0,0:0:0:0:
256,192,61281,1,8,0:0:0:0:
256,192,61423,1,8,0:0:0:0:
256,192,61495,1,8,0:0:0:0:
256,192,61566,1,0,0:0:0:0:
256,192,61709,1,8,0:0:0:0:
256,192,61852,1,0,0:0:0:0:
256,192,62138,1,8,0:0:0:0:
256,192,62281,1,0,0:0:0:0:
256,192,62566,1,0,0:0:0:0:
256,192,62709,1,8,0:0:0:0:
256,192,62852,1,0,0:0:0:0:
256,192,63138,1,0,0:0:0:0:
256,192,63281,1,8,0:0:0:0:
256,192,63423,1,0,0:0:0:0:
256,192,63495,1,0,0:0:0:0:
256,192,63566,1,8,0:0:0:0:
256,192,63709,1,8,0:0:0:0:
256,192,63852,1,0,0:0:0:0:
256,192,63995,1,0,0:0:0:0:
256,192,64138,1,8,0:0:0:0:
256,192,64423,1,8,0:0:0:0:
256,192,64566,1,0,0:0:0:0:
256,192,64709,1,8,0:0:0:0:
256,192,64852,1,8,0:0:0:0:
256,192,64995,1,0,0:0:0:0:
256,192,65138,1,8,0:0:0:0:
256,192,65209,1,8,0:0:0:0:
256,192,65281,1,0,0:0:0:0:
256,192,65423,1,8,0:0:0:0:
256,192,65566,1,0,0:0:0:0:
256,192,65638,1,8,0:0:0:0:
256,192,65709,1,0,0:0:0:0:
256,192,65781,1,0,0:0:0:0:
256,192,65852,1,8,0:0:0:0:
256,192,65995,1,8,0:0:0:0:
256,192,66138,1,0,0:0:0:0:
256,192,66423,1,4,0:0:0:0:
256,192,66709,1,8,0:0:0:0:
256,192,66852,1,0,0:0:0:0:
256,192,67138,1,0,0:0:0:0:
256,192,67281,1,8,0:0:0:0:
256,192,67423,1,0,0:0:0:0:
256,192,67709,1,0,0:0:0:0:
256,192,67852,1,8,0:0:0:0:
256,192,67995,1,0,0:0:0:0:
256,192,68066,1,0,0:0:0:0:
256,192,68138,1,8,0:0:0:0:
256,192,68281,1,0,0:0:0:0:
256,192,68423,1,8,0:0:0:0:
256,192,68566,1,8,0:0:0:0:
256,192,68709,1,0,0:0:0:0:
256,192,68995,1,8,0:0:0:0:
256,192,69138,1,0,0:0:0:0:
256,192,69423,1,0,0:0:0:0:
256,192,69566,1,8,0:0:0:0:
256,192,69709,1,0,0:0:0:0:
256,192,69995,1,0,0:0:0:0:
256,192,70138,1,8,0:0:0:0:
256,192,70281,1,0,0:0:0:0:
256,192,70423,1,8,0:0:0:0:
256,192,70566,1,8,0:0:0:0:
256,192,70638,1,8,0:0:0:0:
256,192,70709,1,0,0:0:0:0:
256,192,70852,1,8,0:0:0:0:
256,192,70995,1,0,0:0:0:0:
256,192,71281,1,8,0:0:0:0:
256,192,71423,1,0,0:0:0:0:
256,192,71709,1,8,0:0:0:0:
256,192,71995,1,0,0:0:0:0:
256,192,72138,1,8,0:0:0:0:
256,192,72281,1,8,0:0:0:0:
256,192,72423,1,0,0:0:0:0:
256,192,72566,1,0,0:0:0:0:
256,192,72638,1,0,0:0:0:0:
256,192,72709,1,8,0:0:0:0:
256,192,72852,1,8,0:0:0:0:
256,192,72923,1,8,0:0:0:0:
256,192,72995,1,0,0:0:0:0:
256,192,73138,1,0,0:0:0:0:
256,192,73281,1,12,0:0:0:0:
256,192,73566,1,0,0:0:0:0:
256,192,73709,1,0,0:0:0:0:
256,192,73852,1,0,0:0:0:0:
256,192,73995,1,0,0:0:0:0:
256,192,74138,1,8,0:0:0:0:
256,192,74423,1,12,0:0:0:0:
256,192,74709,1,0,0:0:0:0:
256,192,74852,1,8,0:0:0:0:
256,192,74995,1,8,0:0:0:0:
256,192,75138,1,0,0:0:0:0:
256,192,75281,1,8,0:0:0:0:
256,192,75566,1,4,0:0:0:0:
256,192,75852,1,0,0:0:0:0:
256,192,75995,1,8,0:0:0:0:
256,192,76281,1,8,0:0:0:0:
256,192,76423,1,0,0:0:0:0:
256,192,76566,1,8,0:0:0:0:
256,192,76852,1,0,0:0:0:0:
256,192,76995,1,8,0:0:0:0:
256,192,77281,1,8,0:0:0:0:
256,192,77423,1,8,0:0:0:0:
256,192,77566,1,0,0:0:0:0:
256,192,77709,1,0,0:0:0:0:
256,192,77852,1,8,0:0:0:0:
256,192,78138,1,0,0:0:0:0:
256,192,78281,1,8,0:0:0:0:
256,192,78566,1,8,0:0:0:0:
256,192,78709,1,8,0:0:0:0:
256,192,78852,1,0,0:0:0:0:
256,192,79138,1,0,0:0:0:0:
256,192,79281,1,8,0:0:0:0:
256,192,79566,1,8,0:0:0:0:
256,192,79709,1,0,0:0:0:0:
256,192,79852,1,0,0:0:0:0:
256,192,79995,1,8,0:0:0:0:
256,192,80138,1,8,0:0:0:0:
256,192,80423,1,0,0:0:0:0:
256,192,80566,1,8,0:0:0:0:
256,192,80852,1,8,0:0:0:0:
256,192,80995,1,0,0:0:0:0:
256,192,81138,1,8,0:0:0:0:
256,192,81423,1,0,0:0:0:0:
256,192,81566,1,8,0:0:0:0:
256,192,81852,1,8,0:0:0:0:
256,192,81995,1,8,0:0:0:0:
256,192,82138,1,0,0:0:0:0:
256,192,82281,1,0,0:0:0:0:
256,192,82423,1,8,0:0:0:0:
256,192,82709,1,0,0:0:0:0:
256,192,82852,1,8,0:0:0:0:
256,192,83138,1,8,0:0:0:0:
256,192,83281,1,8,0:0:0:0:
256,192,83423,1,0,0:0:0:0:
256,192,83709,1,8,0:0:0:0:
256,192,83852,1,0,0:0:0:0:
256,192,83995,1,0,0:0:0:0:
256,192,84138,1,8,0:0:0:0:
256,192,84281,1,8,0:0:0:0:
256,192,84423,1,0,0:0:0:0:
256,192,84709,1,12,0:0:0:0:
256,192,84995,1,0,0:0:0:0:
256,192,85138,1,8,0:0:0:0:
256,192,85423,1,8,0:0:0:0:
256,192,85566,1,0,0:0:0:0:
256,192,85709,1,8,0:0:0:0:
256,192,85995,1,0,0:0:0:0:
256,192,86138,1,8,0:0:0:0:
256,192,86423,1,8,0:0:0:0:
256,192,86566,1,8,0:0:0:0:
256,192,86709,1,0,0:0:0:0:
256,192,86852,1,0,0:0:0:0:
256,192,86923,1,0,0:0:0:0:
256,192,86995,1,8,0:0:0:0:
256,192,87138,1,0,0:0:0:0:
256,192,87281,1,8,0:0:0:0:
256,192,87423,1,8,0:0:0:0:
256,192,87495,1,8,0:0:0:0:
256,192,87566,1,0,0:0:0:0:
256,192,87709,1,8,0:0:0:0:
256,192,87852,1,0,0:0:0:0:
256,192,87995,1,8,0:0:0:0:
256,192,88138,1,8,0:0:0:0:
256,192,88209,1,8,0:0:0:0:
256,192,88281,1,0,0:0:0:0:
256,192,88352,1,0,0:0:0:0:
256,192,88423,1,8,0:0:0:0:
256,192,88566,1,8,0:0:0:0:
256,192,88709,1,0,0:0:0:0:
256,192,88852,1,0,0:0:0:0:
256,192,88995,1,8,0:0:0:0:
256,192,89138,1,8,0:0:0:0:
256,192,89209,1,8,0:0:0:0:
256,192,89281,1,0,0:0:0:0:
256,192,89423,12,0,92709,0:0:0:0:
256,192,92995,5,0,0:0:0:0:
256,192,93281,1,8,0:0:0:0:
256,192,93566,1,8,0:0:0:0:
256,192,93852,1,4,0:0:0:0:
256,192,94138,1,8,0:0:0:0:
256,192,94281,1,0,0:0:0:0:
256,192,94566,1,0,0:0:0:0:
256,192,94852,1,8,0:0:0:0:
256,192,95138,1,8,0:0:0:0:
256,192,95423,1,0,0:0:0:0:
256,192,95566,1,8,0:0:0:0:
256,192,95852,1,8,0:0:0:0:
256,192,95923,1,8,0:0:0:0:
256,192,95995,1,8,0:0:0:0:
256,192,96066,1,8,0:0:0:0:
256,192,96138,1,0,0:0:0:0:
256,192,96423,1,8,0:0:0:0:
256,192,96566,1,0,0:0:0:0:
256,192,96852,1,0,0:0:0:0:
256,192,97138,1,8,0:0:0:0:
256,192,97423,1,8,0:0:0:0:
256,192,97709,1,0,0:0:0:0:
256,192,97852,1,8,0:0:0:0:
256,192,98138,1,0,0:0:0:0:
256,192,98423,1,0,0:0:0:0:
256,192,98709,1,8,0:0:0:0:
256,192,98852,1,0,0:0:0:0:
256,192,99138,1,0,0:0:0:0:
256,192,99423,1,8,0:0:0:0:
256,192,99709,1,8,0:0:0:0:
256,192,99995,1,0,0:0:0:0:
256,192,100138,1,8,0:0:0:0:
256,192,100423,1,8,0:0:0:0:
256,192,100495,1,8,0:0:0:0:
256,192,100566,1,8,0:0:0:0:
256,192,100638,1,8,0:0:0:0:
256,192,100709,1,0,0:0:0:0:
256,192,100995,1,8,0:0:0:0:
256,192,101138,1,0,0:0:0:0:
256,192,101423,1,0,0:0:0:0:
256,192,101709,1,8,0:0:0:0:
256,192,101995,1,8,0:0:0:0:
256,192,102281,1,0,0:0:0:0:
256,192,102352,1,0,0:0:0:0:
256,192,102423,1,0,0:0:0:0:
