osu file format v14

[General]
AudioFilename: audio.mp3
AudioLeadIn: 0
PreviewTime: 57281
Countdown: 0
SampleSet: Soft
StackLeniency: 0.3
Mode: 0
LetterboxInBreaks: 0
WidescreenStoryboard: 1

[Editor]
Bookmarks: 11566,20709,29852,38995,48138,57281,66423,75566
DistanceSpacing: 0.8
BeatDivisor: 8
GridSize: 32
TimelineZoom: 2.2

[Metadata]
Title:Shadow gate to love
TitleUnicode:Shadow gate to love
Artist:Guilty Kiss
ArtistUnicode:Guilty Kiss
Creator:Kisses
Version:Left's Insane
Source:Love Live! Sunshine!!
Tags:Left Karen Dream117er Nardoxyribonucleic ラブライブ!サンシャイン!! love live school idol project suzuki aina 鈴木愛奈 aida rikako 逢田梨香子 kobayashi aika 小林愛香 ohara mari 小原鞠莉 ギルティキス
BeatmapID:1370269
BeatmapSetID:630109

[Difficulty]
HPDrainRate:6
CircleSize:3.5
OverallDifficulty:7
ApproachRate:9
SliderMultiplier:3.1
SliderTickRate:1

[Events]
//Background and Video events
0,0,"sfw BG.jpg",0,0
//Break Periods
2,2909,5538
2,7194,10109
//Storyboard Layer 0 (Background)
//Storyboard Layer 1 (Fail)
//Storyboard Layer 2 (Pass)
//Storyboard Layer 3 (Foreground)
//Storyboard Sound Samples

[TimingPoints]
282,571.428571428571,4,2,0,70,1,0
353,-100,4,2,0,5,0,0
567,-100,4,2,0,70,0,0
639,-100,4,2,0,5,0,0
853,-100,4,2,0,70,0,0
924,-100,4,2,0,5,0,0
1424,-76.9230769230769,4,2,0,70,0,0
1496,-76.9230769230769,4,2,0,5,0,0
1710,-76.9230769230769,4,2,0,70,0,0
1781,-76.9230769230769,4,2,0,5,0,0
1996,-76.9230769230769,4,2,0,70,0,0
2067,-76.9230769230769,4,2,0,5,0,0
2424,571.428571428571,4,2,0,70,1,0
2424,-62.5,4,2,0,70,0,0
2709,-100,4,2,0,50,0,0
6423,-66.6666666666667,4,2,0,50,0,0
10709,-111.111111111111,4,2,0,50,0,0
10923,-111.111111111111,4,2,0,5,0,0
10995,-142.857142857143,4,2,0,50,0,0
11209,-142.857142857143,4,2,0,5,0,0
11281,-200,4,2,0,50,0,0
11495,-200,4,2,0,5,0,0
11566,-76.9230769230769,4,2,0,70,0,0
11995,-95.2380952380952,4,2,0,70,0,0
12781,-95.2380952380952,4,2,0,5,0,0
12852,-95.2380952380952,4,2,0,70,0,0
13281,-181.818181818182,4,2,0,70,0,0
13852,-71.4285714285714,4,2,0,70,0,0
14281,-95.2380952380952,4,2,0,70,0,0
15066,-95.2380952380952,4,2,0,5,0,0
15138,-95.2380952380952,4,2,0,70,0,0
15566,-181.818181818182,4,2,0,70,0,0
16138,-76.9230769230769,4,2,0,70,0,0
16566,-95.2380952380952,4,2,0,70,0,0
17352,-95.2380952380952,4,2,0,5,0,0
17423,-95.2380952380952,4,2,0,70,0,0
17852,-181.818181818182,4,2,0,70,0,0
18423,-71.4285714285714,4,2,0,70,0,0
18852,-95.2380952380952,4,2,0,70,0,0
19638,-95.2380952380952,4,2,0,5,0,0
19709,-95.2380952380952,4,2,0,70,0,0
19852,-142.857142857143,4,2,0,70,0,0
20138,-100,4,2,0,70,0,0
20423,-76.9230769230769,4,2,0,70,0,0
20709,-62.5,4,2,0,70,0,0
21138,-100,4,2,0,70,0,0
21995,-133.333333333333,4,2,0,70,0,0
22995,-83.3333333333333,4,2,0,70,0,0
23423,-100,4,2,0,70,0,0
24281,-133.333333333333,4,2,0,70,0,0
25281,-83.3333333333333,4,2,0,70,0,0
25709,-100,4,2,0,70,0,0
26566,-133.333333333333,4,2,0,70,0,0
27566,-83.3333333333333,4,2,0,70,0,0
27995,-100,4,2,0,70,0,0
29281,-83.3333333333333,4,2,0,70,0,0
29495,-83.3333333333333,4,2,0,5,0,0
29566,-133.333333333333,4,2,0,70,0,0
29852,-71.4285714285714,4,2,0,70,0,0
30281,-100,4,2,0,70,0,0
31138,-133.333333333333,4,2,0,70,0,0
32138,-83.3333333333333,4,2,0,70,0,0
32566,-100,4,2,0,70,0,0
34423,-83.3333333333333,4,2,0,70,0,0
34852,-100,4,2,0,70,0,0
35709,-133.333333333333,4,2,0,70,0,0
36709,-83.3333333333333,4,2,0,70,0,0
37138,-100,4,2,0,70,0,0
40138,-200,4,2,0,70,0,0
41281,-100,4,2,0,70,0,0
42423,-200,4,2,0,70,0,0
43566,-100,4,2,0,70,0,0
44709,-200,4,2,0,70,0,0
45852,-83.3333333333333,4,2,0,70,0,0
48138,-100,4,2,0,70,0,0
49281,-200,4,2,0,70,0,0
50423,-100,4,2,0,70,0,0
51566,-200,4,2,0,70,0,0
52709,-100,4,2,0,70,0,0
53852,-200,4,2,0,70,0,0
54995,-100,4,2,0,70,0,0
55423,-66.6666666666667,4,2,0,70,0,0
55852,-50,4,2,0,70,0,0
57281,-66.6666666666667,4,2,0,70,0,1
57709,-90.9090909090909,4,2,0,70,0,1
59566,-66.6666666666667,4,2,0,70,0,1
59995,-90.9090909090909,4,2,0,70,0,1
61852,-66.6666666666667,4,2,0,70,0,1
62281,-90.9090909090909,4,2,0,70,0,1
66423,-66.6666666666667,4,2,0,70,0,1
66852,-90.9090909090909,4,2,0,70,0,1
68709,-66.6666666666667,4,2,0,70,0,1
69138,-90.9090909090909,4,2,0,70,0,1
70995,-66.6666666666667,4,2,0,70,0,1
71423,-90.9090909090909,4,2,0,70,0,1
74423,-66.6666666666667,4,2,0,70,0,1
74638,-66.6666666666667,4,2,0,5,0,1
74709,-66.6666666666667,4,2,0,70,0,1
75566,-76.9230769230769,4,2,0,70,0,0
75995,-95.2380952380952,4,2,0,70,0,0
76781,-95.2380952380952,4,2,0,5,0,0
76852,-95.2380952380952,4,2,0,70,0,0
77281,-181.818181818182,4,2,0,70,0,0
77852,-71.4285714285714,4,2,0,70,0,0
78281,-95.2380952380952,4,2,0,70,0,0
79066,-95.2380952380952,4,2,0,5,0,0
79138,-95.2380952380952,4,2,0,70,0,0
79566,-76.9230769230769,4,2,0,70,0,0
79852,-62.5,4,2,0,70,0,0
80138,-76.9230769230769,4,2,0,70,0,0
80566,-95.2380952380952,4,2,0,70,0,0
81352,-95.2380952380952,4,2,0,5,0,0
81423,-95.2380952380952,4,2,0,70,0,0
81852,-181.818181818182,4,2,0,70,0,0
82423,-71.4285714285714,4,2,0,70,0,0
82852,-95.2380952380952,4,2,0,70,0,0
83638,-95.2380952380952,4,2,0,5,0,0
83709,-95.2380952380952,4,2,0,70,0,0
84709,-76.9230769230769,4,2,0,70,0,0
85138,-95.2380952380952,4,2,0,70,0,0
85923,-95.2380952380952,4,2,0,5,0,0
85995,-95.2380952380952,4,2,0,70,0,0
86423,-181.818181818182,4,2,0,70,0,0
86995,-71.4285714285714,4,2,0,70,0,0
87423,-95.2380952380952,4,2,0,70,0,0
88209,-95.2380952380952,4,2,0,5,0,0
88281,-95.2380952380952,4,2,0,70,0,0
88709,-71.4285714285714,4,2,0,70,0,0
88995,-58.8235294117647,4,2,0,70,0,0
89281,-200,4,2,0,50,0,0
93852,-100,4,2,0,40,0,0

[Colours]
Combo1 : 224,224,224
Combo2 : 241,73,73
Combo3 : 196,94,157
Combo4 : 48,120,228

[HitObjects]
118,139,282,6,0,L|124:196,1,38.75,4|0,0:3|0:0,0:0:0:0:
157,193,567,2,0,L|104:169,1,38.75,4|0,0:3|0:0,0:0:0:0:
90,200,853,2,0,L|136:166,1,38.75,4|0,0:3|0:0,0:0:0:0:
107,42,1424,6,0,L|115:115,1,50.3749976940156,4|0,0:3|0:0,0:0:0:0:
245,231,1710,2,0,L|177:201,1,50.3749976940156,4|0,0:3|0:0,0:0:0:0:
15,250,1996,2,0,L|74:206,1,50.3749976940156,4|0,0:3|0:0,0:0:0:0:
315,74,2424,6,0,P|385:140|280:109,1,248,4|0,0:0|0:0,0:0:0:0:
367,250,6138,5,2,0:0:0:0:
367,250,6281,1,2,0:0:0:0:
387,146,6423,6,0,B|311:242|274:459|546:415|526:231|407:206|367:251,1,465.000017738343,0|4,1:0|0:3,0:0:0:0:
54,265,10709,6,0,P|82:220|63:161,1,104.624996807098,0|0,0:0|0:0,0:0:0:0:
71,171,10995,6,0,P|97:209|143:211,1,81.3749975166321,0|0,0:0|0:0,0:0:0:0:
130,215,11281,6,0,P|93:224|70:244,1,58.125,0|0,0:0|0:0,0:0:0:0:
136,298,11566,6,0,B|190:319|229:290|229:290|280:251|329:282,1,201.499990776062,4|0,0:3|0:0,0:0:0:0:
481,289,11995,6,0,P|437:312|397:300,1,81.3749975166322,2|0,1:2|0:0,0:0:0:0:
388,220,12281,2,0,P|432:197|472:209,1,81.3749975166322,2|0,0:0|0:0,0:0:0:0:
280,83,12566,2,0,P|314:138|291:212,1,122.062496274948,2|0,0:0|0:0,0:0:0:0:
292,207,12852,5,0,0:0:0:0:
213,246,12995,2,0,P|198:277|202:329,1,81.3749975166322,0|0,0:0|0:0,0:0:0:0:
341,349,13281,6,2,P|356:318|352:265,1,85.2500026016236,2|0,1:1|0:0,0:1:0:0:
53,69,13852,6,0,B|103:43|157:78|157:78|231:122|292:60,1,216.999993377686,4|0,0:3|0:0,0:0:0:0:
398,164,14281,6,0,P|355:143|315:153,1,81.3749975166322,2|0,1:2|0:0,0:0:0:0:
251,276,14566,2,0,P|243:217|269:176,1,81.3749975166322,2|0,0:0|0:0,0:0:0:0:
272,58,14852,2,0,P|215:119|168:112,1,122.062496274948,2|0,0:0|0:0,0:0:0:0:
167,107,15138,5,0,0:0:0:0:
167,107,15281,2,0,L|178:198,1,81.3749975166322,0|0,0:0|0:0,0:0:0:0:
10,276,15566,6,2,L|-1:185,1,85.2500026016236,2|0,1:1|0:0,0:1:0:0:
5,361,16138,6,0,B|58:359|87:318|87:318|110:376|171:376,1,201.499990776062,4|0,0:3|0:0,0:0:0:0:
182,206,16566,2,0,P|128:216|98:249,1,81.3749975166322,2|0,1:2|0:0,0:0:0:0:
243,334,16852,2,0,P|261:282|247:239,1,81.3749975166322,2|0,0:0|0:0,0:0:0:0:
370,184,17138,2,0,P|423:228|492:208,1,122.062496274948,2|0,0:0|0:0,0:0:0:0:
484,204,17423,5,0,0:0:0:0:
461,86,17566,2,0,L|377:95,1,81.3749975166322,0|0,0:0|0:0,0:0:0:0:
256,257,17852,6,2,L|353:268,1,85.2500026016236,2|0,1:1|0:0,0:1:0:0:
80,107,18423,6,0,B|48:94|33:66|33:66|57:233,1,216.999993377686,4|0,0:3|0:0,0:0:0:0:
208,270,18852,2,0,P|155:247|119:263,1,81.3749975166322,2|0,1:2|0:0,0:0:0:0:
76,384,19138,2,0,P|61:336|71:294,1,81.3749975166322,2|0,0:0|0:0,0:0:0:0:
192,156,19423,6,0,B|216:187|216:187|206:281,1,122.062496274948,2|0,0:0|0:0,0:0:0:0:
203,290,19709,1,0,0:0:0:0:
123,269,19852,6,0,L|131:196,1,54.2499983444214,0|0,0:0|0:0,0:0:0:0:
295,138,20138,6,0,L|302:228,1,77.5,0|0,1:0|1:0,0:0:0:0:
470,296,20423,6,0,L|480:188,1,100.749995388031,4|0,0:3|0:0,0:0:0:0:
424,124,20709,6,0,B|364:98|302:146|302:146|241:190|166:133,1,248,4|2,0:0|0:0,0:0:0:0:
0,125,21138,2,0,P|60:72|150:104,2,155,2|0|2,0:0|1:0|0:0,0:0:0:0:
124,331,21995,5,0,0:0:0:0:
124,331,22138,2,0,P|133:291|134:260,1,58.1250022172929,2|2,0:0|0:0,0:0:0:0:
214,232,22423,2,0,P|222:300|241:349,1,116.250004434586,0|0,1:0|0:0,0:0:0:0:
238,344,22995,6,0,B|282:327|324:353|324:353|382:387|441:338,1,185.999994323731,2|2,0:0|0:0,0:0:0:0:
409,196,23423,2,0,P|343:219|380:281,2,155,0|2|2,1:0|0:0|0:0,0:0:0:0:
289,99,24281,5,2,0:0:0:0:
211,140,24423,2,0,P|174:135|147:117,1,58.1250022172929,0|2,0:0|0:0,0:0:0:0:
306,50,24709,2,0,P|297:106|285:127,1,58.1250022172929,0|0,1:0|0:0,0:0:0:0:
213,150,24995,2,0,P|176:145|149:127,1,58.1250022172929,0|0,0:0|0:0,0:0:0:0:
46,223,25281,6,0,P|126:218|75:294,1,185.999994323731,2|2,0:0|0:0,0:0:0:0:
298,301,25709,2,0,P|227:299|269:228,2,155,2|2|2,1:2|0:0|0:0,0:0:0:0:
383,54,26566,5,0,0:0:0:0:
383,54,26709,2,0,L|374:113,1,58.1250022172929,2|2,0:0|0:0,0:0:0:0:
291,141,26995,2,0,L|277:14,1,116.250004434586,0|0,1:0|0:0,0:0:0:0:
278,25,27566,6,0,B|233:-1|188:19|188:19|152:69|76:42,1,185.999994323731,2|0,0:0|0:0,0:0:0:0:
0,149,27995,2,0,P|61:129|97:145,1,77.5,2|0,1:2|0:0,0:0:0:0:
193,313,28281,2,0,P|145:270|141:230,1,77.5,2|0,0:0|0:0,0:0:0:0:
243,64,28566,2,0,P|229:126|197:150,1,77.5,2|0,0:0|0:0,0:0:0:0:
146,175,28852,5,0,3:0:0:0:
146,175,28995,1,0,3:0:0:0:
146,175,29138,1,0,3:0:0:0:
222,134,29281,2,2,B|256:120|290:138|290:138|330:162|391:124,1,139.499995742798,2|0,1:1|0:1,0:1:0:0:
356,141,29566,6,0,L|349:68,1,58.1250022172929,0|0,3:0|0:0,0:0:0:0:
451,16,29852,6,2,L|435:239,1,216.999993377686,2|2,0:1|0:1,0:1:0:0:
348,366,30281,6,0,P|363:322|407:296,1,77.5,2|0,1:2|0:0,0:0:0:0:
501,379,30566,2,0,P|493:336|462:303,1,77.5,0|0,0:0|0:0,0:0:0:0:
443,141,30852,1,2,0:0:0:0:
263,339,31138,5,0,0:0:0:0:
263,339,31281,2,0,L|251:266,1,58.1250022172929,2|2,0:0|0:0,0:0:0:0:
285,201,31566,2,0,P|352:198|383:241,1,116.250004434586,0|0,1:0|0:0,0:0:0:0:
380,232,32138,6,0,B|338:215|292:244|292:244|242:278|180:246,1,185.999994323731,2|2,0:0|0:0,0:0:0:0:
100,235,32566,2,0,P|122:281|104:328,1,77.5,2|0,1:2|0:0,0:0:0:0:
212,114,32852,2,0,P|190:68|208:21,1,77.5,0|0,0:0|0:0,0:0:0:0:
111,220,33138,1,2,0:0:0:0:
203,126,33423,5,0,0:0:0:0:
274,173,33566,1,0,0:0:0:0:
270,197,33709,1,0,0:0:0:0:
337,117,33852,1,0,1:0:0:0:
333,93,33995,1,2,0:0:0:0:
412,156,34138,1,0,0:0:0:0:
408,180,34281,1,0,0:0:0:0:
491,118,34423,6,0,B|443:95|395:127|395:127|345:155|288:117,1,185.999994323731,2|2,0:0|0:0,0:0:0:0:
174,95,34852,6,0,P|224:72|260:85,1,77.5,2|0,1:2|0:0,0:0:0:0:
302,203,35138,2,0,P|318:148|303:114,1,77.5,2|0,0:0|0:0,0:0:0:0:
342,14,35423,1,2,0:0:0:0:
403,290,35709,5,0,0:0:0:0:
403,290,35852,2,0,P|360:275|336:280,1,58.1250022172929,2|2,0:0|0:0,0:0:0:0:
276,324,36138,2,0,P|217:332|168:300,1,116.250004434586,0|0,1:0|0:0,0:0:0:0:
170,303,36709,6,0,P|245:276|174:220,1,185.999994323731,2|0,0:0|0:0,0:0:0:0:
38,226,37138,2,0,P|86:245|134:218,1,77.5,2|0,1:2|0:0,0:0:0:0:
139,52,37423,2,0,P|91:33|43:60,1,77.5,2|0,0:0|0:0,0:0:0:0:
186,195,37709,5,2,0:0:0:0:
186,195,37995,1,0,3:0:0:0:
212,179,38138,1,0,3:0:0:0:
186,164,38281,1,0,3:0:0:0:
162,279,38423,5,0,1:0:0:0:
246,259,38566,1,0,0:0:0:0:
329,286,38709,1,0,3:0:0:0:
413,258,38852,1,0,3:0:0:0:
361,105,38995,6,0,P|301:98|258:180,1,155,4|0,0:3|0:0,0:0:0:0:
203,244,39423,2,0,B|166:264|127:243|127:243|86:217|28:250,1,155,0|0,1:3|0:0,0:0:0:0:
44,327,39852,2,0,P|92:342|132:330,1,77.5,8|0,0:3|0:0,0:0:0:0:
256,170,40138,6,2,P|174:126|108:153,1,155,2|2,0:1|1:1,0:1:0:0:
391,318,40995,5,2,0:0:0:0:
391,318,41281,2,0,B|392:248|407:205|407:205|391:221|363:225,1,155,4|0,0:3|0:0,0:0:0:0:
156,261,41709,2,0,B|200:251|230:275|230:275|268:297|313:276,1,155,4|0,0:3|0:0,0:0:0:0:
371,223,42138,2,0,P|373:182|357:147,1,77.5,4|0,0:3|0:0,0:0:0:0:
205,94,42423,6,2,P|272:106|325:38,1,155,2|2,0:1|1:1,0:1:0:0:
44,205,43566,6,0,P|120:192|164:264,1,155,4|0,0:3|0:0,0:0:0:0:
249,217,43995,2,0,P|239:151|318:103,1,155,0|0,1:0|0:0,0:0:0:0:
381,150,44423,2,0,L|370:228,1,77.5,8|0,0:3|0:0,0:0:0:0:
253,293,44709,6,2,B|293:277|325:299|325:299|362:324|411:301,1,155,2|2,0:1|1:1,0:1:0:0:
153,146,45566,2,0,P|148:124|147:99,1,38.75,0|0,0:0|0:0,0:0:0:0:
194,35,45852,6,2,L|168:328,1,278.999991485596,6|2,0:1|1:1,0:1:0:0:
169,312,46709,5,4,0:3:0:0:
169,228,46995,1,2,0:0:0:0:
249,202,47281,1,2,0:0:0:0:
298,270,47566,1,2,0:0:0:0:
249,338,47852,1,2,0:0:0:0:
169,312,48138,6,0,B|128:296|93:316|93:316|49:339|12:317,1,155,4|0,0:3|0:0,0:0:0:0:
10,128,48566,2,0,P|70:176|32:251,1,155,0|0,1:3|0:0,0:0:0:0:
118,296,48995,2,0,P|159:274|207:291,1,77.5,8|0,0:3|0:0,0:0:0:0:
385,306,49281,6,2,P|348:344|244:334,1,155,2|2,0:1|1:1,0:1:0:0:
156,70,50138,5,2,0:0:0:0:
156,70,50423,2,0,B|183:60|194:43|194:43|169:173,1,155,4|0,0:3|0:0,0:0:0:0:
50,219,50852,2,0,B|91:203|126:223|126:223|170:246|207:224,1,155,0|0,1:3|0:0,0:0:0:0:
326,184,51281,2,0,P|283:162|243:172,1,77.5,4|0,0:3|0:0,0:0:0:0:
190,316,51566,6,2,P|235:353|338:340,1,155,2|2,0:1|1:1,0:1:0:0:
450,75,52709,6,0,B|409:59|374:79|374:79|330:102|293:80,1,155,4|0,0:3|0:0,0:0:0:0:
261,10,53138,2,0,P|223:48|249:148,1,155,0|0,1:0|0:0,0:0:0:0:
351,247,53566,2,0,P|367:300|353:335,1,77.5,4|0,0:3|0:0,0:0:0:0:
283,358,53852,6,2,P|244:298|274:214,1,155,2|2,0:1|1:1,0:1:0:0:
265,222,54709,2,0,L|274:274,1,38.75,0|0,0:0|0:0,0:0:0:0:
208,320,54995,6,0,P|156:340|76:277,1,155,4|2,0:3|0:0,0:0:0:0:
265,222,55423,6,0,P|345:253|438:148,1,232.500008869171,4|2,0:3|0:0,0:0:0:0:
213,119,55852,6,2,P|134:171|0:42,1,310,6|2,0:1|0:0,0:1:0:0:
29,68,56423,1,2,0:0:0:0:
41,104,56709,1,2,0:0:0:0:
35,139,56995,1,2,0:0:0:0:
12,169,57281,6,2,B|75:148|122:191|122:191|190:244|275:174,1,232.500008869171,6|2,0:1|0:1,0:1:0:0:
216,53,57709,6,0,P|180:107|199:153,1,85.2500026016236,2|0,1:2|0:0,0:0:0:0:
281,270,57995,2,0,P|317:216|298:170,1,85.2500026016236,2|0,0:0|0:0,0:0:0:0:
229,203,58281,6,0,L|248:386,1,170.500005203247,2|2,0:0|0:0,0:0:0:0:
334,328,58709,2,0,L|342:234,1,85.2500026016236,0|2,0:0|0:0,0:0:0:0:
196,94,58995,5,0,1:0:0:0:
181,178,59138,1,2,0:0:0:0:
258,219,59281,1,4,0:3:0:0:
319,159,59423,1,0,0:0:0:0:
281,83,59566,6,2,B|221:57|162:104|162:104|106:140|31:98,1,232.500008869171,6|2,0:1|0:1,0:1:0:0:
84,285,59995,6,0,P|107:235|96:197,1,85.2500026016236,2|0,1:2|0:0,0:0:0:0:
17,188,60281,2,0,P|-6:238|5:276,1,85.2500026016236,2|0,0:0|0:0,0:0:0:0:
136,357,60566,6,0,L|328:342,1,170.500005203247,2|2,0:0|0:0,0:0:0:0:
369,281,60995,2,0,L|465:296,1,85.2500026016236,0|2,0:0|0:0,0:0:0:0:
305,343,61281,5,0,1:0:0:0:
276,191,61423,1,2,0:0:0:0:
417,242,61566,2,0,L|402:341,1,85.2500026016236,4|0,0:3|0:0,0:0:0:0:
234,108,61852,6,2,B|294:82|353:129|353:129|409:165|484:123,1,232.500008869171,6|2,0:1|0:1,0:1:0:0:
255,190,62281,6,0,P|211:193|167:155,1,85.2500026016236,0|0,1:2|0:0,0:0:0:0:
104,116,62566,2,0,P|60:113|16:151,1,85.2500026016236,2|0,0:0|0:0,0:0:0:0:
5,241,62852,6,0,P|61:216|148:286,1,170.500005203247,2|2,0:0|0:0,0:0:0:0:
219,323,63281,2,0,P|269:320|303:281,1,85.2500026016236,0|2,0:0|0:0,0:0:0:0:
361,104,63566,5,0,1:0:0:0:
279,130,63709,1,0,3:0:0:0:
279,215,63852,1,0,3:0:0:0:
361,242,63995,1,0,3:0:0:0:
411,173,64138,5,4,0:3:0:0:
29,272,64423,5,0,0:0:0:0:
350,320,64709,5,0,1:0:0:0:
93,120,64995,5,2,0:0:0:0:
176,89,65281,5,2,0:0:0:0:
93,120,65566,5,2,3:1:0:0:
98,149,65709,1,0,3:0:0:0:
154,218,65852,5,2,3:1:0:0:
13,163,65995,1,0,3:0:0:0:
68,232,66138,5,2,0:1:0:0:
181,138,66281,1,0,0:0:0:0:
121,297,66423,6,2,B|168:337|235:290|235:290|281:256|338:285,1,232.500008869171,6|2,0:1|0:1,0:1:0:0:
403,340,66852,6,0,P|422:287|406:238,1,85.2500026016236,2|0,1:2|0:0,0:0:0:0:
351,204,67138,2,0,P|332:257|348:306,1,85.2500026016236,2|0,0:0|0:0,0:0:0:0:
429,176,67423,6,0,L|397:2,1,170.500005203247,2|2,0:0|0:0,0:0:0:0:
512,42,67852,2,0,L|500:149,1,85.2500026016236,0|2,0:0|0:0,0:0:0:0:
363,294,68138,5,0,1:0:0:0:
281,267,68281,1,2,0:0:0:0:
281,182,68423,1,4,0:3:0:0:
363,156,68566,1,0,0:0:0:0:
413,225,68709,6,2,B|356:196|310:230|310:230|243:277|185:229,1,232.500008869171,6|2,0:1|0:1,0:1:0:0:
92,52,69138,6,0,P|112:85|90:159,1,85.2500026016236,2|0,1:2|0:0,0:0:0:0:
46,187,69423,2,0,P|26:154|48:80,1,85.2500026016236,2|0,0:0|0:0,0:0:0:0:
92,52,69709,6,0,L|275:72,1,170.500005203247,2|2,0:0|0:0,0:0:0:0:
336,121,70138,2,0,L|438:108,1,85.2500026016236,0|2,0:0|0:0,0:0:0:0:
261,70,70423,5,0,1:0:0:0:
302,240,70566,1,2,0:0:0:0:
426,121,70709,2,0,L|341:131,1,85.2500026016236,4|0,0:3|0:0,0:0:0:0:
84,228,70995,6,2,B|141:199|187:233|187:233|254:280|312:232,1,232.500008869171,6|2,0:1|0:1,0:1:0:0:
459,230,71423,6,0,P|388:205|354:227,1,85.2500026016236,0|0,1:0|0:0,0:0:0:0:
355,308,71709,2,0,P|426:333|460:311,1,85.2500026016236,2|0,0:0|0:0,0:0:0:0:
301,239,71995,6,0,P|242:296|147:270,1,170.500005203247,2|2,0:0|0:0,0:0:0:0:
167,193,72423,2,0,P|215:167|267:183,1,85.2500026016236,0|2,0:0|0:0,0:0:0:0:
312,366,72709,5,0,1:0:0:0:
230,339,72852,1,2,0:0:0:0:
230,254,72995,1,4,0:3:0:0:
312,228,73138,1,0,0:0:0:0:
362,297,73281,5,6,0:0:0:0:
312,228,73566,1,0,0:0:0:0:
230,254,73852,1,0,0:0:0:0:
230,339,74138,1,0,0:0:0:0:
312,366,74423,6,0,L|331:158,1,174.375006651879,4|0,0:0|0:0,0:0:0:0:
330,172,74709,1,0,0:0:0:0:
207,189,74852,1,0,0:0:0:0:
57,208,74995,5,2,0:0:0:0:
207,189,75138,1,0,0:0:0:0:
330,172,75281,1,2,0:0:0:0:
430,156,75423,1,0,0:0:0:0:
512,148,75566,6,0,B|489:208|495:287|495:287|475:269|455:223,1,201.499990776062,4|0,0:3|0:0,0:0:0:0:
341,85,75995,6,0,P|283:91|257:130,1,81.3749975166322,2|0,1:2|0:0,0:0:0:0:
295,193,76281,2,0,P|353:187|379:148,1,81.3749975166322,2|0,0:0|0:0,0:0:0:0:
473,306,76566,2,0,P|412:268|343:292,1,122.062496274948,2|0,0:0|0:0,0:0:0:0:
356,292,76852,5,0,0:0:0:0:
282,343,76995,2,0,P|237:343|202:316,1,81.3749975166322,0|0,0:0|0:0,0:0:0:0:
245,181,77281,6,2,P|292:182|327:209,1,85.2500026016236,2|0,1:1|0:0,0:1:0:0:
465,62,77852,6,0,B|404:43|360:76|360:76|298:116|247:75,1,216.999993377686,4|0,0:3|0:0,0:0:0:0:
148,22,78281,2,0,P|177:88|168:121,1,81.3749975166322,2|0,0:0|0:0,0:0:0:0:
59,189,78566,2,0,P|119:187|151:150,1,81.3749975166322,2|0,0:0|0:0,0:0:0:0:
224,173,78852,6,0,P|284:181|324:252,1,122.062496274948,2|0,0:0|0:0,0:0:0:0:
314,246,79138,5,0,0:0:0:0:
391,292,79281,2,0,L|410:207,1,81.3749975166322,2|0,0:0|0:0,0:0:0:0:
227,257,79566,6,0,L|257:128,1,100.749995388031,2|0,1:2|0:0,0:0:0:0:
63,230,79852,6,0,L|98:86,1,124,2|0,0:0|0:0,0:0:0:0:
156,44,80138,6,0,B|211:29|250:58|250:58|303:97|367:59,1,201.499990776062,4|2,0:3|0:0,0:0:0:0:
190,127,80566,6,0,P|171:163|193:234,1,81.3749975166322,2|0,1:2|0:0,0:0:0:0:
240,259,80852,2,0,P|259:223|237:152,1,81.3749975166322,2|0,0:0|0:0,0:0:0:0:
48,315,81138,2,0,P|109:277|170:305,1,122.062496274948,2|0,0:0|0:0,0:0:0:0:
162,310,81423,5,0,0:0:0:0:
244,344,81566,2,0,P|289:344|326:309,1,81.3749975166322,0|0,0:0|0:0,0:0:0:0:
272,161,81852,6,2,P|227:161|185:199,1,85.2500026016236,2|0,1:1|0:0,0:1:0:0:
396,291,82423,6,0,B|430:303|459:337|459:337|433:226|454:168,1,216.999993377686,4|0,0:3|0:0,0:0:0:0:
410,57,82852,2,0,P|389:105|402:158,1,81.3749975166322,2|0,0:0|0:0,0:0:0:0:
510,138,83138,2,0,P|503:70|473:45,1,81.3749975166322,2|0,0:0|0:0,0:0:0:0:
391,132,83423,2,0,B|356:118|327:134|327:134|295:152|260:131,1,122.062496274948,2|0,0:0|0:0,0:0:0:0:
260,124,83709,5,0,0:0:0:0:
260,124,83852,2,0,L|275:207,1,81.3749975166322,2|0,0:0|0:0,0:0:0:0:
73,339,84138,5,2,1:2:0:0:
159,351,84281,1,0,0:0:0:0:
42,257,84423,5,2,0:0:0:0:
128,269,84566,1,0,0:0:0:0:
93,185,84709,6,0,B|148:170|187:199|187:199|240:238|304:200,1,201.499990776062,4|0,0:3|0:0,0:0:0:0:
441,203,85138,6,0,P|387:181|345:198,1,81.3749975166322,2|0,1:2|0:0,0:0:0:0:
348,271,85423,2,0,P|402:293|444:276,1,81.3749975166322,2|0,0:0|0:0,0:0:0:0:
262,242,85709,2,0,P|241:307|179:326,1,122.062496274948,2|0,0:0|0:0,0:0:0:0:
180,314,85995,5,0,0:0:0:0:
113,257,86138,2,0,L|119:162,1,81.3749975166322
178,36,86423,6,2,L|187:120,1,85.2500026016236,2|0,1:1|0:0,0:1:0:0:
489,226,86995,6,0,B|439:200|385:235|385:235|311:279|250:217,1,216.999993377686,4|0,0:3|0:0,0:0:0:0:
304,90,87423,6,0,P|329:149|309:196,1,81.3749975166322,2|0,0:0|0:0,0:0:0:0:
222,303,87709,2,0,P|197:244|217:197,1,81.3749975166322,2|0,0:0|0:0,0:0:0:0:
130,174,87995,2,0,P|87:224|7:216,1,122.062496274948,2|0,0:0|0:0,0:0:0:0:
26,213,88281,5,0,0:0:0:0:
11,85,88423,2,0,L|105:90,1,81.3749975166322,2|0,0:0|0:0,0:0:0:0:
271,185,88709,6,0,L|138:199,1,108.499996688843,4|4,0:3|0:3,0:0:0:0:
333,35,88995,6,0,L|488:55,1,131.750002512932,4|4,0:3|0:3,0:0:0:0:
424,255,89281,5,2,0:0:0:0:
424,255,89566,1,2,0:0:0:0:
271,202,89852,1,0,0:0:0:0:
303,281,90138,5,0,0:0:0:0:
360,99,90281,1,2,0:0:0:0:
390,175,90566,5,2,0:0:0:0:
236,127,90709,1,0,0:0:0:0:
271,202,90995,5,2,0:0:0:0:
456,38,91281,2,0,L|462:78,1,38.75,2|0,0:0|0:0,0:0:0:0:
476,159,91566,1,2,0:0:0:0:
476,159,91852,5,0,0:0:0:0:
350,237,91995,2,0,P|319:232|299:223,1,38.75,2|0,0:0|0:0,0:0:0:0:
259,55,92281,2,0,P|270:84|272:106,1,38.75,2|0,0:0|0:0,0:0:0:0:
152,230,92566,2,0,P|171:205|189:192,1,38.75,2|0,0:0|0:0,0:0:0:0:
271,91,92852,5,2,0:0:0:0:
312,229,92995,1,2,0:2:0:0:
177,201,93138,1,0,0:0:0:0:
254,171,93281,5,2,0:0:0:0:
254,171,93566,1,2,0:0:0:0:
254,171,93852,1,4,0:0:0:0:
