osu file format v14

[General]
AudioFilename: audio.mp3
AudioLeadIn: 0
PreviewTime: 57281
Countdown: 0
SampleSet: Soft
StackLeniency: 0.7
Mode: 0
LetterboxInBreaks: 0
WidescreenStoryboard: 1

[Editor]
Bookmarks: 2424,11566,20709,29852,38995,48138,57281,66423,84709,89281,93852
DistanceSpacing: 1.9
BeatDivisor: 8
GridSize: 32
TimelineZoom: 3.399999

[Metadata]
Title:Shadow gate to love
TitleUnicode:Shadow gate to love
Artist:Guilty Kiss
ArtistUnicode:Guilty Kiss
Creator:Kisses
Version:Karen's Insane
Source:Love Live! Sunshine!!
Tags:Left Karen Dream117er Nardoxyribonucleic ラブライブ!サンシャイン!! love live school idol project suzuki aina 鈴木愛奈 aida rikako 逢田梨香子 kobayashi aika 小林愛香 ohara mari 小原鞠莉 ギルティキス
BeatmapID:1370268
BeatmapSetID:630109

[Difficulty]
HPDrainRate:6
CircleSize:4
OverallDifficulty:8
ApproachRate:9
SliderMultiplier:2.8
SliderTickRate:1

[Events]
//Background and Video events
0,0,"sfw BG.jpg",0,0
//Break Periods
//Storyboard Layer 0 (Background)
//Storyboard Layer 1 (Fail)
//Storyboard Layer 2 (Pass)
//Storyboard Layer 3 (Foreground)
//Storyboard Sound Samples

[TimingPoints]
282,571.428571428571,4,2,0,70,1,0
282,-133.333333333333,4,2,0,70,0,0
496,-133.333333333333,4,2,0,5,0,0
567,-133.333333333333,4,2,0,70,0,0
781,-133.333333333333,4,2,0,5,0,0
853,-133.333333333333,4,2,0,70,0,0
1067,-133.333333333333,4,2,0,5,0,0
1424,-133.333333333333,4,2,0,70,0,0
1639,-133.333333333333,4,2,0,5,0,0
1710,-133.333333333333,4,2,0,70,0,0
1924,-133.333333333333,4,2,0,5,0,0
1996,-133.333333333333,4,2,0,70,0,0
2210,-133.333333333333,4,2,0,5,0,0
2424,571.428571428571,4,2,0,70,1,0
2852,-133.333333333333,4,2,0,70,0,0
6138,-133.333333333333,4,2,0,50,0,0
6995,-133.333333333333,4,2,0,70,0,0
11566,-100,4,2,0,70,0,0
20709,-133.333333333333,4,2,0,70,0,0
38995,-117.647058823529,4,2,0,70,0,0
46709,-95.238095238095,4,2,0,70,0,0
48138,-117.647058823529,4,2,0,70,0,0
54995,-95.2380952380952,4,2,0,70,0,0
57281,-86.9565217391304,4,2,0,70,0,1
75566,-100,4,2,0,70,0,0
89281,-133.333333333333,4,2,0,40,0,0

[Colours]
Combo1 : 22,182,138
Combo2 : 241,73,73
Combo3 : 196,94,157
Combo4 : 48,120,228
Combo5 : 224,224,224
Combo6 : 149,244,244

[HitObjects]
166,134,282,6,0,B|196:107|196:107|244:108,1,78.7500030040742,4|0,0:3|0:0,0:0:0:0:
196,264,567,2,0,B|157:251|157:251|134:209,1,78.7500030040742,4|0,0:3|0:0,0:0:0:0:
295,168,853,2,0,B|303:207|303:207|278:248,1,78.7500030040742,4|0,0:3|0:0,0:0:0:0:
299,253,1424,6,0,B|324:212|324:212|313:162,1,78.7500030040742,4|0,0:3|0:0,0:0:0:0:
119,225,1710,2,0,B|142:267|142:267|190:282,1,78.7500030040742,4|0,0:3|0:0,0:0:0:0:
238,87,1995,2,0,B|190:86|190:86|152:120,1,78.7500030040742,4|0,0:3|0:0,0:0:0:0:
281,349,2424,6,0,L|454:332,1,140,4|0,0:0|0:0,0:0:0:0:
435,320,2852,6,0,L|442:263,1,52.5000020027161,2|0,0:0|0:0,0:0:0:0:
349,239,3138,2,0,L|342:182,1,52.5000020027161,2|0,0:0|0:0,0:0:0:0:
343,86,3423,1,2,0:0:0:0:
512,155,3709,1,0,0:0:0:0:
411,25,3995,1,0,0:0:0:0:
411,25,4138,2,0,P|432:74|416:141,1,105.000004005432,2|0,0:0|0:0,0:0:0:0:
457,230,4566,1,0,0:0:0:0:
457,230,4709,6,0,L|336:217,1,105.000004005432,2|0,0:0|0:0,0:0:0:0:
241,178,5138,2,0,P|247:224|245:255,1,52.5000020027161,2|0,0:0|0:0,0:0:0:0:
305,309,5423,2,0,P|287:351|269:377,1,52.5000020027161,0|0,0:0|0:0,0:0:0:0:
166,368,5709,2,0,L|52:357,1,105.000004005432,2|0,0:0|0:0,0:0:0:0:
49,343,6138,5,2,0:0:0:0:
166,261,6281,1,2,0:0:0:0:
34,327,6423,2,0,L|103:318,1,52.5000020027161,0|0,1:0|0:0,0:0:0:0:
279,343,6709,1,2,0:0:0:0:
166,261,6852,1,2,0:0:0:0:
295,326,6995,6,0,L|226:317,1,52.5000020027161,4|0,0:3|0:0,0:0:0:0:
134,162,7423,1,2,0:0:0:0:
154,384,7709,1,0,0:0:0:0:
256,180,7995,6,0,L|251:242,1,52.5000020027161,2|0,0:0|0:0,0:0:0:0:
49,223,8281,2,0,L|54:285,1,52.5000020027161,0|0,0:0|0:0,0:0:0:0:
214,325,8566,1,0,0:0:0:0:
214,325,8709,2,0,B|252:334|288:323|288:323|321:313|378:333,1,157.500006008148,2|0,0:0|0:0,0:0:0:0:
387,341,9281,6,0,P|377:268|398:232,1,105.000004005432,2|0,0:0|0:0,0:0:0:0:
474,197,9709,1,2,0:0:0:0:
316,82,9995,1,0,0:0:0:0:
419,23,10281,2,0,P|412:75|407:141,1,105.000004005432,2|0,0:0|0:0,0:0:0:0:
298,197,10709,5,2,0:0:0:0:
204,186,10995,5,2,0:0:0:0:
142,113,11281,5,2,0:0:0:0:
2,213,11566,6,0,P|72:199|136:250,1,140,4|0,0:3|0:0,0:0:0:0:
202,334,11995,2,0,L|122:325,1,70,2|0,1:2|0:0,0:0:0:0:
145,224,12281,2,0,L|225:215,1,70,2|0,0:0|0:0,0:0:0:0:
54,291,12566,6,0,L|69:151,1,140,2|0,0:0|0:0,0:0:0:0:
127,57,12995,1,0,0:0:0:0:
62,131,13138,1,0,0:0:0:0:
142,43,13281,2,0,L|61:32,1,70,0|0,1:0|0:0,0:0:0:0:
246,27,13566,1,0,0:0:0:0:
311,101,13709,1,0,0:0:0:0:
231,13,13852,6,0,L|376:4,1,140,4|0,0:3|0:0,0:0:0:0:
295,114,14281,2,0,P|288:149|290:190,1,70,2|0,1:2|0:0,0:0:0:0:
437,113,14566,2,0,P|407:132|379:163,1,70,2|0,0:0|0:0,0:0:0:0:
499,256,14852,6,0,L|349:242,1,140,2|0,0:0|0:0,0:0:0:0:
210,218,15281,1,0,0:0:0:0:
366,332,15423,1,0,0:0:0:0:
274,356,15566,6,0,L|273:274,1,70,0|0,1:0|0:0,0:0:0:0:
359,242,15852,1,0,0:0:0:0:
188,310,15995,1,0,0:0:0:0:
72,185,16138,6,0,P|133:173|204:208,1,140,4|0,0:3|0:0,0:0:0:0:
301,98,16566,2,0,P|293:137|288:190,1,70,2|0,1:2|0:0,0:0:0:0:
167,98,16852,2,0,P|162:63|155:29,1,70,2|0,0:0|0:0,0:0:0:0:
43,142,17138,6,0,L|57:305,1,140,2|0,0:0|0:0,0:0:0:0:
128,361,17566,1,0,0:0:0:0:
154,248,17709,1,0,0:0:0:0:
138,380,17852,2,0,L|54:375,1,70,0|0,1:0|0:0,0:0:0:0:
26,183,18138,1,0,0:0:0:0:
0,296,18281,1,0,0:0:0:0:
16,164,18424,6,0,L|166:171,1,140,4|0,0:3|0:0,0:0:0:0:
262,102,18852,2,0,P|255:61|226:27,1,70,2|0,1:2|0:0,0:0:0:0:
346,149,19138,2,0,P|360:109|352:66,1,70,2|0,0:0|0:0,0:0:0:0:
249,199,19423,1,2,0:0:0:0:
280,285,19566,5,0,0:0:0:0:
409,331,19709,1,0,1:0:0:0:
486,205,19852,1,4,0:3:0:0:
430,117,19995,1,0,0:0:0:0:
367,245,20138,5,0,1:0:0:0:
271,299,20281,1,0,1:0:0:0:
163,242,20423,1,4,0:3:0:0:
182,111,20566,1,0,0:0:0:0:
274,188,20709,6,0,L|262:311,1,105.000004005432,4|2,0:0|0:0,0:0:0:0:
330,381,21138,2,0,L|266:376,1,52.5000020027161,2|0,0:0|0:0,0:0:0:0:
280,281,21423,2,0,L|216:276,1,52.5000020027161,0|0,1:0|0:0,0:0:0:0:
79,357,21709,6,0,P|122:347|186:360,1,105.000004005432,2|0,0:0|0:0,0:0:0:0:
191,375,22138,1,2,0:0:0:0:
88,165,22423,2,0,P|101:218|90:278,1,105.000004005432,0|0,1:0|0:0,0:0:0:0:
259,295,22995,6,0,L|383:287,1,105.000004005432,2|2,0:0|0:0,0:0:0:0:
449,204,23423,2,0,P|443:241|450:270,1,52.5000020027161,2|0,0:0|0:0,0:0:0:0:
372,146,23709,2,0,P|356:180|355:210,1,52.5000020027161,2|0,0:0|0:0,0:0:0:0:
247,197,23995,6,0,P|179:180|127:187,1,105.000004005432,2|2,0:0|0:0,0:0:0:0:
94,257,24423,1,0,0:0:0:0:
94,257,24566,1,2,0:0:0:0:
184,324,24709,2,0,L|177:259,1,52.5000020027161,0|0,1:0|0:0,0:0:0:0:
57,163,24995,2,0,L|62:110,1,52.5000020027161,0|0,0:0|0:0,0:0:0:0:
162,0,25281,6,0,P|139:46|155:103,1,105.000004005432,2|2,0:0|0:0,0:0:0:0:
280,63,25709,2,0,L|211:56,1,52.5000020027161,2|0,1:2|0:0,0:0:0:0:
315,147,25995,2,0,L|262:152,1,52.5000020027161,2|0,0:0|0:0,0:0:0:0:
139,251,26281,6,0,P|183:262|247:229,1,105.000004005432,2|0,0:0|0:0,0:0:0:0:
254,233,26709,1,2,0:0:0:0:
418,105,26995,2,0,L|406:227,1,105.000004005432,0|0,1:0|0:0,0:0:0:0:
323,368,27566,6,0,P|316:333|341:253,1,105.000004005432,2|0,0:0|0:0,0:0:0:0:
294,121,27995,2,0,L|306:192,1,52.5000020027161,2|0,1:2|0:0,0:0:0:0:
394,67,28281,2,0,L|382:138,1,52.5000020027161,2|0,0:0|0:0,0:0:0:0:
508,66,28566,2,0,L|471:127,1,52.5000020027161,2|0,0:0|0:0,0:0:0:0:
458,278,28852,5,0,3:0:0:0:
439,190,28995,1,0,3:0:0:0:
467,297,29138,1,0,3:0:0:0:
357,234,29281,2,0,L|246:223,1,105.000004005432,0|0,1:0|3:0,0:0:0:0:
181,297,29709,1,0,0:0:0:0:
83,215,29852,6,0,P|77:174|104:104,1,105.000004005432,2|2,0:0|0:0,0:0:0:0:
217,66,30281,2,0,L|150:54,1,52.5000020027161,2|0,1:2|0:0,0:0:0:0:
37,16,30566,2,0,L|104:4,1,52.5000020027161,0|0,0:0|0:0,0:0:0:0:
109,127,30852,6,0,L|-11:106,1,105.000004005432,2|0,0:0|0:0,0:0:0:0:
0,126,31281,1,2,0:0:0:0:
130,218,31566,2,0,L|250:197,1,105.000004005432,0|0,1:0|0:0,0:0:0:0:
394,43,32138,6,0,P|342:49|305:104,1,105.000004005432,2|2,0:0|0:0,0:0:0:0:
317,240,32566,2,0,P|322:199|321:177,1,52.5000020027161,2|0,1:2|0:0,0:0:0:0:
221,57,32852,2,0,P|221:83|225:109,1,52.5000020027161,0|0,0:0|0:0,0:0:0:0:
386,127,33138,6,0,L|503:126,1,105.000004005432,2|0,0:0|0:0,0:0:0:0:
509,216,33566,1,0,0:0:0:0:
509,216,33709,1,0,0:0:0:0:
382,285,33852,2,0,P|326:265|260:280,1,105.000004005432,0|0,1:0|0:0,0:0:0:0:
266,359,34281,1,0,0:0:0:0:
164,268,34423,6,0,L|293:252,1,105.000004005432,2|2,0:0|0:0,0:0:0:0:
359,171,34852,2,0,L|358:246,1,52.5000020027161,2|0,1:2|0:0,0:0:0:0:
195,168,35138,2,0,L|194:115,1,52.5000020027161,2|0,0:0|0:0,0:0:0:0:
294,0,35423,6,0,L|285:121,1,105.000004005432,2|0,0:0|0:0,0:0:0:0:
296,121,35852,1,2,0:0:0:0:
138,37,36138,2,0,P|86:25|35:41,1,105.000004005432,0|0,1:0|0:0,0:0:0:0:
91,223,36709,6,0,P|98:170|84:110,1,105.000004005432,2|0,0:0|0:0,0:0:0:0:
197,115,37138,1,2,1:2:0:0:
226,212,37281,1,0,0:0:0:0:
214,97,37423,1,2,0:0:0:0:
208,230,37566,1,0,0:0:0:0:
344,154,37709,6,0,L|275:147,1,52.5000020027161,2|0,0:0|0:0,0:0:0:0:
198,324,37995,2,0,L|250:317,1,52.5000020027161,0|0,3:0|3:0,0:0:0:0:
106,233,38281,1,0,3:0:0:0:
205,132,38423,6,0,L|199:253,1,105.000004005432,0|0,1:0|3:0,0:0:0:0:
342,327,38852,1,0,3:0:0:0:
465,287,38995,6,0,P|422:270|350:316,1,119.000002269745,4|0,0:3|0:0,0:0:0:0:
162,352,39423,2,0,P|205:335|277:381,1,119.000002269745,0|0,1:3|0:0,0:0:0:0:
288,247,39852,2,0,L|293:187,1,59.5000011348725,8|0,0:3|0:0,0:0:0:0:
214,36,40138,6,0,P|234:92|211:164,1,119.000002269745,4|0,0:3|0:0,0:0:0:0:
398,222,40566,2,0,P|378:166|401:94,1,119.000002269745,2|0,0:0|0:0,0:0:0:0:
463,30,40995,2,0,L|383:15,1,59.5000011348725,2|0,0:0|0:0,0:0:0:0:
300,91,41281,6,0,L|181:89,1,119.000002269745,4|0,0:3|0:0,0:0:0:0:
45,109,41709,2,0,L|164:107,1,119.000002269745,4|0,0:3|0:0,0:0:0:0:
234,232,42138,2,0,L|224:152,1,59.5000011348725,4|0,0:3|0:0,0:0:0:0:
162,20,42423,6,0,P|200:21|250:98,1,119.000002269745,4|0,0:3|0:0,0:0:0:0:
142,199,42852,1,2,0:0:0:0:
142,199,42995,2,0,L|64:192,1,59.5000011348725,2|0,1:2|0:0,0:0:0:0:
13,259,43281,1,0,0:0:0:0:
67,71,43423,1,0,0:0:0:0:
13,259,43566,6,0,L|-2:113,1,119.000002269745,4|0,0:3|0:0,0:0:0:0:
142,199,43995,2,0,L|157:53,1,119.000002269745,0|0,1:0|0:0,0:0:0:0:
299,172,44423,2,0,L|213:160,1,59.5000011348725,8|0,0:3|0:0,0:0:0:0:
105,288,44709,6,0,P|143:280|222:318,1,119.000002269745,4|0,0:3|0:0,0:0:0:0:
385,356,45138,2,0,P|347:348|268:386,1,119.000002269745,2|0,0:0|0:0,0:0:0:0:
284,255,45566,1,0,0:0:0:0:
284,255,45709,1,0,0:0:0:0:
149,367,45852,6,0,L|136:248,1,119.000002269745,4|0,0:3|0:0,0:0:0:0:
209,159,46281,2,0,P|162:166|97:121,1,119.000002269745,0|0,1:0|0:0,0:0:0:0:
8,18,46709,6,0,P|27:55|6:124,1,110.249996635437,4|0,0:3|0:0,0:0:0:0:
11,119,46995,2,0,P|-8:156|13:226,1,110.249996635437,2|0,0:0|0:0,0:0:0:0:
7,220,47281,2,0,L|91:222,1,73.4999977569581,2|0,0:0|0:0,0:0:0:0:
170,120,47566,6,0,P|218:103|301:155,1,146.999995513916,2|2,0:0|0:0,0:0:0:0:
303,247,47995,1,0,0:0:0:0:
399,168,48138,6,0,L|264:159,1,119.000002269745,4|0,0:3|0:0,0:0:0:0:
282,342,48566,2,0,L|417:333,1,119.000002269745,0|0,1:3|0:0,0:0:0:0:
500,261,48995,2,0,L|429:253,1,59.5000011348725,8|0,0:3|0:0,0:0:0:0:
321,160,49281,6,0,P|310:103|340:43,1,119.000002269745,4|0,0:3|0:0,0:0:0:0:
194,130,49709,2,0,P|218:183|208:241,1,119.000002269745,2|0,0:0|0:0,0:0:0:0:
252,347,50138,2,0,L|181:335,1,59.5000011348725,2|0,0:0|0:0,0:0:0:0:
6,290,50423,6,0,L|145:283,1,119.000002269745,4|0,0:3|0:0,0:0:0:0:
250,172,50852,2,0,P|195:161|137:201,1,119.000002269745,0|0,1:3|0:0,0:0:0:0:
49,169,51281,2,0,L|40:107,1,59.5000011348725,4|0,0:3|0:0,0:0:0:0:
214,250,51566,6,0,L|206:373,1,119.000002269745,4|0,0:3|0:0,0:0:0:0:
297,314,51995,1,2,0:0:0:0:
118,346,52138,2,0,L|110:278,1,59.5000011348725,0|0,0:0|0:0,0:0:0:0:
233,156,52423,1,0,0:0:0:0:
297,314,52566,1,0,0:0:0:0:
233,156,52709,6,0,P|216:97|239:46,1,119.000002269745,4|0,0:3|0:0,0:0:0:0:
389,49,53138,2,0,P|411:102|394:158,1,119.000002269745,0|0,1:0|0:0,0:0:0:0:
364,252,53566,2,0,L|428:247,1,59.5000011348725,4|0,0:3|0:0,0:0:0:0:
312,108,53852,6,0,L|190:105,1,119.000002269745,4|0,0:3|0:0,0:0:0:0:
93,51,54281,1,2,0:0:0:0:
93,51,54423,2,0,L|109:181,1,119.000002269745,0|0,1:0|0:0,0:0:0:0:
165,266,54852,1,0,0:0:0:0:
165,266,54995,6,0,P|127:265|81:296,1,73.4999977569581,4|0,0:3|0:0,0:0:0:0:
239,374,55281,1,2,0:0:0:0:
255,234,55423,6,0,P|236:200|187:176,1,73.4999977569581,4|0,0:3|0:0,0:0:0:0:
239,374,55709,1,2,0:0:0:0:
329,291,55852,6,0,P|348:258|345:203,1,73.4999977569581,4|0,0:3|0:0,0:0:0:0:
120,240,57281,6,0,P|174:225|246:237,1,120.750002303124,4|0,0:0|0:0,0:0:0:0:
257,248,57566,1,2,0:0:0:0:
248,70,57709,2,0,P|235:111|237:181,1,80.5000015354157,2|0,1:2|0:0,0:0:0:0:
182,321,57995,1,2,0:0:0:0:
182,321,58138,1,0,0:0:0:0:
24,261,58281,6,0,P|26:204|13:175,1,80.5000015354157,2|0,0:0|0:0,0:0:0:0:
111,44,58566,2,0,L|106:140,1,80.5000015354157,2|0,0:0|0:0,0:0:0:0:
241,237,58852,1,2,0:0:0:0:
335,217,58995,1,0,1:0:0:0:
241,237,59138,1,2,0:0:0:0:
262,68,59281,2,0,L|276:166,1,80.5000015354157,4|0,0:3|0:0,0:0:0:0:
317,332,59566,6,0,P|373:342|443:297,1,120.750002303124,4|0,0:3|0:0,0:0:0:0:
439,293,59852,1,2,0:0:0:0:
438,76,59995,2,0,P|424:136|431:214,1,120.750002303124,2|0,1:2|0:0,0:0:0:0:
449,202,60281,2,0,L|314:186,1,120.750002303124,2|0,0:0|0:0,0:0:0:0:
314,169,60566,5,2,0:0:0:0:
226,274,60709,1,0,0:0:0:0:
100,200,60852,2,0,P|154:186|192:187,1,80.5000015354157,2|0,0:0|0:0,0:0:0:0:
323,280,61138,1,2,0:0:0:0:
212,371,61281,1,0,1:0:0:0:
226,274,61423,1,2,0:0:0:0:
349,382,61566,2,0,L|443:364,1,80.5000015354157,4|0,0:3|0:0,0:0:0:0:
414,198,61852,6,0,L|277:189,1,120.750002303124,4|0,0:3|0:0,0:0:0:0:
277,168,62138,1,2,0:0:0:0:
386,23,62281,2,0,P|378:69|372:109,1,80.5000015354157,0|0,1:2|0:0,0:0:0:0:
176,128,62566,2,0,P|184:174|190:214,1,80.5000015354157,2|0,0:0|0:0,0:0:0:0:
231,322,62852,6,0,P|189:306|135:289,1,80.5000015354157,2|0,0:0|0:0,0:0:0:0:
0,213,63138,1,2,0:0:0:0:
57,295,63281,1,0,0:0:0:0:
122,208,63423,1,2,0:0:0:0:
85,382,63566,6,0,L|-2:375,1,80.5000015354157,0|0,1:0|3:0,0:0:0:0:
84,173,63852,2,0,L|164:179,1,80.5000015354157,0|0,3:0|3:0,0:0:0:0:
329,327,64138,6,0,B|216:315|216:315|185:273,1,161.000003070831,4|0,0:3|0:0,0:0:0:0:
203,92,64566,1,2,1:2:0:0:
354,162,64709,2,0,P|288:154|277:241,1,161.000003070831,0|2,1:0|0:0,0:0:0:0:
434,329,65138,1,0,0:0:0:0:
449,198,65281,6,0,P|449:156|461:105,1,80.5000015354157,2|0,0:0|0:0,0:0:0:0:
359,36,65566,1,0,3:0:0:0:
359,36,65709,1,0,3:0:0:0:
304,183,65852,1,0,1:0:0:0:
444,98,65995,1,0,3:0:0:0:
403,197,66138,1,0,0:0:0:0:
270,90,66281,1,0,0:0:0:0:
422,211,66423,6,0,P|361:200|292:202,1,120.750002303124,4|0,0:0|0:0,0:0:0:0:
283,226,66709,1,2,0:0:0:0:
106,125,66852,2,0,P|104:86|92:30,1,80.5000015354157,2|0,1:2|0:0,0:0:0:0:
225,113,67138,2,0,P|233:74|236:17,1,80.5000015354157,2|0,0:0|0:0,0:0:0:0:
8,167,67423,6,0,L|25:262,1,80.5000015354157,2|0,0:0|0:0,0:0:0:0:
172,207,67709,2,0,L|155:302,1,80.5000015354157,2|0,0:0|0:0,0:0:0:0:
292,363,67995,1,2,0:0:0:0:
359,293,68138,1,0,1:0:0:0:
435,352,68281,1,2,0:0:0:0:
336,190,68423,2,0,L|426:211,1,80.5000015354157,4|0,0:3|0:0,0:0:0:0:
247,282,68709,6,0,P|189:288|124:274,1,120.750002303124,4|0,0:3|0:0,0:0:0:0:
117,255,68995,1,2,0:0:0:0:
211,53,69138,2,0,P|200:96|200:179,1,120.750002303124,2|0,1:2|0:0,0:0:0:0:
222,190,69423,2,0,L|346:179,1,120.750002303124,2|0,0:0|0:0,0:0:0:0:
362,197,69709,1,2,0:0:0:0:
361,366,69852,5,0,0:0:0:0:
483,298,69995,2,0,L|400:286,1,80.5000015354157,2|0,0:0|0:0,0:0:0:0:
247,283,70281,1,2,0:0:0:0:
381,182,70423,1,0,1:0:0:0:
234,258,70566,1,2,0:0:0:0:
432,303,70709,2,0,L|517:298,1,80.5000015354157,4|0,0:3|0:0,0:0:0:0:
338,379,70995,6,0,P|345:315|338:253,1,120.750002303124,4|0,0:3|0:0,0:0:0:0:
321,245,71281,1,2,0:0:0:0:
159,355,71423,2,0,P|202:356|251:364,1,80.5000015354157,0|0,1:0|0:0,0:0:0:0:
383,152,71709,2,0,P|340:151|291:143,1,80.5000015354157,2|0,0:0|0:0,0:0:0:0:
173,83,71995,6,0,L|190:169,1,80.5000015354157,2|0,0:0|0:0,0:0:0:0:
274,52,72281,1,2,0:0:0:0:
257,239,72423,1,0,0:0:0:0:
188,98,72566,1,2,0:0:0:0:
242,257,72709,2,0,L|149:249,1,80.5000015354157,0|2,1:0|0:0,0:0:0:0:
80,128,72995,2,0,L|0:134,1,80.5000015354157,4|0,0:3|0:0,0:0:0:0:
43,384,73281,6,0,L|74:218,1,161.000003070831,2|0,0:0|0:0,0:0:0:0:
72,225,73709,1,0,0:0:0:0:
33,38,73852,1,0,0:0:0:0:
33,38,74138,1,0,0:0:0:0:
117,112,74423,5,4,0:0:0:0:
234,27,74709,1,0,0:0:0:0:
354,73,74995,1,0,0:0:0:0:
395,177,75281,1,0,0:0:0:0:
286,301,75566,6,0,P|284:231|299:138,1,140,4|0,0:3|0:0,0:0:0:0:
447,286,75995,2,0,L|375:278,1,70,2|0,1:2|0:0,0:0:0:0:
129,229,76281,2,0,L|207:220,1,70,2|0,0:0|0:0,0:0:0:0:
349,86,76566,6,0,P|274:71|212:121,1,140,2|0,0:0|0:0,0:0:0:0:
283,254,76995,1,0,0:0:0:0:
396,188,77138,1,0,0:0:0:0:
295,231,77281,2,0,L|292:153,1,70,0|0,1:0|0:0,0:0:0:0:
215,18,77566,1,0,0:0:0:0:
100,94,77709,1,0,0:0:0:0:
201,40,77852,2,0,P|203:116|208:198,1,140,4|0,0:3|0:0,0:0:0:0:
8,125,78281,2,0,P|7:90|14:56,1,70,2|0,0:0|0:0,0:0:0:0:
44,248,78566,2,0,P|60:217|85:187,1,70,2|0,0:0|0:0,0:0:0:0:
244,106,78852,6,0,P|166:107|94:97,1,140,2|0,0:0|0:0,0:0:0:0:
142,269,79281,1,2,0:0:0:0:
312,206,79423,1,0,0:0:0:0:
234,373,79566,6,0,L|235:298,1,70,2|0,1:2|0:0,0:0:0:0:
312,206,79852,1,2,0:0:0:0:
142,269,79995,1,0,0:0:0:0:
327,309,80138,6,0,L|481:302,1,140,4|2,0:3|0:0,0:0:0:0:
512,166,80566,2,0,P|478:138|432:124,1,70,2|0,1:2|0:0,0:0:0:0:
512,21,80852,2,0,P|468:13|424:25,1,70,2|0,0:0|0:0,0:0:0:0:
355,179,81138,6,0,B|344:8,1,140,2|0,0:0|0:0,0:0:0:0:
180,1,81566,1,0,0:0:0:0:
257,107,81709,1,0,0:0:0:0:
163,23,81852,2,0,L|71:31,1,70,0|0,1:0|0:0,0:0:0:0:
28,146,82138,1,0,0:0:0:0:
2,259,82281,1,0,0:0:0:0:
18,127,82424,6,0,L|177:134,1,140,4|0,0:3|0:0,0:0:0:0:
239,235,82852,2,0,P|228:268|223:322,1,70,2|0,0:0|0:0,0:0:0:0:
110,370,83138,2,0,P|105:335|94:302,1,70,2|0,0:0|0:0,0:0:0:0:
154,78,83423,6,0,P|148:149|141:244,1,140,2|0,0:0|0:0,0:0:0:0:
324,300,83852,2,0,L|406:292,1,70,2|0,0:0|0:0,0:0:0:0:
386,74,84138,1,2,1:2:0:0:
352,199,84281,1,0,0:0:0:0:
386,74,84423,2,0,L|304:64,1,70,2|0,0:0|0:0,0:0:0:0:
186,125,84709,6,0,P|224:153|234:247,1,140,4|0,0:3|0:0,0:0:0:0:
80,369,85138,2,0,L|158:360,1,70,2|0,1:2|0:0,0:0:0:0:
291,321,85423,2,0,L|360:329,1,70,2|0,0:0|0:0,0:0:0:0:
471,209,85709,6,0,P|425:228|327:228,1,140,2|0,0:0|0:0,0:0:0:0:
213,117,86138,1,0,0:0:0:0:
277,10,86281,1,0,0:0:0:0:
225,140,86423,2,0,P|232:169|234:215,1,70,0|0,1:0|0:0,0:0:0:0:
379,214,86709,1,0,0:0:0:0:
315,107,86852,1,0,0:0:0:0:
367,237,86995,6,0,P|358:293|380:373,1,140,4|0,0:3|0:0,0:0:0:0:
481,241,87423,2,0,L|490:159,1,70,2|0,0:0|0:0,0:0:0:0:
265,193,87709,2,0,L|256:111,1,70,2|0,0:0|0:0,0:0:0:0:
393,46,87995,2,0,P|318:35|252:21,1,140,2|0,0:0|0:0,0:0:0:0:
102,67,88423,1,2,0:0:0:0:
102,67,88566,1,0,0:0:0:0:
163,165,88709,5,4,0:3:0:0:
169,281,88852,1,4,0:3:0:0:
163,165,88995,1,4,0:3:0:0:
169,281,89138,1,4,0:3:0:0:
47,248,89281,6,0,L|58:144,1,105.000004005432,2|0,0:0|0:0,0:0:0:0:
141,79,89709,1,2,0:0:0:0:
141,79,89852,2,0,P|180:74|214:83,1,52.5000020027161,0|0,0:0|0:0,0:0:0:0:
251,197,90138,1,0,0:0:0:0:
251,197,90281,1,0,0:0:0:0:
332,144,90423,6,0,L|323:80,1,52.5000020027161,2|0,0:0|0:0,0:0:0:0:
387,15,90709,1,0,0:0:0:0:
387,15,90852,1,2,0:0:0:0:
509,119,90995,2,0,L|498:194,1,52.5000020027161,0|0,0:0|0:0,0:0:0:0:
412,203,91281,2,0,L|419:254,1,52.5000020027161,0|0,0:0|0:0,0:0:0:0:
441,338,91566,5,2,0:0:0:0:
346,340,91709,1,0,0:0:0:0:
294,260,91852,1,0,0:0:0:0:
330,172,91995,1,2,0:0:0:0:
313,68,92138,6,0,L|242:62,1,52.5000020027161,0|0,0:0|0:0,0:0:0:0:
206,141,92423,2,0,L|135:135,1,52.5000020027161,0|0,0:0|0:0,0:0:0:0:
65,101,92709,1,0,0:0:0:0:
81,194,92852,1,0,0:0:0:0:
95,287,92995,1,0,0:2:0:0:
108,380,93138,1,0,0:0:0:0:
196,308,93281,6,0,L|197:243,1,52.5000020027161,0|0,0:0|0:0,0:0:0:0:
1,314,93566,2,0,L|1:261,1,52.5000020027161,0|0,0:0|0:0,0:0:0:0:
97,154,93852,1,0,0:0:0:0:
