osu file format v14

[General]
AudioFilename: audio.mp3
AudioLeadIn: 0
PreviewTime: -1
Countdown: 1
SampleSet: None
StackLeniency: 0.7
Mode: 0
LetterboxInBreaks: 0
WidescreenStoryboard: 0

[Editor]
DistanceSpacing: 1.3
BeatDivisor: 4
GridSize: 4
TimelineZoom: 1

[Metadata]
Title:Shadow gate to love
TitleUnicode:Shadow gate to love
Artist:Guilty Kiss
ArtistUnicode:Guilty Kiss
Creator:Bara-
Version:Darkness
Source:
Tags:
BeatmapID:1313517
BeatmapSetID:623182

[Difficulty]
HPDrainRate:6.2
CircleSize:4.7
OverallDifficulty:8.3
ApproachRate:8.5
SliderMultiplier:2.2
SliderTickRate:1

[Events]
//Background and Video events
//Break Periods
//Storyboard Layer 0 (Background)
//Storyboard Layer 1 (Fail)
//Storyboard Layer 2 (Pass)
//Storyboard Layer 3 (Foreground)
//Storyboard Sound Samples

[TimingPoints]
482,571.428571428571,4,2,1,70,1,0
2625,571.428571428571,4,2,1,70,1,0
11196,-66.6666666666667,4,2,1,70,0,0
11482,-50,4,2,1,70,0,0
11767,-66.6666666666667,4,2,1,70,0,0
20910,-100,4,2,1,70,0,0
30053,-90.9090909090909,4,2,1,70,0,0
39196,-133.333333333333,4,2,1,70,0,0
43767,-79.9999999999999,4,2,1,70,0,0
48339,-133.333333333333,4,2,1,70,0,0
52910,-79.9999999999999,4,2,1,70,0,0
57482,-50,4,2,1,70,0,1
75767,-66.6666666666667,4,2,1,70,0,0
89482,-100,4,2,1,50,0,0
94053,-200,4,2,1,30,0,0
102624,-200,4,2,1,10,0,0

[HitObjects]
107,72,482,6,0,P|118:104|114:146,1,55,0|0,1:0|2:0,0:0:0:0:
205,246,768,2,0,P|194:214|198:172,1,55,0|0,1:0|2:0,0:0:0:0:
211,66,1053,1,0,1:0:0:0:
405,72,1624,6,0,P|394:104|398:146,1,55,0|0,1:0|2:0,0:0:0:0:
307,246,1910,2,0,P|318:214|314:172,1,55,0|0,1:0|2:0,0:0:0:0:
301,66,2195,1,0,1:0:0:0:
205,245,2623,6,0,P|220:297|262:332,1,110,2|0,1:2|0:0,0:0:0:0:
361,248,3053,2,0,L|290:245,1,55,2|0,0:0|0:0,0:0:0:0:
151,248,3340,2,0,L|222:245,1,55,2|0,0:0|0:0,0:0:0:0:
294,163,3624,2,0,L|223:160,1,55,2|0,0:0|0:0,0:0:0:0:
84,163,3911,2,0,L|155:160,1,55,2|0,0:0|0:0,0:0:0:0:
294,72,4197,1,2,0:0:0:0:
294,72,4340,2,0,P|329:79|380:199,1,165,2|0,0:0|0:0,0:0:0:0:
312,269,4910,6,0,B|294:246|294:246|292:140,1,110,0|0,1:0|0:0,0:0:0:0:
217,57,5339,2,0,B|218:137,1,55,2|0,0:0|0:0,0:0:0:0:
154,218,5625,2,0,B|155:137,1,55,2|0,0:0|0:0,0:0:0:0:
91,57,5910,2,0,B|92:137,1,55,2|0,0:0|0:0,0:0:0:0:
56,229,6196,1,2,0:0:0:0:
93,285,6339,6,0,P|139:309|184:301,1,73.3333333333333,2|0,0:0|0:0,0:0:0:0:
195,299,6625,2,0,B|213:304|231:302|252:309|261:323,1,73.3333333333333,8|0,0:0|0:0,0:0:0:0:
276,352,6910,1,2,0:0:0:0:
357,278,7101,1,2,0:0:0:0:
357,278,7196,6,0,P|350:222|355:152,1,110,2|0,1:2|0:0,0:0:0:0:
357,57,7624,2,0,P|329:57|303:64,1,55,2|0,0:0|0:0,0:0:0:0:
203,36,7911,2,0,P|168:44|125:39,1,55,2|0,0:0|0:0,0:0:0:0:
238,145,8195,2,0,P|210:145|184:152,1,55,2|0,0:0|0:0,0:0:0:0:
84,124,8482,2,0,P|49:132|6:127,1,55,2|0,0:0|0:0,0:0:0:0:
119,233,8767,1,2,0:0:0:0:
119,233,8910,2,0,P|112:318|18:336,1,165,2|0,0:0|0:0,0:0:0:0:
56,271,9482,6,0,L|172:327,1,110,2|0,1:2|0:0,0:0:0:0:
258,317,9910,2,0,P|317:306|345:307,1,55,2|0,0:0|0:0,0:0:0:0:
427,249,10196,2,0,P|368:238|340:239,1,55,2|0,0:0|0:0,0:0:0:0:
222,371,10482,2,0,L|228:253,1,110,2|0,0:0|0:0,0:0:0:0:
248,144,10910,5,12,0:3:0:0:
248,144,11005,2,0,L|254:198,1,36.6666666666667,8|0,0:3|0:3,0:3:0:0:
162,95,11196,5,12,0:3:0:0:
162,95,11291,2,0,L|155:166,1,55.0000020980836,8|0,0:3|0:3,0:3:0:0:
90,37,11482,5,12,0:3:0:0:
90,37,11577,2,0,L|55:118,1,73.3333333333333,8|0,0:3|0:3,0:3:0:0:
33,306,11767,6,0,B|78:306|78:306|90:294|90:294|120:294|120:294|108:306|108:306|170:306,1,165.000006294251,2|0,1:2|0:0,0:0:0:0:
249,344,12196,1,10,0:0:0:0:
345,244,12482,2,0,P|301:246|250:275,1,82.5000031471254,2|0,0:0|0:0,0:0:0:0:
381,339,12767,2,0,L|356:149,1,165.000006294251,2|0,0:0|0:0,0:0:0:0:
317,71,13196,6,0,P|279:62|219:102,1,110.000004196167,2|0,0:0|0:0,0:0:0:0:
211,116,13482,2,0,P|168:148|115:142,1,110.000004196167,8|0,0:0|0:0,0:0:0:0:
95,126,13767,1,2,0:0:0:0:
284,129,13958,1,2,0:0:0:0:
284,129,14053,6,0,L|273:304,1,165.000006294251,2|0,1:2|0:0,0:0:0:0:
199,334,14482,1,10,0:0:0:0:
350,261,14767,2,0,P|315:223|271:213,1,82.5000031471254,2|0,0:0|0:0,0:0:0:0:
163,248,15053,2,0,B|148:266|148:266|226:229|274:292,1,165.000006294251,2|0,0:0|0:0,0:0:0:0:
302,365,15482,1,2,0:0:0:0:
365,351,15624,1,0,0:0:0:0:
437,227,15767,1,8,0:0:0:0:
371,252,15910,1,0,0:0:0:0:
239,98,16053,1,2,0:0:0:0:
296,127,16196,1,2,0:0:0:0:
180,29,16339,6,0,P|156:61|197:180,1,165.000006294251,2|0,1:2|0:0,0:0:0:0:
296,127,16767,1,10,0:0:0:0:
129,132,17053,2,0,P|114:175|134:225,1,82.5000031471254,2|0,0:0|0:0,0:0:0:0:
225,286,17340,2,0,B|305:277|305:277|363:290|363:290|325:266,1,165.000006294251,2|0,0:0|0:0,0:0:0:0:
182,238,17767,6,0,P|161:278|190:342,1,110.000004196167,2|0,0:0|0:0,0:0:0:0:
226,384,18053,2,0,P|247:344|218:280,1,110.000004196167,8|0,0:0|0:0,0:0:0:0:
122,209,18339,1,2,0:0:0:0:
315,354,18529,1,2,0:0:0:0:
315,354,18624,6,0,B|314:285|366:283|364:179,1,165.000006294251,2|0,1:2|0:0,0:0:0:0:
356,52,19053,1,10,0:0:0:0:
228,156,19339,2,0,P|254:209|305:247,1,82.5000031471254,2|0,0:0|0:0,0:0:0:0:
429,207,19624,2,0,P|392:139|316:152,1,165.000006294251,2|0,0:0|0:0,0:0:0:0:
149,328,20053,1,2,0:0:0:0:
156,302,20195,1,2,0:0:0:0:
160,274,20339,1,10,0:0:0:0:
158,247,20481,1,2,0:0:0:0:
152,220,20624,1,2,0:0:0:0:
142,195,20767,1,2,0:0:0:0:
128,172,20910,6,0,P|120:118|132:54,1,110,4|0,1:0|0:0,0:0:0:0:
175,15,21339,2,0,L|243:13,1,55,8|0,0:0|0:0,0:0:0:0:
344,64,21625,2,0,L|289:62,1,55
400,213,21910,2,0,P|408:159|400:105,1,110,12|0,0:3|0:0,0:0:0:0:
335,3,22339,1,0,0:0:0:0:
254,168,22624,2,0,P|317:161|353:162,1,55,8|0,0:0|0:0,0:0:0:0:
455,205,22911,2,0,P|427:210|400:212,1,55,12|0,0:3|0:3,0:3:0:0:
212,241,23196,6,0,P|175:191|182:122,1,110,4|0,1:0|0:0,0:0:0:0:
225,50,23624,2,0,L|297:44,1,55,8|0,0:0|0:0,0:0:0:0:
173,144,23910,2,0,L|119:140,1,55,12|0,0:3|0:0,0:0:0:0:
363,164,24196,2,0,P|308:161|254:168,1,110,12|0,0:3|0:0,0:0:0:0:
184,272,24624,1,0,0:0:0:0:
339,229,24910,2,0,P|302:228|256:235,1,55,8|0,0:0|0:0,0:0:0:0:
129,272,25196,2,0,P|166:273|212:266,1,55,12|0,0:3|0:0,0:0:0:0:
363,164,25482,6,0,B|368:243|368:243|399:285,1,110,4|0,1:0|0:0,0:0:0:0:
415,110,25910,2,0,P|379:90|342:91,1,55,8|0,0:0|0:0,0:0:0:0:
262,108,26197,2,0,P|235:101|212:86,1,55
57,31,26482,2,0,P|115:18|169:19,1,110,12|0,0:3|0:0,0:0:0:0:
266,35,26910,1,0,0:0:0:0:
124,178,27196,2,0,L|130:105,1,55,8|0,0:0|0:0,0:0:0:0:
234,290,27482,2,0,L|228:217,1,55,12|0,0:3|0:0,0:0:0:0:
189,366,27767,6,0,P|262:335|332:354,1,110,4|0,1:0|0:0,0:0:0:0:
371,203,28196,2,0,B|377:174|377:174|373:136,1,55,8|0,0:0|0:0,0:0:0:0:
266,35,28482,2,0,B|260:64|260:64|264:102,1,55,12|0,0:3|0:0,0:0:0:0:
337,273,28767,2,0,P|407:270|437:233,1,110,12|0,0:3|0:0,0:0:0:0:
479,104,29196,5,8,0:3:0:0:
479,104,29291,1,8,0:3:0:0:
371,203,29482,5,8,0:3:0:0:
371,203,29577,1,8,0:3:0:0:
339,59,29768,5,8,0:3:0:0:
339,59,29863,1,8,0:3:0:0:
432,243,30053,6,0,B|441:284|441:284|430:382,1,121.000003692627,4|0,1:0|0:0,0:0:0:0:
371,203,30482,2,0,P|403:174|447:174,1,60.5000018463135,8|0,0:0|0:0,0:0:0:0:
301,183,30768,2,0,P|269:212|225:212,1,60.5000018463135
150,160,31053,2,0,P|167:217|159:276,1,121.000003692627,12|0,0:3|0:0,0:0:0:0:
108,324,31482,1,0,0:0:0:0:
108,324,31767,2,0,B|161:315|161:315|152:332,1,60.5000018463135,8|0,0:0|0:0,0:0:0:0:
199,163,32053,2,0,B|203:169|203:169|150:160,1,60.5000018463135,12|0,0:3|0:0,0:0:0:0:
10,55,32339,6,0,B|76:29|66:80|143:46,1,121.000003692627,4|0,1:0|0:0,0:0:0:0:
257,28,32767,2,0,L|321:40,1,60.5000018463135,8|0,0:0|0:0,0:0:0:0:
422,121,33053,2,0,L|486:109,1,60.5000018463135,12|0,0:3|0:0,0:0:0:0:
419,318,33339,2,0,P|388:255|391:191,1,121.000003692627,12|0,0:3|0:0,0:0:0:0:
422,121,33767,1,0,0:0:0:0:
422,121,34053,2,8,B|396:110|377:121|356:112,1,60.5000018463135,8|0,0:0|0:0,0:0:0:0:
194,58,34339,2,0,B|220:47|239:58|260:49,1,60.5000018463135,12|0,0:3|0:0,0:0:0:0:
176,275,34624,6,0,P|215:200|208:140,1,121.000003692627,4|0,0:1|0:0,0:0:0:0:
96,127,35053,2,0,P|98:157|111:185,1,60.5000018463135,8|0,0:0|0:0,0:0:0:0:
191,332,35340,2,0,P|188:302|175:274,1,60.5000018463135
23,112,35624,2,0,P|61:63|151:75,1,121.000003692627,12|0,0:3|0:0,0:0:0:0:
206,96,36053,1,0,0:0:0:0:
288,58,36196,1,0,0:0:0:0:
288,58,36339,2,8,P|296:91|293:130,1,60.5000018463135,8|0,0:0|0:0,0:0:0:0:
394,249,36625,2,8,P|386:216|389:177,1,60.5000018463135,12|0,0:3|0:3,0:3:0:0:
274,342,36910,6,0,P|215:324|152:342,1,121.000003692627,4|0,1:0|0:0,0:0:0:0:
63,171,37339,2,0,L|70:236,1,60.5000018463135,8|0,0:0|0:0,0:0:0:0:
206,96,37624,2,0,L|199:161,1,60.5000018463135,12|0,0:3|0:0,0:0:0:0:
340,311,37910,2,0,P|337:245|308:187,1,121.000003692627,12|0,0:3|0:0,0:0:0:0:
206,96,38339,5,8,0:3:0:0:
206,96,38434,1,8,0:3:0:0:
346,51,38625,5,8,0:3:0:0:
346,51,38720,1,8,0:3:0:0:
314,195,38910,6,0,B|312:222|312:222|321:246,2,40.333334564209,8|8|8,0:3|0:3|0:3,0:3:0:0:
368,277,39196,6,0,P|328:297|286:290,1,82.5000031471254,4|0,0:0|0:0,0:0:0:0:
233,261,39624,1,8,0:0:0:0:
233,261,40053,2,0,B|237:222|237:222|229:201,1,61.875002360344,12|0,0:3|0:0,0:0:0:0:
194,146,40339,6,0,P|185:113|191:57,1,82.5000031471254,4|0,0:0|0:0,0:0:0:0:
230,15,40767,1,0,0:0:0:0:
230,15,40910,1,8,0:0:0:0:
265,101,41196,2,0,P|296:100|327:105,1,61.875002360344,12|0,0:3|0:0,0:0:0:0:
352,115,41482,6,0,B|363:155|363:155|355:208,1,82.5000031471254,4|0,0:0|0:0,0:0:0:0:
317,246,41910,1,8,0:0:0:0:
317,246,42339,2,0,P|336:258|389:251,1,61.875002360344,12|0,0:3|0:0,0:0:0:0:
427,224,42624,6,0,L|412:314,1,82.5000031471254,4|0,0:0|0:0,0:0:0:0:
414,369,43053,1,0,0:0:0:0:
414,369,43196,1,8,0:0:0:0:
279,268,43767,6,0,P|214:244|133:265,1,137.5,4|0,0:0|0:0,0:0:0:0:
50,187,44196,2,0,B|38:151|38:151|75:41,1,137.5,8|0,0:0|0:0,0:0:0:0:
190,38,44624,2,0,B|156:141,1,103.125,12|0,0:3|0:0,0:0:0:0:
138,161,44910,6,0,B|203:134|224:188|288:148,1,137.5,4|0,0:0|0:0,0:0:0:0:
320,87,45339,1,0,0:0:0:0:
320,87,45482,2,0,B|385:60|406:114|470:74,1,137.5,8|0,0:0|0:0,0:0:0:0:
497,33,45910,1,0,0:0:0:0:
497,33,46053,6,0,L|470:182,1,137.5,4|0,0:0|0:0,0:0:0:0:
412,249,46482,2,0,P|417:197|348:231,1,137.5,8|0,0:0|0:0,0:0:0:0:
364,306,46910,2,0,B|406:318|406:318|473:305,1,103.125,12|0,0:3|0:0,0:0:0:0:
498,254,47196,5,4,0:0:0:0:
308,81,47482,5,8,0:3:0:0:
308,81,47577,1,8,0:3:0:0:
168,36,47768,5,8,0:3:0:0:
168,36,47863,1,8,0:3:0:0:
200,180,48053,6,0,B|202:207|202:207|189:235,2,45.8333333333333,8|8|8,0:3|0:3|0:3,0:3:0:0:
144,277,48339,6,0,P|184:297|226:290,1,82.5000031471254,4|0,0:0|0:0,0:0:0:0:
279,261,48767,1,8,0:0:0:0:
279,261,49196,2,0,B|275:222|275:222|283:201,1,61.875002360344,12|0,0:3|0:0,0:0:0:0:
318,146,49482,6,0,P|327:113|321:57,1,82.5000031471254,4|0,0:0|0:0,0:0:0:0:
282,15,49910,1,0,0:0:0:0:
282,15,50053,1,8,0:0:0:0:
246,101,50339,2,0,P|215:100|185:105,1,61.875002360344,12|0,0:3|0:0,0:0:0:0:
160,115,50625,6,0,B|149:155|149:155|157:208,1,82.5000031471254,4|0,0:0|0:0,0:0:0:0:
195,246,51053,1,8,0:0:0:0:
195,246,51482,2,0,P|176:258|123:251,1,61.875002360344,12|0,0:3|0:0,0:0:0:0:
85,224,51767,6,0,L|100:314,1,82.5000031471254,4|0,0:0|0:0,0:0:0:0:
98,369,52196,1,0,0:0:0:0:
98,369,52339,1,8,0:0:0:0:
233,268,52910,6,0,P|298:244|379:265,1,137.5,4|0,0:0|0:0,0:0:0:0:
462,187,53339,2,0,B|474:151|474:151|437:41,1,137.5,8|0,0:0|0:0,0:0:0:0:
322,38,53767,2,0,B|355:141,1,103.125,12|0,0:3|0:0,0:0:0:0:
374,161,54053,6,0,B|309:134|288:188|224:148,1,137.5,4|0,0:0|0:0,0:0:0:0:
192,87,54482,1,0,0:0:0:0:
192,87,54625,2,0,B|127:60|106:114|42:74,1,137.5,8|0,0:0|0:0,0:0:0:0:
15,33,55053,1,0,0:0:0:0:
15,33,55196,6,0,L|42:182,1,137.5,4|0,0:0|0:0,0:0:0:0:
100,249,55625,2,0,P|95:197|164:231,1,137.5,8|0,0:0|0:0,0:0:0:0:
148,306,56053,2,0,B|106:318|106:318|9:297,1,137.5,8|0,0:0|0:0,0:0:0:0:
14,298,57196,6,0,B|106:318|106:318|145:307,1,103.125
173,225,57482,6,0,P|221:179|341:283,1,220,4|0,1:0|0:0,0:0:0:0:
270,365,57910,2,0,P|251:313|255:256,1,110,8|0,0:0|0:0,0:0:0:0:
157,119,58196,2,8,P|176:171|172:228,1,110,12|0,0:3|0:0,0:0:0:0:
31,49,58482,2,0,P|120:77|265:46,1,220,12|0,0:3|0:0,0:0:0:0:
333,6,58910,1,0,0:0:0:0:
333,6,59196,2,0,P|326:72|335:127,1,110,8|0,0:0|0:0,0:0:0:0:
253,368,59482,2,0,P|260:302|251:247,1,110,12|8,0:3|0:3,0:0:0:0:
103,98,59767,6,0,P|104:189|149:336,1,220,4|0,1:0|0:0,0:0:0:0:
339,324,60196,2,0,P|295:277|247:257,1,110,8|0,0:0|0:0,0:0:0:0:
103,98,60482,2,0,P|147:145|195:165,1,110,12|0,0:3|0:0,0:0:0:0:
410,349,60767,2,0,B|433:277|333:225|362:142,1,220,12|0,0:3|0:0,0:0:0:0:
378,39,61196,1,0,0:0:0:0:
378,39,61482,2,0,B|303:46|303:46|288:83,1,110,8|0,0:0|0:0,0:0:0:0:
99,202,61768,2,0,B|174:195|174:195|189:158,1,110,12|0,0:3|0:0,0:0:0:0:
243,265,62053,6,0,B|68:280|68:280|126:315,1,220,4|0,1:0|0:0,0:0:0:0:
308,323,62482,2,0,P|334:269|316:214,1,110,8|0,0:0|0:0,0:0:0:0:
475,81,62768,2,0,P|449:135|467:190,1,110,12|0,0:3|0:0,0:0:0:0:
459,308,63053,2,0,L|321:94,1,220,12|0,0:3|0:0,0:0:0:0:
245,62,63482,1,0,0:0:0:0:
245,62,63767,1,8,0:0:0:0:
345,12,63910,1,0,0:0:0:0:
239,173,64053,1,12,0:3:0:0:
339,123,64196,1,0,0:0:0:0:
145,112,64339,6,0,P|88:116|30:134,2,110,4|0|0,1:0|0:0|0:0,0:0:0:0:
239,173,64767,1,8,0:0:0:0:
230,282,64910,2,0,L|239:173,1,110
339,123,65196,2,0,L|347:232,1,110
275,365,65481,2,0,P|212:374|148:242,1,220,12|8,0:3|0:0,0:0:0:0:
239,173,65910,1,0,0:0:0:0:
33,97,66053,1,8,0:0:0:0:
267,112,66196,1,8,0:0:0:0:
61,158,66339,1,8,0:0:0:0:
295,51,66482,1,8,0:0:0:0:
295,51,66553,1,8,0:0:0:0:
295,51,66624,6,0,B|468:38|468:38|397:24,1,220,4|0,1:0|0:0,0:0:0:0:
251,6,67052,2,0,P|270:58|266:115,1,110,8|0,0:0|0:0,0:0:0:0:
355,265,67339,2,8,P|336:213|340:156,1,110,12|0,0:3|0:0,0:0:0:0:
481,335,67624,2,0,B|400:374|337:297|256:355,1,220,12|0,0:3|0:0,0:0:0:0:
179,378,68052,1,0,0:0:0:0:
179,378,68338,2,0,P|186:312|177:257,1,110,8|0,0:0|0:0,0:0:0:0:
259,16,68624,2,0,P|252:82|261:137,1,110,12|8,0:3|0:3,0:0:0:0:
409,286,68909,6,0,B|422:235|422:235|397:197|416:122|363:48,1,220,4|0,1:0|0:0,0:0:0:0:
173,60,69338,2,0,P|217:107|265:127,1,110,8|0,0:0|0:0,0:0:0:0:
409,286,69624,2,0,P|365:239|317:219,1,110,12|0,0:3|0:0,0:0:0:0:
102,35,69910,2,0,B|78:106|178:158|149:241,1,220,12|0,0:3|0:0,0:0:0:0:
134,345,70339,1,0,0:0:0:0:
134,345,70625,2,0,B|209:338|209:338|224:301,1,110,8|0,0:0|0:0,0:0:0:0:
413,182,70910,2,0,B|338:189|338:189|323:226,1,110,12|0,0:3|0:0,0:0:0:0:
269,119,71195,6,0,B|444:104|444:104|386:69,1,220,4|0,1:0|0:0,0:0:0:0:
204,61,71624,2,0,P|178:115|196:170,1,110,8|0,0:0|0:0,0:0:0:0:
37,303,71910,2,0,P|63:249|45:194,1,110,12|0,0:3|0:0,0:0:0:0:
53,76,72195,2,0,L|191:290,1,220,12|0,0:3|0:0,0:0:0:0:
267,322,72624,1,0,0:0:0:0:
267,322,72909,1,8,0:0:0:0:
167,372,73052,1,0,0:0:0:0:
273,211,73195,1,12,0:3:0:0:
173,261,73338,1,0,0:0:0:0:
367,272,73482,6,0,P|424:268|482:250,2,110,12|0|0,1:2|0:0|0:0,0:0:0:0:
273,211,73909,1,8,0:0:0:0:
282,102,74053,2,0,L|273:211,1,110,8|0,0:0|0:0,0:0:0:0:
173,261,74339,2,0,L|165:152,1,110,12|0,0:3|0:0,0:0:0:0:
237,19,74624,2,0,P|300:10|364:142,1,220,12|8,0:0|0:0,0:0:0:0:
273,211,75052,1,0,0:0:0:0:
479,287,75195,1,8,0:0:0:0:
245,272,75338,1,8,0:0:0:0:
451,226,75481,1,8,0:0:0:0:
217,333,75624,1,8,0:0:0:0:
217,333,75695,1,8,0:0:0:0:
217,333,75767,6,0,P|126:335|77:277,1,165.000006294251,12|0,1:2|0:0,0:0:0:0:
145,175,76196,2,0,P|164:212|167:253,1,82.5000031471254,8|0,0:0|0:0,0:0:0:0:
300,341,76482,2,0,P|281:304|278:263,1,82.5000031471254
301,124,76767,2,0,L|145:175,1,165.000006294251,12|0,0:3|0:0,0:0:0:0:
102,124,77196,6,0,P|84:73|109:25,1,110.000004196167
152,76,77482,2,0,P|169:126|144:174,1,110.000004196167,8|0,0:0|0:0,0:0:0:0:
67,188,77767,1,2,0:0:0:0:
221,327,78053,6,0,B|291:307|291:307|403:326,1,165.000006294251,4|0,1:0|0:0,0:0:0:0:
477,245,78482,2,0,P|493:200|486:152,1,82.5000031471254,8|0,0:0|0:0,0:0:0:0:
364,71,78768,2,0,P|348:116|355:164,1,82.5000031471254,12|0,0:3|0:0,0:0:0:0:
437,1,79053,2,0,B|398:19|357:8|357:8|322:30|262:19,1,165.000006294251,12|0,0:3|0:0,0:0:0:0:
203,1,79482,1,0,0:0:0:0:
203,1,79767,1,8,0:0:0:0:
143,104,79910,1,0,0:0:0:0:
323,207,80054,1,12,0:3:0:0:
263,104,80197,1,0,0:0:0:0:
83,207,80339,6,0,B|97:324|97:324|156:368,1,165.000006294251,4|0,1:0|0:0,0:0:0:0:
257,293,80767,2,0,P|227:279|167:288,1,82.5000031471254,8|0,0:0|0:0,0:0:0:0:
4,196,81053,2,0,P|34:210|94:201,1,82.5000031471254
167,61,81339,2,0,P|88:58|52:128,1,165.000006294251,12|0,0:3|0:0,0:0:0:0:
237,101,81767,6,0,P|246:67|218:-2,1,110.000004196167,2|0,0:0|0:0,0:0:0:0:
167,61,82053,2,0,P|158:95|186:164,1,110.000004196167,8|0,0:0|0:0,0:0:0:0:
264,164,82339,1,2,0:0:0:0:
340,76,82482,1,0,0:0:0:0:
371,382,82624,6,0,B|390:319|390:319|381:267|381:267|394:195,1,165.000006294251,4|0,1:0|0:0,0:0:0:0:
340,76,83053,2,0,P|299:68|251:83,1,82.5000031471254,8|0,0:0|0:0,0:0:0:0:
184,162,83339,2,0,P|223:171|263:163,1,82.5000031471254,12|0,0:3|0:0,0:0:0:0:
388,13,83624,2,0,P|298:0|210:23,1,165.000006294251,12|0,0:3|0:0,0:0:0:0:
66,175,84053,1,0,0:0:0:0:
114,66,84196,1,0,0:0:0:0:
184,162,84339,2,0,P|185:210|165:248,1,82.5000031471254,8|0,0:0|0:0,0:0:0:0:
52,253,84624,2,0,P|51:205|71:167,1,82.5000031471254,8|8,0:0|0:0,0:0:0:0:
295,333,84910,6,0,P|386:335|435:277,1,165.000006294251,12|0,1:2|0:0,0:0:0:0:
367,175,85339,2,0,P|348:212|345:253,1,82.5000031471254,8|0,0:0|0:0,0:0:0:0:
212,341,85625,2,0,P|231:304|234:263,1,82.5000031471254
211,124,85910,2,0,L|367:175,1,165.000006294251,12|0,0:3|0:0,0:0:0:0:
410,124,86339,6,0,P|428:73|403:25,1,110.000004196167
360,76,86625,2,0,P|343:126|368:174,1,110.000004196167,8|0,0:0|0:0,0:0:0:0:
445,188,86910,1,2,0:0:0:0:
291,327,87196,6,0,B|221:307|221:307|109:326,1,165.000006294251,4|0,1:0|0:0,0:0:0:0:
35,245,87625,2,0,P|19:200|26:152,1,82.5000031471254,8|0,0:0|0:0,0:0:0:0:
148,71,87911,2,0,P|164:116|157:164,1,82.5000031471254,12|0,0:3|0:0,0:0:0:0:
75,1,88196,2,0,B|114:19|155:8|155:8|190:30|250:19,1,165.000006294251,12|0,0:3|0:0,0:0:0:0:
309,1,88625,1,0,0:0:0:0:
309,1,88910,1,8,0:0:0:0:
369,104,89053,1,0,0:0:0:0:
189,207,89197,1,12,0:3:0:0:
249,104,89340,1,0,0:0:0:0:
429,207,89482,6,0,B|415:318,1,110,12|0,1:2|0:0,0:0:0:0:
365,357,89910,1,0,0:0:0:0:
365,357,90053,1,8,0:0:0:0:
285,235,90339,1,0,0:0:0:0:
179,325,90625,2,8,P|108:311|117:177,1,220,12|8,0:3|0:0,0:0:0:0:
285,235,91482,1,0,0:0:0:0:
152,249,91767,6,0,L|123:19,1,220,12|8,0:3|0:0,0:0:0:0:
256,88,92624,1,0,0:0:0:0:
387,30,92910,2,0,L|360:249,1,220,12|8,0:3|0:0,0:0:0:0:
256,331,93767,1,0,0:0:0:0:
323,183,94053,6,0,P|365:172|395:179,1,55,6|0,0:0|0:0,0:0:0:0:
398,184,94482,2,0,P|379:140|510:134,1,247.5,2|0,0:0|0:0,0:0:0:0:
486,229,96339,6,0,P|485:278|492:301,1,55,2|0,0:0|0:0,0:0:0:0:
444,331,96767,2,0,L|412:338,1,27.5,2|0,0:0|0:0,0:0:0:0:
372,292,97053,2,0,L|340:285,1,27.5,2|0,0:0|0:0,0:0:0:0:
300,331,97339,2,0,L|268:338,1,27.5,2|0,0:0|0:0,0:0:0:0:
228,292,97624,2,0,L|196:285,1,27.5,2|0,0:0|0:0,0:0:0:0:
156,331,97910,1,2,0:0:0:0:
156,331,98053,2,0,L|72:344,1,82.5,2|0,0:0|0:0,0:0:0:0:
31,296,98625,6,0,P|32:247|25:224,1,55,2|0,0:0|0:0,0:0:0:0:
73,194,99054,2,0,L|105:187,1,27.5,2|0,0:0|0:0,0:0:0:0:
145,233,99340,2,0,L|177:240,1,27.5,2|0,0:0|0:0,0:0:0:0:
217,194,99625,2,0,L|249:187,1,27.5,2|0,0:0|0:0,0:0:0:0:
289,233,99911,2,0,L|321:240,1,27.5,2|0,0:0|0:0,0:0:0:0:
361,194,100197,1,2,0:0:0:0:
361,194,100340,2,0,L|445:181,1,82.5,2|0,0:0|0:0,0:0:0:0:
484,134,100910,6,0,P|483:85|490:62,1,55,2|0,0:0|0:0,0:0:0:0:
442,32,101339,2,0,L|410:25,1,27.5,2|0,0:0|0:0,0:0:0:0:
370,71,101625,2,0,L|338:78,1,27.5,2|0,0:0|0:0,0:0:0:0:
298,32,101910,2,0,L|266:25,1,27.5,2|0,0:0|0:0,0:0:0:0:
226,71,102196,2,0,L|194:78,1,27.5,2|0,0:0|0:0,0:0:0:0:
154,32,102482,1,2,0:0:0:0:
154,32,102624,6,0,B|75:19|75:19|112:48|159:48,1,165,2|0,0:0|0:0,0:0:0:0:
