osu file format v14

[General]
AudioFilename: audio.mp3
AudioLeadIn: 0
PreviewTime: 3764
Countdown: 0
SampleSet: Normal
StackLeniency: 0.7
Mode: 1
LetterboxInBreaks: 0
WidescreenStoryboard: 0

[Editor]
Bookmarks: 264,1464,3864,10264,17264,23064,29464,35864,42264,45464,50264,56264,59864,64664,71064,77464,80664,83864,88664,95064,101464
DistanceSpacing: 1.5
BeatDivisor: 3
GridSize: 32
TimelineZoom: 1.8

[Metadata]
Title:Love Pulsar
TitleUnicode:Love Pulsar
Artist:Guilty Kiss
ArtistUnicode:Guilty Kiss
Creator:Slyme
Version:Futsuu
Source:ラブライブ!サンシャイン!!
Tags:Aqours love live! sunshine!! project japanese pop jpop j-pop LoveLive! ラブライブ!スクールアイドルフェスティバル School Idol Festival video game mobile llsif Kobayashi Aika 小林愛香 Suzuki Aina 鈴木愛奈 Aida Rikako 逢田梨香子 Tsushima Yoshiko 津島善子 Ohara Mari 小原鞠莉 Sakurauchi Riko 桜内梨子 Aki Hata 畑 亜貴 Miki Watanabe 渡辺未来 New Romantic Sailors 0hara mari_0hara 畑亜貴 1st フルアルバム Album Shooting Star Warrior vgm
BeatmapID:3859658
BeatmapSetID:1773707

[Difficulty]
HPDrainRate:7
CircleSize:2
OverallDifficulty:4
ApproachRate:10
SliderMultiplier:1.4
SliderTickRate:1

[Events]
//Background and Video events
0,0,"81344385_p0.jpg",0,0
//Break Periods
//Storyboard Layer 0 (Background)
//Storyboard Layer 1 (Fail)
//Storyboard Layer 2 (Pass)
//Storyboard Layer 3 (Foreground)
//Storyboard Layer 4 (Overlay)
//Storyboard Sound Samples

[TimingPoints]
3864,400,4,1,0,80,1,0
3864,-100,4,1,0,80,0,0
8664,-100,4,1,0,70,0,0
8864,-100,4,1,0,71,0,0
9064,-100,4,1,0,73,0,0
9264,-100,4,1,0,74,0,0
9464,-100,4,1,0,75,0,0
9664,-100,4,1,0,76,0,0
9864,-100,4,1,0,78,0,0
9964,-100,4,1,0,78,0,0
10064,-100,4,1,0,79,0,0
10264,-100,4,1,0,80,0,0
20864,-100,4,1,0,80,0,0
21064,-100,4,1,0,83,0,0
21264,-100,4,1,0,87,0,0
21364,-100,4,1,0,88,0,0
21464,-100,4,1,0,90,0,0
22264,-100,4,1,0,90,0,0
22464,-100,4,1,0,83,0,0
22564,-100,4,1,0,79,0,0
22664,-100,4,1,0,75,0,0
22864,-100,4,1,0,68,0,0
23064,-100,4,1,0,60,0,0
32664,-100,4,1,0,60,0,0
33064,-100,4,1,0,68,0,0
33264,-100,4,1,0,71,0,0
33464,-100,4,1,0,75,0,0
33564,-100,4,1,0,77,0,0
33664,-100,4,1,0,79,0,0
33864,-100,4,1,0,83,0,0
34064,-100,4,1,0,86,0,0
34164,-100,4,1,0,88,0,0
34264,-100,4,1,0,90,0,0
35064,-100,4,1,0,90,0,0
35264,-100,4,1,0,83,0,0
35364,-100,4,1,0,79,0,0
35464,-100,4,1,0,75,0,0
35664,-100,4,1,0,68,0,0
35864,-100,4,1,0,60,0,0
41664,-100,4,1,0,60,0,0
41864,-100,4,1,0,61,0,0
41964,-100,4,1,0,62,0,0
42064,-100,4,1,0,62,0,0
42264,-100,4,1,0,63,0,0
42664,-100,4,1,0,65,0,0
42864,-100,4,1,0,66,0,0
43264,-100,4,1,0,68,0,0
43464,-100,4,1,0,69,0,0
43664,-100,4,1,0,71,0,0
43864,-100,4,1,0,72,0,0
44264,-100,4,1,0,74,0,0
44464,-100,4,1,0,75,0,0
44864,-100,4,1,0,77,0,0
45064,-100,4,1,0,78,0,0
45164,-100,4,1,0,78,0,0
45264,-100,4,1,0,79,0,0
45464,-100,4,1,0,80,0,0
46864,-100,4,1,0,80,0,0
47264,-100,4,1,0,79,0,0
47464,-100,4,1,0,78,0,0
47664,-100,4,1,0,78,0,0
47864,-100,4,1,0,77,0,0
47964,-100,4,1,0,77,0,0
48064,-100,4,1,0,76,0,0
48264,-100,4,1,0,76,0,0
48464,-100,4,1,0,75,0,0
48664,-100,4,1,0,75,0,0
49064,-100,4,1,0,74,0,0
49264,-100,4,1,0,73,0,0
49464,-100,4,1,0,72,0,0
49564,-100,4,1,0,72,0,0
49664,-100,4,1,0,72,0,0
49864,-100,4,1,0,71,0,0
50264,-100,4,1,0,70,0,0
55064,-100,4,1,0,70,0,0
55164,-100,4,1,0,71,0,0
55264,-100,4,1,0,71,0,0
55464,-100,4,1,0,73,0,0
55664,-100,4,1,0,74,0,0
55764,-100,4,1,0,74,0,0
55864,-100,4,1,0,75,0,0
56064,-100,4,1,0,76,0,0
56264,-100,4,1,0,78,0,0
56464,-100,4,1,0,79,0,0
56664,-100,4,1,0,80,0,0
57664,-100,4,1,0,80,0,0
57864,-100,4,1,0,78,0,0
57964,-100,4,1,0,77,0,0
58064,-100,4,1,0,76,0,0
58264,-100,4,1,0,73,0,0
58864,-100,4,1,0,67,0,0
59264,-100,4,1,0,62,0,0
59464,-100,4,1,0,60,0,0
59864,-100,4,1,0,80,0,0
63064,-100,4,1,0,70,0,0
63264,-100,4,1,0,70,0,0
63464,-100,4,1,0,73,0,0
63664,-100,4,1,0,76,0,0
63864,-100,4,1,0,79,0,0
63964,-100,4,1,0,80,0,0
64064,-100,4,1,0,81,0,0
64264,-100,4,1,0,84,0,0
64364,-100,4,1,0,86,0,0
64464,-100,4,1,0,87,0,0
64664,-100,4,1,0,90,0,1
67864,-100,4,1,0,90,0,1
68064,-100,4,1,0,89,0,1
68164,-100,4,1,0,88,0,1
68264,-100,4,1,0,88,0,1
68464,-100,4,1,0,87,0,1
68564,-100,4,1,0,86,0,1
68664,-100,4,1,0,86,0,1
68864,-100,4,1,0,84,0,1
69064,-100,4,1,0,83,0,1
69264,-100,4,1,0,82,0,1
69664,-100,4,1,0,80,0,1
71064,-100,4,1,0,90,0,1
76864,-100,4,1,0,90,0,1
77064,-100,4,1,0,90,0,1
77164,-100,4,1,0,90,0,1
77264,-100,4,1,0,90,0,1
77464,-100,4,1,0,90,0,1
83864,-100,4,1,0,90,0,0
84164,-100,4,1,0,86,0,0
84397,-100,4,1,0,83,0,0
84664,-100,4,1,0,80,0,0
84964,-100,4,1,0,76,0,0
85197,-100,4,1,0,73,0,0
85464,-100,4,1,0,70,0,0
85764,-100,4,1,0,66,0,0
85997,-100,4,1,0,63,0,0
86264,-100,4,1,0,60,0,0
87864,-100,4,1,0,60,0,0
88264,-100,4,1,0,70,0,0
88664,-100,4,1,0,80,0,0
93464,-100,4,1,0,70,0,0
93664,-100,4,1,0,71,0,0
93864,-100,4,1,0,73,0,0
94064,-100,4,1,0,74,0,0
94264,-100,4,1,0,75,0,0
94464,-100,4,1,0,76,0,0
94664,-100,4,1,0,78,0,0
94764,-100,4,1,0,78,0,0
94864,-100,4,1,0,79,0,0
95064,-100,4,1,0,80,0,0
107464,-100,4,1,0,80,0,0
107864,-100,4,1,0,64,0,0
108464,-100,4,1,0,40,0,0

[HitObjects]
256,192,3864,5,4,0:0:0:0:
256,192,4064,1,4,0:0:0:0:
256,192,4264,1,4,0:0:0:0:
256,192,5464,1,12,0:0:0:0:
256,192,5664,1,12,0:0:0:0:
256,192,5864,1,12,0:0:0:0:
256,192,7064,1,4,0:0:0:0:
256,192,7264,1,4,0:0:0:0:
256,192,7464,1,4,0:0:0:0:
256,192,8664,1,8,0:0:0:0:
256,192,9064,1,8,0:0:0:0:
256,192,9264,1,0,0:0:0:0:
256,192,9464,1,8,0:0:0:0:
256,192,9864,1,0,0:0:0:0:
256,192,10264,1,12,0:0:0:0:
256,192,10664,1,0,0:0:0:0:
256,192,10864,1,8,0:0:0:0:
256,192,11264,1,8,0:0:0:0:
256,192,11464,1,8,0:0:0:0:
256,192,11664,1,0,0:0:0:0:
256,192,11864,1,8,0:0:0:0:
256,192,12264,1,8,0:0:0:0:
256,192,13064,1,0,0:0:0:0:
256,192,13464,1,8,0:0:0:0:
256,192,13864,1,0,0:0:0:0:
256,192,14064,1,8,0:0:0:0:
256,192,14464,1,8,0:0:0:0:
256,192,14664,1,0,0:0:0:0:
256,192,15064,1,0,0:0:0:0:
256,192,15264,1,0,0:0:0:0:
256,192,15464,1,8,0:0:0:0:
256,192,15864,1,0,0:0:0:0:
256,192,16664,1,4,0:0:0:0:
256,192,17064,1,0,0:0:0:0:
256,192,17264,1,8,0:0:0:0:
256,192,17664,1,8,0:0:0:0:
256,192,17864,1,8,0:0:0:0:
256,192,18064,1,0,0:0:0:0:
256,192,18264,1,8,0:0:0:0:
256,192,18664,1,8,0:0:0:0:
256,192,19464,1,8,0:0:0:0:
256,192,19864,1,8,0:0:0:0:
256,192,20264,1,0,0:0:0:0:
256,192,20464,1,8,0:0:0:0:
256,192,20864,1,8,0:0:0:0:
256,192,21064,1,0,0:0:0:0:
256,192,21464,1,12,0:0:0:0:
256,192,21664,1,12,0:0:0:0:
256,192,21864,1,12,0:0:0:0:
256,192,23064,1,0,0:0:0:0:
256,192,23464,1,0,0:0:0:0:
256,192,23664,1,8,0:0:0:0:
256,192,24064,1,8,0:0:0:0:
256,192,24464,1,8,0:0:0:0:
256,192,24664,1,0,0:0:0:0:
256,192,25664,1,8,0:0:0:0:
256,192,25864,1,0,0:0:0:0:
256,192,26264,1,8,0:0:0:0:
256,192,26664,1,8,0:0:0:0:
256,192,26864,1,0,0:0:0:0:
256,192,27264,1,0,0:0:0:0:
256,192,27664,1,0,0:0:0:0:
256,192,27864,1,8,0:0:0:0:
397,36,28864,1,0,0:0:0:0:
256,192,29064,1,8,0:0:0:0:
256,192,29464,1,4,0:0:0:0:
256,192,29864,1,0,0:0:0:0:
256,192,30064,1,8,0:0:0:0:
256,192,30864,1,0,0:0:0:0:
256,192,31064,1,8,0:0:0:0:
256,192,31464,1,0,0:0:0:0:
256,192,31664,1,8,0:0:0:0:
256,192,32064,1,8,0:0:0:0:
256,192,32264,1,0,0:0:0:0:
256,192,32664,1,0,0:0:0:0:
256,192,33064,1,0,0:0:0:0:
448,64,33264,1,0,0:0:0:0:
256,192,33464,1,8,0:0:0:0:
256,192,33864,1,8,0:0:0:0:
64,320,34264,1,4,0:0:0:0:
64,320,34464,1,4,0:0:0:0:
64,320,34664,1,4,0:0:0:0:
256,192,35864,1,12,0:0:0:0:
256,192,36264,1,8,0:0:0:0:
256,192,36464,1,0,0:0:0:0:
256,192,36864,1,0,0:0:0:0:
256,192,37264,1,0,0:0:0:0:
256,192,37464,1,8,0:0:0:0:
256,192,38464,1,0,0:0:0:0:
256,192,38664,1,0,0:0:0:0:
256,192,39064,1,0,0:0:0:0:
256,192,39464,1,0,0:0:0:0:
256,192,39664,1,8,0:0:0:0:
256,192,40064,1,8,0:0:0:0:
256,192,40464,1,8,0:0:0:0:
256,192,40664,1,0,0:0:0:0:
256,192,41664,1,8,0:0:0:0:
256,192,41864,1,0,0:0:0:0:
256,192,42264,1,12,0:0:0:0:
256,192,42664,1,8,0:0:0:0:
256,192,42864,1,0,0:0:0:0:
256,192,43664,1,0,0:0:0:0:
256,192,43864,1,8,0:0:0:0:
256,192,44264,1,0,0:0:0:0:
256,192,44464,1,8,0:0:0:0:
256,192,45464,1,4,0:0:0:0:
256,192,45864,1,4,0:0:0:0:
256,192,46264,1,8,0:0:0:0:
256,192,46464,1,8,0:0:0:0:
256,192,46864,1,4,0:0:0:0:
256,192,47264,1,0,0:0:0:0:
256,192,47464,1,8,0:0:0:0:
256,192,47864,1,8,0:0:0:0:
256,192,48264,1,0,0:0:0:0:
256,192,48464,1,0,0:0:0:0:
256,192,48664,1,12,0:0:0:0:
256,192,49064,1,8,0:0:0:0:
256,192,49464,1,0,0:0:0:0:
256,192,50264,1,12,0:0:0:0:
256,192,50664,1,8,0:0:0:0:
256,192,51064,1,0,0:0:0:0:
256,192,51264,1,8,0:0:0:0:
256,192,51664,1,0,0:0:0:0:
256,192,51864,1,8,0:0:0:0:
256,192,52664,1,8,0:0:0:0:
256,192,52864,1,0,0:0:0:0:
256,192,53064,1,0,0:0:0:0:
256,192,53464,1,8,0:0:0:0:
256,192,53864,1,8,0:0:0:0:
256,192,54064,1,0,0:0:0:0:
256,192,54264,1,8,0:0:0:0:
256,192,54664,1,0,0:0:0:0:
256,192,54864,1,0,0:0:0:0:
256,192,55064,1,8,0:0:0:0:
256,192,55464,1,0,0:0:0:0:
256,192,56064,1,0,0:0:0:0:
256,192,56264,1,0,0:0:0:0:
256,192,56664,1,12,0:0:0:0:
256,192,57264,1,12,0:0:0:0:
256,192,57664,1,8,0:0:0:0:
256,192,57864,1,8,0:0:0:0:
256,192,58264,1,4,0:0:0:0:
256,192,58864,1,4,0:0:0:0:
256,192,59864,1,4,0:0:0:0:
256,192,60064,1,12,0:0:0:0:
256,192,60464,1,4,0:0:0:0:
256,192,60664,1,12,0:0:0:0:
256,192,61064,1,4,0:0:0:0:
256,192,61264,1,12,0:0:0:0:
256,192,61864,1,12,0:0:0:0:
256,192,63264,1,8,0:0:0:0:
256,192,63464,1,8,0:0:0:0:
448,64,63664,1,8,0:0:0:0:
256,192,63864,1,0,0:0:0:0:
256,192,64264,1,0,0:0:0:0:
256,192,64664,1,12,0:0:0:0:
256,192,65064,1,8,0:0:0:0:
256,192,65264,1,0,0:0:0:0:
256,192,65464,1,8,0:0:0:0:
256,192,65864,1,8,0:0:0:0:
256,192,66264,1,0,0:0:0:0:
256,192,66464,1,0,0:0:0:0:
256,192,66664,1,8,0:0:0:0:
256,192,66864,1,0,0:0:0:0:
256,192,67264,1,8,0:0:0:0:
256,192,67464,1,0,0:0:0:0:
256,192,67864,1,8,0:0:0:0:
256,192,68064,1,8,0:0:0:0:
256,192,68264,1,0,0:0:0:0:
256,192,68464,1,0,0:0:0:0:
448,64,68664,1,8,0:0:0:0:
256,192,69064,1,0,0:0:0:0:
256,192,69264,1,8,0:0:0:0:
64,320,69664,1,4,0:0:0:0:
64,320,69964,1,4,0:0:0:0:
448,320,70264,1,12,0:0:0:0:
256,192,71064,1,12,0:0:0:0:
256,192,71464,1,0,0:0:0:0:
256,192,71664,1,8,0:0:0:0:
256,192,71864,1,0,0:0:0:0:
256,192,72264,1,8,0:0:0:0:
256,192,72664,1,0,0:0:0:0:
256,192,72864,1,8,0:0:0:0:
256,192,73064,1,0,0:0:0:0:
256,192,73264,1,8,0:0:0:0:
256,192,73664,1,0,0:0:0:0:
256,192,73864,1,8,0:0:0:0:
64,320,74264,1,4,0:0:0:0:
448,320,74664,1,12,0:0:0:0:
64,320,75064,1,4,0:0:0:0:
256,192,75264,1,8,0:0:0:0:
256,192,75464,1,8,0:0:0:0:
256,192,75864,1,12,0:0:0:0:
256,192,76064,1,0,0:0:0:0:
256,192,76464,1,12,0:0:0:0:
448,64,76864,1,8,0:0:0:0:
448,64,77064,1,0,0:0:0:0:
256,192,77464,1,12,0:0:0:0:
256,192,77664,1,12,0:0:0:0:
256,192,77864,1,12,0:0:0:0:
256,192,78064,1,12,0:0:0:0:
256,192,78464,1,12,0:0:0:0:
256,192,78664,1,4,0:0:0:0:
256,192,78864,1,12,0:0:0:0:
256,192,80664,1,12,0:0:0:0:
256,192,80864,1,12,0:0:0:0:
256,192,81064,1,12,0:0:0:0:
256,192,81264,1,12,0:0:0:0:
256,192,81664,1,12,0:0:0:0:
256,192,81864,1,4,0:0:0:0:
256,192,82064,1,12,0:0:0:0:
256,192,83864,1,4,0:0:0:0:
256,192,84397,1,0,0:0:0:0:
256,192,84664,1,12,0:0:0:0:
256,192,85197,1,8,0:0:0:0:
256,192,85464,1,4,0:0:0:0:
256,192,85997,1,8,0:0:0:0:
256,192,86264,1,4,0:0:0:0:
256,192,87864,1,0,0:0:0:0:
256,192,88264,1,12,0:0:0:0:
256,192,88664,1,4,0:0:0:0:
256,192,88864,1,4,0:0:0:0:
256,192,89064,1,4,0:0:0:0:
256,192,90264,1,12,0:0:0:0:
256,192,90464,1,12,0:0:0:0:
256,192,90664,1,12,0:0:0:0:
256,192,91864,1,4,0:0:0:0:
256,192,92064,1,4,0:0:0:0:
256,192,92264,1,4,0:0:0:0:
256,192,93464,1,0,0:0:0:0:
256,192,93864,1,0,0:0:0:0:
256,192,94064,1,8,0:0:0:0:
256,192,94264,1,0,0:0:0:0:
256,192,94664,1,8,0:0:0:0:
256,192,95064,1,4,0:0:0:0:
256,192,95464,1,8,0:0:0:0:
256,192,95664,1,0,0:0:0:0:
64,64,96064,1,0,0:0:0:0:
64,64,96264,1,0,0:0:0:0:
256,192,96464,1,8,0:0:0:0:
256,192,96664,1,0,0:0:0:0:
64,64,97064,1,0,0:0:0:0:
448,64,97864,1,8,0:0:0:0:
64,64,98264,1,0,0:0:0:0:
448,64,98664,1,8,0:0:0:0:
64,64,98864,1,0,0:0:0:0:
64,64,99264,1,0,0:0:0:0:
448,64,99464,1,8,0:0:0:0:
448,64,99864,1,8,0:0:0:0:
448,64,100064,1,8,0:0:0:0:
64,64,100264,1,0,0:0:0:0:
448,64,100664,1,8,0:0:0:0:
256,192,101464,1,4,0:0:0:0:
448,64,101864,1,8,0:0:0:0:
64,64,102064,1,0,0:0:0:0:
64,64,102464,1,0,0:0:0:0:
64,64,102664,1,0,0:0:0:0:
448,64,102864,1,8,0:0:0:0:
64,64,103064,1,0,0:0:0:0:
64,64,103464,1,0,0:0:0:0:
64,64,104264,1,0,0:0:0:0:
64,64,104664,1,0,0:0:0:0:
256,192,105064,1,0,0:0:0:0:
256,192,105264,1,8,0:0:0:0:
256,192,105664,1,0,0:0:0:0:
64,64,105864,1,0,0:0:0:0:
256,192,106264,1,4,0:0:0:0:
256,192,106464,1,4,0:0:0:0:
256,192,106664,1,4,0:0:0:0:
448,64,107464,1,8,0:0:0:0:
256,192,107864,1,8,0:0:0:0:
256,192,108464,1,0,0:0:0:0:
