osu file format v14

[General]
AudioFilename: audio.mp3
AudioLeadIn: 0
PreviewTime: 3764
Countdown: 0
SampleSet: Soft
StackLeniency: 0.7
Mode: 0
LetterboxInBreaks: 0
WidescreenStoryboard: 1

[Editor]
DistanceSpacing: 1.2
BeatDivisor: 4
GridSize: 32
TimelineZoom: 2.5

[Metadata]
Title:Love Pulsar
TitleUnicode:Love Pulsar
Artist:Guilty Kiss
ArtistUnicode:Guilty Kiss
Creator:Doyak
Version:Normal
Source:ラブライブ!サンシャイン!!
Tags:Aqours love live! sunshine!! school idol project japanese pop jpop j-pop LoveLive! ラブライブ!スクールアイドルフェスティバル School Idol Festival video game mobile llsif Kobayashi Aika 小林愛香 Suzuki Aina 鈴木愛奈 Aida Rikako 逢田梨香子 Tsushima Yoshiko 津島善子 Ohara Mari 小原鞠莉 Sakurauchi Riko 桜内梨子 Aki Hata 畑 亜貴 Miki Watanabe 渡辺未来 New Romantic Sailors
BeatmapID:3274794
BeatmapSetID:1601922

[Difficulty]
HPDrainRate:3.5
CircleSize:3.5
OverallDifficulty:5
ApproachRate:5.5
SliderMultiplier:1.2
SliderTickRate:1

[Events]
//Background and Video events
0,0,"81344385_p0.jpg",0,0
//Break Periods
//Storyboard Layer 0 (Background)
//Storyboard Layer 1 (Fail)
//Storyboard Layer 2 (Pass)
//Storyboard Layer 3 (Foreground)
//Storyboard Layer 4 (Overlay)
//Storyboard Sound Samples

[TimingPoints]
3864,400,4,2,1,90,1,0
3864,-90.9090909090909,4,2,1,90,0,0
4464,-90.9090909090909,4,2,1,70,0,0
5464,-90.9090909090909,4,2,1,90,0,0
6064,-90.9090909090909,4,2,1,60,0,0
7064,-90.9090909090909,4,2,1,90,0,0
7664,-90.9090909090909,4,2,1,70,0,0
8664,-90.9090909090909,4,2,1,40,0,0
8864,-90.9090909090909,4,2,1,48,0,0
9064,-90.9090909090909,4,2,1,56,0,0
9264,-90.9090909090909,4,2,1,64,0,0
9464,-90.9090909090909,4,2,1,72,0,0
9664,-90.9090909090909,4,2,1,80,0,0
9864,-90.9090909090909,4,2,1,87,0,0
10064,-90.9090909090909,4,2,1,94,0,0
10264,-90.9090909090909,4,2,1,100,0,0
10564,-90.9090909090909,4,2,1,5,0,0
10664,-90.9090909090909,4,2,1,70,0,0
12664,-90.9090909090909,4,2,2,70,0,0
13464,-90.9090909090909,4,2,1,70,0,0
13764,-90.9090909090909,4,2,1,5,0,0
13864,-90.9090909090909,4,2,1,70,0,0
15664,-90.9090909090909,4,2,1,50,0,0
16064,-90.9090909090909,4,2,1,70,0,0
16664,-90.9090909090909,4,2,1,100,0,0
16964,-90.9090909090909,4,2,1,5,0,0
17064,-90.9090909090909,4,2,1,70,0,0
19064,-90.9090909090909,4,2,2,70,0,0
19864,-90.9090909090909,4,2,1,70,0,0
20164,-90.9090909090909,4,2,1,5,0,0
20264,-90.9090909090909,4,2,1,70,0,0
20514,-90.9090909090909,4,2,1,50,0,0
20864,-90.9090909090909,4,2,1,70,0,0
20914,-90.9090909090909,4,2,1,50,0,0
21064,-90.9090909090909,4,2,1,70,0,0
21464,-90.9090909090909,4,2,1,100,0,0
22064,-100,4,2,1,60,0,0
23064,-100,4,2,1,50,0,0
25664,-100,4,2,1,70,0,0
26264,-100,4,2,1,50,0,0
28864,-100,4,2,1,70,0,0
29464,-100,4,2,1,65,0,0
32064,-100,4,2,1,80,0,0
32664,-100,4,2,1,80,0,0
34114,-100,4,2,1,60,0,0
34264,-100,4,2,1,90,0,0
34864,-100,4,2,1,60,0,0
35064,-100,4,2,2,80,0,0
35864,-100,4,2,1,50,0,0
38464,-100,4,2,1,70,0,0
39064,-100,4,2,1,50,0,0
41664,-100,4,2,1,70,0,0
42264,-100,4,2,1,65,0,0
44864,-100,4,2,1,80,0,0
47864,-100,4,2,2,80,0,0
48464,-100,4,2,1,60,0,0
48664,-100,4,2,1,90,0,0
50264,-100,4,2,1,60,0,0
52864,-100,4,2,1,80,0,0
53464,-100,4,2,1,60,0,0
55664,-100,4,2,1,50,0,0
56064,-100,4,2,1,80,0,0
56864,-100,4,2,1,60,0,0
57264,-100,4,2,1,90,0,0
57664,-100,4,2,1,80,0,0
58464,-100,4,2,1,60,0,0
58864,-100,4,2,1,90,0,0
59264,-100,4,2,1,80,0,0
59864,-100,4,2,1,90,0,0
61864,-100,4,2,1,100,0,0
62764,-100,4,2,1,5,0,0
62864,-100,4,2,1,60,0,0
63264,-100,4,2,1,80,0,0
63864,-100,4,2,2,80,0,0
64664,-90.9090909090909,4,2,1,85,0,1
64964,-90.9090909090909,4,2,1,5,0,1
65064,-90.9090909090909,4,2,1,85,0,1
67064,-90.9090909090909,4,2,2,85,0,1
67664,-90.9090909090909,4,2,1,85,0,1
67864,-90.9090909090909,4,2,1,90,0,1
69314,-90.9090909090909,4,2,1,70,0,1
69664,-90.9090909090909,4,2,1,100,0,1
69864,-90.9090909090909,4,2,1,5,0,1
69964,-90.9090909090909,4,2,1,100,0,1
70164,-90.9090909090909,4,2,1,5,0,1
70264,-90.9090909090909,4,2,1,100,0,1
70464,-90.9090909090909,4,2,1,90,0,1
70664,-90.9090909090909,4,2,1,100,0,1
70864,-90.9090909090909,4,2,1,65,0,1
71064,-90.9090909090909,4,2,1,85,0,1
71364,-90.9090909090909,4,2,1,5,0,1
71464,-90.9090909090909,4,2,1,85,0,1
73464,-90.9090909090909,4,2,2,85,0,1
74064,-90.9090909090909,4,2,1,85,0,1
74264,-90.9090909090909,4,2,1,90,0,1
75664,-90.9090909090909,4,2,1,70,0,1
75864,-90.9090909090909,4,2,1,90,0,1
76764,-90.9090909090909,4,2,1,5,0,1
76864,-90.9090909090909,4,2,1,90,0,1
77464,-90.9090909090909,4,2,1,100,0,1
78114,-90.9090909090909,4,2,1,80,0,1
78464,-90.9090909090909,4,2,1,100,0,1
79464,-90.9090909090909,4,2,1,70,0,1
80664,-90.9090909090909,4,2,1,100,0,1
81314,-90.9090909090909,4,2,1,70,0,1
81664,-90.9090909090909,4,2,1,100,0,1
82664,-90.9090909090909,4,2,1,70,0,1
83864,-90.9090909090909,4,2,1,90,0,1
86264,-90.9090909090909,4,2,1,90,0,1
87864,-90.9090909090909,4,2,1,100,0,1
88064,-90.9090909090909,4,2,1,70,0,1
88264,-90.9090909090909,4,2,1,70,0,1
88464,-90.9090909090909,4,2,1,5,0,1
88564,-90.9090909090909,4,2,1,5,0,1
88664,-90.9090909090909,4,2,1,90,0,0
89264,-90.9090909090909,4,2,1,70,0,0
90264,-90.9090909090909,4,2,1,90,0,0
90864,-90.9090909090909,4,2,1,60,0,0
91864,-90.9090909090909,4,2,1,90,0,0
92464,-90.9090909090909,4,2,1,70,0,0
93464,-90.9090909090909,4,2,1,40,0,0
93664,-90.9090909090909,4,2,1,48,0,0
93864,-90.9090909090909,4,2,1,56,0,0
94064,-90.9090909090909,4,2,1,64,0,0
94264,-90.9090909090909,4,2,1,72,0,0
94464,-90.9090909090909,4,2,1,80,0,0
94664,-90.9090909090909,4,2,1,87,0,0
94864,-90.9090909090909,4,2,1,94,0,0
95064,-90.9090909090909,4,2,1,100,0,0
95364,-90.9090909090909,4,2,1,5,0,0
95464,-90.9090909090909,4,2,1,70,0,0
97464,-90.9090909090909,4,2,2,70,0,0
98264,-90.9090909090909,4,2,1,70,0,0
98564,-90.9090909090909,4,2,1,5,0,0
98664,-90.9090909090909,4,2,1,70,0,0
100464,-90.9090909090909,4,2,1,50,0,0
100864,-90.9090909090909,4,2,1,70,0,0
101464,-90.9090909090909,4,2,1,100,0,0
101764,-90.9090909090909,4,2,1,5,0,0
101864,-90.9090909090909,4,2,1,70,0,0
103864,-90.9090909090909,4,2,2,70,0,0
104964,-90.9090909090909,4,2,1,5,0,0
105064,-90.9090909090909,4,2,1,70,0,0
105314,-90.9090909090909,4,2,1,50,0,0
105664,-90.9090909090909,4,2,1,70,0,0
105714,-90.9090909090909,4,2,1,50,0,0
105864,-90.9090909090909,4,2,1,70,0,0
106264,-90.9090909090909,4,2,1,100,0,0
107064,-90.9090909090909,4,2,1,80,0,0
108264,-90.9090909090909,4,2,1,20,0,0
108464,-90.9090909090909,4,2,1,60,0,0
108514,-90.9090909090909,4,2,1,80,0,0
108564,-90.9090909090909,4,2,1,30,0,0

[Colours]
Combo1 : 197,187,69
Combo2 : 170,32,77
Combo3 : 36,132,155

[HitObjects]
113,289,3864,5,6,3:2:0:0:
113,289,4064,1,6,3:2:0:0:
113,289,4264,1,6,3:2:0:0:
399,289,5464,5,6,3:2:0:0:
399,289,5664,1,6,3:2:0:0:
399,289,5864,1,6,3:2:0:0:
256,41,7064,5,6,3:2:0:0:
256,41,7264,1,6,3:2:0:0:
256,41,7464,1,6,3:2:0:0:
223,359,8664,6,0,L|289:359,1,66.0000020141602,0|0,3:2|3:2,0:0:0:0:
289,279,9064,2,0,L|223:279,1,66.0000020141602,0|0,3:2|3:2,0:0:0:0:
223,199,9464,2,0,L|289:199,2,66.0000020141602,0|0|0,3:2|3:2|3:2,0:0:0:0:
80,270,10264,6,0,L|98:139,1,132.00000402832,6|8,3:2|0:2,0:2:0:0:
109,60,10864,1,2,0:2:0:0:
255,120,11264,1,2,3:2:0:0:
255,120,11464,2,0,L|321:110,1,66.0000020141602,10|2,0:2|3:2,0:0:0:0:
366,46,11864,6,0,P|401:98|382:159,1,132.00000402832,2|10,3:2|3:2,0:0:0:0:
330,309,12664,2,0,L|396:318,2,66.0000020141602,0|0|8,3:2|3:2|3:2,0:0:0:0:
251,298,13264,1,0,3:2:0:0:
188,346,13464,6,0,P|169:285|205:233,1,132.00000402832,6|8,3:2|0:2,0:2:0:0:
284,227,14064,1,2,3:2:0:0:
306,70,14464,1,2,3:2:0:0:
306,70,14664,2,0,L|239:60,1,66.0000020141602,10|2,3:2|3:2,0:0:0:0:
229,139,15064,6,0,L|98:121,1,132.00000402832,2|8,3:2|0:2,0:2:0:0:
29,82,15664,2,0,P|16:112|21:145,1,66.0000020141602,8|8,3:3|3:3,3:3:0:0:
44,222,16064,1,4,3:3:0:0:
44,222,16264,1,8,3:2:0:0:
175,311,16664,6,0,L|306:293,1,132.00000402832,6|8,0:2|0:2,0:2:0:0:
385,283,17264,1,2,0:2:0:0:
439,134,17664,1,2,3:2:0:0:
439,134,17864,2,0,L|373:124,1,66.0000020141602,10|2,0:2|3:2,0:0:0:0:
328,60,18264,6,0,P|293:112|312:173,1,132.00000402832,2|10,3:2|3:2,0:0:0:0:
233,311,19064,2,0,L|243:377,2,66.0000020141602,0|0|8,3:2|3:2|3:2,0:0:0:0:
222,232,19664,1,0,3:2:0:0:
159,281,19864,6,0,P|98:300|45:263,1,132.00000402832,6|8,0:2|0:2,0:2:0:0:
82,192,20464,2,0,L|148:202,1,66.0000020141602,2|8,3:2|3:3,3:2:0:0:
158,122,20864,2,0,L|92:112,2,66.0000020141602,2|10|2,3:2|3:2|3:2,3:2:0:0:
228,179,21464,5,6,3:2:0:0:
228,179,21664,1,6,3:2:0:0:
228,179,21864,1,6,3:2:0:0:
263,59,22264,2,0,L|381:75,1,120,0|8,3:2|3:3,0:0:0:0:
494,34,23064,6,0,P|502:92|478:146,1,120,2|8,3:2|0:2,0:2:0:0:
432,184,23664,1,2,0:1:0:0:
415,302,24064,2,0,L|474:310,2,60,2|8|2,0:2|0:2|3:2,0:2:0:0:
366,265,24664,6,0,P|307:257|253:281,1,120,0|8,3:2|0:2,0:2:0:0:
212,325,25264,1,2,0:1:0:0:
95,297,25664,1,2,3:3:0:0:
95,297,25864,2,0,L|86:237,1,60,4|8,3:3|3:3,0:0:0:0:
78,177,26264,6,0,L|196:161,1,120,2|8,3:2|0:2,0:2:0:0:
188,101,26864,1,2,0:1:0:0:
306,84,27264,2,0,L|315:24,2,60,2|8|2,0:2|0:2|3:2,0:2:0:0:
298,144,27864,6,0,P|352:167|410:159,1,120,0|8,3:2|0:2,0:2:0:0:
466,138,28464,2,0,L|475:198,1,60,2|0,0:1|3:2,0:2:0:0:
448,250,28864,1,2,3:3:0:0:
448,250,29064,2,0,L|457:310,1,60,4|8,3:3|3:3,0:0:0:0:
418,355,29464,6,0,L|300:339,1,120,6|8,3:2|0:2,0:2:0:0:
239,329,30064,2,0,P|188:266|254:220,1,180,2|8,0:1|3:2,0:2:0:0:
300,109,31064,6,0,L|182:125,1,120,2|10,3:2|0:2,0:2:0:0:
173,66,31664,1,2,0:1:0:0:
54,82,32064,2,0,L|63:142,1,60,2|4,3:3|3:3,0:0:0:0:
70,200,32464,1,8,3:3:0:0:
70,200,32664,6,0,B|123:227|123:227|181:215,1,120,6|2,3:2|0:2,0:2:0:0:
217,167,33264,2,0,B|270:139|270:139|328:151,1,120,6|2,3:2|0:2,0:0:0:0:
374,191,33864,1,6,3:2:0:0:
288,274,34264,5,4,3:2:0:0:
288,274,34464,1,4,3:2:0:0:
288,274,34664,1,4,3:2:0:0:
192,347,35064,2,0,B|183:287|183:287|124:295,1,120,0|0,3:2|3:2,0:0:0:0:
13,340,35864,6,0,L|29:222,1,120,6|8,3:2|0:2,0:2:0:0:
38,163,36464,1,2,0:1:0:0:
124,79,36864,2,0,L|115:19,2,60,2|8|2,0:2|0:2|3:2,0:2:0:0:
133,138,37464,6,0,P|191:146|245:122,1,120,0|8,3:2|0:2,0:2:0:0:
236,62,38064,1,2,0:1:0:0:
354,42,38464,1,2,3:3:0:0:
354,42,38664,2,0,L|345:102,1,60,4|8,3:3|3:3,0:0:0:0:
336,161,39064,6,0,L|454:177,1,120,2|8,3:2|0:2,0:2:0:0:
446,236,39664,1,2,0:1:0:0:
348,305,40064,2,0,L|357:365,2,60,2|8|2,0:2|0:2|3:2,0:2:0:0:
339,245,40664,6,0,L|221:261,1,120,0|8,3:2|0:2,0:2:0:0:
211,320,41264,2,0,L|151:311,1,60,2|0,0:1|3:2,0:2:0:0:
105,348,41664,1,2,3:3:0:0:
105,348,41864,2,0,L|45:339,1,60,4|8,3:3|3:3,0:0:0:0:
14,289,42264,6,0,P|6:230|30:176,1,120,6|10,3:2|0:2,0:2:0:0:
89,184,42864,2,0,P|154:136|102:74,1,180,2|8,0:1|0:2,0:2:0:0:
202,7,43864,6,0,L|320:23,1,120,2|8,3:2|0:2,0:2:0:0:
379,31,44465,2,0,P|387:89|363:143,1,120,2|2,0:1|3:3,0:2:0:0:
308,168,45064,2,0,L|317:228,1,60,4|8,0:3|0:3,0:0:0:0:
324,286,45464,5,6,3:2:0:0:
205,302,45864,1,6,3:2:0:0:
188,183,46264,1,6,3:2:0:0:
188,183,46464,2,0,L|248:174,1,60,6|2,3:2|3:3,0:2:0:0:
308,168,46864,6,0,P|361:192|420:184,1,120,6|0,3:2|3:2,0:2:0:0:
473,155,47464,1,8,3:2:0:0:
378,81,47864,2,0,L|387:21,2,60,0|0|8,3:2|3:2|3:2,0:0:0:0:
318,73,48464,1,8,3:3:0:0:
318,73,48664,6,0,B|259:60|259:60|206:88,1,120,4|2,3:2|3:2,0:0:0:0:
177,141,49264,2,0,B|118:153|118:153|65:125,1,120,6|0,3:2|3:2,0:0:0:0:
12,95,49864,1,6,3:2:0:0:
28,213,50264,6,0,L|44:331,1,120,4|10,3:2|0:2,0:2:0:0:
103,322,50864,1,2,3:2:0:0:
103,322,51064,2,0,L|112:382,2,60,2|2|8,0:2|3:2|0:2,0:0:0:0:
198,249,51864,6,0,P|222:195|214:136,1,120,0|8,3:2|0:2,0:0:0:0:
167,25,52664,2,0,L|227:16,1,60,2|2,3:2|3:3,0:0:0:0:
282,37,53064,2,0,L|342:28,1,60,4|8,3:3|3:3,0:0:0:0:
400,19,53464,6,0,L|384:137,1,120,6|10,0:2|0:2,0:2:0:0:
374,197,54064,1,2,3:2:0:0:
374,197,54264,2,0,L|434:206,2,60,2|0|10,0:2|3:2|0:2,0:0:0:0:
315,314,55064,6,0,P|256:321|202:297,1,120,0|8,3:2|0:2,0:2:0:0:
193,237,55664,2,0,L|133:246,1,60,8|8,3:3|3:3,3:2:0:0:
73,253,56064,1,2,3:2:0:0:
73,253,56264,2,0,L|65:192,1,60,2|2,3:2|3:2,0:0:0:0:
56,133,56664,1,6,3:2:0:0:
234,156,57264,6,0,L|218:274,1,120,4|2,3:2|3:2,0:0:0:0:
208,334,57864,1,2,3:2:0:0:
324,346,58264,1,6,3:2:0:0:
412,180,58864,6,0,L|396:62,1,120,6|2,3:2|3:2,0:0:0:0:
386,2,59464,1,2,3:2:0:0:
267,18,59864,5,6,3:2:0:0:
267,18,60064,1,6,3:2:0:0:
250,136,60464,1,6,3:2:0:0:
250,136,60664,1,6,3:2:0:0:
233,254,61064,1,6,3:2:0:0:
233,254,61264,2,0,L|172:246,1,60,6|8,3:2|3:3,0:0:0:0:
156,364,61864,6,0,B|275:380|275:380|284:321|284:321|403:338,1,300,6|8,3:2|3:3,0:2:0:0:
462,345,63064,5,8,3:3:0:0:
462,345,63264,2,0,L|470:284,1,60,2|2,3:3|3:3,0:0:0:0:
476,225,63664,1,2,3:3:0:0:
483,164,63864,2,0,L|424:157,1,60,0|0,3:3|3:2,0:0:0:0:
431,97,64264,1,0,3:3:0:0:
279,51,64664,6,0,L|297:182,1,132.00000402832,6|10,3:2|0:2,0:2:0:0:
308,261,65264,1,0,0:2:0:0:
346,329,65464,2,0,P|316:342|284:338,1,66.0000020141602,2|0,3:2|0:2,0:2:0:0:
230,279,65864,2,0,P|200:266|167:270,1,66.0000020141602,10|2,0:2|0:2,0:0:0:0:
91,292,66264,6,0,L|73:161,1,132.00000402832,2|8,3:2|0:2,0:0:0:0:
122,98,66864,1,2,0:2:0:0:
122,98,67064,2,0,L|132:32,2,66.0000020141602,2|4|8,3:3|3:3|3:2,0:0:0:0:
214,227,67864,6,0,L|224:293,1,66.0000020141602,2|2,3:2|0:2,0:0:0:0:
286,339,68264,2,0,L|352:329,1,66.0000020141602,10|2,0:2|0:2,0:0:0:0:
398,265,68664,2,0,L|388:199,1,66.0000020141602,2|2,3:2|0:2,0:0:0:0:
324,152,69064,2,0,L|258:162,1,66.0000020141602,10|2,0:2|3:2,0:0:0:0:
101,182,69664,6,0,B|116:228|116:228|88:269,2,99.0000030212403,6|6|6,3:2|3:2|3:2,0:2:0:0:
21,180,70464,1,0,3:2:0:0:
21,180,70664,2,0,L|11:246,1,66.0000020141602,6|8,3:2|3:3,0:0:0:0:
28,323,71064,6,0,P|83:352|142:327,1,132.00000402832,6|10,3:2|0:2,0:2:0:0:
212,286,71664,1,2,0:2:0:0:
223,207,71864,2,0,L|289:217,1,66.0000020141602,2|2,3:2|0:2,0:0:0:0:
367,227,72264,2,0,L|357:293,1,66.0000020141602,10|2,0:2|0:2,0:0:0:0:
430,324,72664,6,0,P|464:272|445:211,1,132.00000402832,2|8,3:2|0:2,0:0:0:0:
433,130,73264,1,2,0:2:0:0:
433,130,73464,2,0,L|499:120,2,66.0000020141602,0|4|8,3:2|3:3|3:2,0:0:0:0:
274,119,74264,6,0,L|284:185,1,66.0000020141602,6|0,3:2|3:2,0:0:0:0:
204,195,74664,2,0,L|194:261,1,66.0000020141602,6|0,3:2|3:2,0:0:0:0:
156,328,75064,2,0,P|186:341|218:337,1,66.0000020141602,6|2,3:2|3:3,0:0:0:0:
294,312,75464,1,2,3:3:0:0:
348,163,75864,5,6,3:2:0:0:
348,163,76064,2,0,L|282:153,1,66.0000020141602,6|0,3:2|3:2,0:0:0:0:
221,204,76464,2,0,P|200:143|234:89,1,132.00000402832,6|2,3:2|3:3,0:2:0:0:
187,25,77064,2,0,L|121:35,1,66.0000020141602,2|0,3:3|3:2,0:0:0:0:
43,47,77464,6,0,L|43:113,1,66.0000020141602,6|6,3:2|3:2,0:0:0:0:
43,192,77864,1,6,3:2:0:0:
43,271,78064,2,0,L|175:271,1,132.00000402832,6|6,3:2|3:2,3:2:0:0:
175,350,78664,1,6,3:2:0:0:
175,350,78864,1,6,3:2:0:0:
256,126,79464,5,2,0:2:0:0:
256,126,79664,2,0,L|256:258,1,132.00000402832,2|2,3:2|3:2,0:0:0:0:
335,258,80264,1,0,3:2:0:0:
469,337,80664,6,0,L|468:270,1,66.0000020141602,6|6,3:2|3:2,0:0:0:0:
469,192,81064,1,6,3:2:0:0:
469,113,81264,2,0,L|337:113,1,132.00000402832,6|6,3:2|3:2,3:2:0:0:
337,34,81864,1,6,3:2:0:0:
337,34,82064,1,6,3:2:0:0:
256,258,82664,6,0,L|256:192,1,66.0000020141602,2|0,3:2|3:2,0:0:0:0:
224,119,83064,2,0,P|255:110|287:118,2,66.0000020141602,2|2|0,0:2|3:2|3:2,0:0:0:0:
79,184,83864,6,0,L|66:96,2,88.000002685547,6|2|2,3:2|0:2|0:2,0:0:0:0:
183,200,84664,2,0,L|170:287,2,88.000002685547,6|2|2,3:2|0:2|0:2,0:0:0:0:
287,184,85464,2,0,L|274:96,2,88.000002685547,6|2|2,3:2|0:2|0:2,0:0:0:0:
301,288,86264,6,0,B|406:367|406:367|485:262|485:262|380:182,1,396.000012084961,6|0,3:2|0:2,0:2:0:0:
221,162,87864,2,0,L|229:227,1,66.0000020141602,2|8,3:2|3:3,0:0:0:0:
150,238,88264,1,2,0:2:0:0:
113,95,88664,5,6,3:2:0:0:
113,95,88864,1,6,3:2:0:0:
113,95,89064,1,6,3:2:0:0:
399,95,90264,5,6,3:2:0:0:
399,95,90464,1,6,3:2:0:0:
399,95,90664,1,6,3:2:0:0:
256,343,91864,5,6,3:2:0:0:
256,343,92064,1,6,3:2:0:0:
256,343,92264,1,6,3:2:0:0:
223,15,93464,6,0,L|289:15,1,66.0000020141602,0|0,3:2|3:2,0:0:0:0:
289,95,93864,2,0,L|223:95,1,66.0000020141602,0|0,3:2|3:2,0:0:0:0:
223,175,94264,2,0,L|289:175,2,66.0000020141602,0|0|0,3:2|3:2|3:2,0:0:0:0:
143,312,95064,6,0,L|274:330,1,132.00000402832,6|8,3:2|0:2,0:2:0:0:
353,341,95664,1,2,0:2:0:0:
339,183,96064,1,2,3:2:0:0:
339,183,96264,2,0,L|273:193,1,66.0000020141602,10|2,0:2|3:2,0:0:0:0:
212,143,96664,6,0,P|192:203|228:257,1,132.00000402832,2|10,3:2|3:2,0:0:0:0:
375,315,97464,2,0,L|366:381,2,66.0000020141602,0|0|8,3:2|3:2|3:2,0:0:0:0:
439,268,98064,1,0,3:2:0:0:
449,189,98264,6,0,P|397:155|336:174,1,132.00000402832,6|8,3:2|0:2,0:2:0:0:
324,254,98864,1,2,3:2:0:0:
184,328,99264,1,2,3:2:0:0:
184,328,99464,2,0,L|118:337,1,66.0000020141602,10|2,3:2|3:2,0:0:0:0:
80,267,99864,6,0,P|132:230|193:248,1,132.00000402832,2|8,3:2|0:2,0:2:0:0:
260,205,100464,2,0,L|251:139,1,66.0000020141602,8|8,3:3|3:3,3:3:0:0:
240,60,100864,1,4,3:3:0:0:
240,60,101064,1,8,3:2:0:0:
81,60,101464,6,0,L|63:191,1,132.00000402832,6|8,0:2|0:2,0:2:0:0:
52,270,102064,1,2,0:2:0:0:
210,270,102464,1,2,3:2:0:0:
210,270,102664,2,0,L|200:204,1,66.0000020141602,10|2,0:2|3:2,0:0:0:0:
279,193,103064,6,0,L|297:324,1,132.00000402832,2|10,3:2|3:2,0:0:0:0:
431,239,103864,2,0,L|497:229,2,66.0000020141602,0|0|8,3:2|3:2|3:2,0:0:0:0:
419,159,104464,1,0,3:2:0:0:
407,79,104664,6,0,P|355:42|294:60,1,132.00000402832,6|8,0:2|0:2,0:2:0:0:
213,48,105264,2,0,L|203:114,1,66.0000020141602,2|8,3:2|3:3,3:2:0:0:
122,101,105664,2,0,L|132:35,2,66.0000020141602,2|10|2,3:2|3:2|3:2,3:2:0:0:
109,181,106264,5,6,3:2:0:0:
109,181,106464,1,6,3:2:0:0:
109,181,106664,1,6,3:2:0:0:
221,293,107064,2,0,L|287:283,1,66.0000020141602,2|4,3:3|3:3,0:0:0:0:
367,270,107464,1,8,3:3:0:0:
468,148,107864,6,0,B|396:80|396:80|306:124,1,198.000006042481,6|2,3:2|0:2,0:2:0:0:
