osu file format v14

[General]
AudioFilename: audio.mp3
AudioLeadIn: 0
PreviewTime: 3764
Countdown: 0
SampleSet: Soft
StackLeniency: 0.7
Mode: 0
LetterboxInBreaks: 0
WidescreenStoryboard: 1

[Editor]
DistanceSpacing: 1
BeatDivisor: 4
GridSize: 32
TimelineZoom: 2.5

[Metadata]
Title:Love Pulsar
TitleUnicode:Love Pulsar
Artist:Guilty Kiss
ArtistUnicode:Guilty Kiss
Creator:Doyak
Version:Easy
Source:ラブライブ!サンシャイン!!
Tags:Aqours love live! sunshine!! school idol project japanese pop jpop j-pop LoveLive! ラブライブ!スクールアイドルフェスティバル School Idol Festival video game mobile llsif Kobayashi Aika 小林愛香 Suzuki Aina 鈴木愛奈 Aida Rikako 逢田梨香子 Tsushima Yoshiko 津島善子 Ohara Mari 小原鞠莉 Sakurauchi Riko 桜内梨子 Aki Hata 畑 亜貴 Miki Watanabe 渡辺未来 New Romantic Sailors
BeatmapID:3278076
BeatmapSetID:1601922

[Difficulty]
HPDrainRate:2.5
CircleSize:3
OverallDifficulty:3
ApproachRate:4
SliderMultiplier:0.9
SliderTickRate:1

[Events]
//Background and Video events
0,0,"81344385_p0.jpg",0,0
//Break Periods
//Storyboard Layer 0 (Background)
//Storyboard Layer 1 (Fail)
//Storyboard Layer 2 (Pass)
//Storyboard Layer 3 (Foreground)
//Storyboard Layer 4 (Overlay)
//Storyboard Sound Samples

[TimingPoints]
3864,400,4,2,1,90,1,0
3864,-100,4,2,1,90,0,0
4464,-100,4,2,1,70,0,0
5464,-100,4,2,1,90,0,0
6064,-100,4,2,1,60,0,0
7064,-100,4,2,1,90,0,0
7664,-100,4,2,1,70,0,0
8664,-100,4,2,1,40,0,0
8864,-100,4,2,1,48,0,0
9064,-100,4,2,1,56,0,0
9264,-100,4,2,1,64,0,0
9464,-100,4,2,1,72,0,0
9664,-100,4,2,1,80,0,0
9864,-100,4,2,1,87,0,0
10064,-100,4,2,1,94,0,0
10264,-100,4,2,1,100,0,0
10564,-100,4,2,1,5,0,0
10664,-100,4,2,1,70,0,0
12664,-100,4,2,2,70,0,0
13464,-100,4,2,1,70,0,0
13764,-100,4,2,1,5,0,0
13864,-100,4,2,1,70,0,0
15664,-100,4,2,1,50,0,0
16064,-100,4,2,1,70,0,0
16664,-100,4,2,1,100,0,0
16964,-100,4,2,1,5,0,0
17064,-100,4,2,1,70,0,0
19064,-100,4,2,2,70,0,0
19864,-100,4,2,1,70,0,0
20164,-100,4,2,1,5,0,0
20264,-100,4,2,1,70,0,0
20514,-100,4,2,1,50,0,0
20864,-100,4,2,1,70,0,0
20914,-100,4,2,1,50,0,0
21064,-100,4,2,1,70,0,0
21464,-100,4,2,1,100,0,0
22064,-100,4,2,1,60,0,0
23064,-100,4,2,1,50,0,0
25664,-100,4,2,1,70,0,0
26264,-100,4,2,1,50,0,0
28864,-100,4,2,1,70,0,0
29464,-100,4,2,1,65,0,0
32064,-100,4,2,1,80,0,0
32664,-100,4,2,1,80,0,0
34114,-100,4,2,1,60,0,0
34264,-100,4,2,1,90,0,0
34864,-100,4,2,1,60,0,0
35064,-100,4,2,2,80,0,0
35864,-100,4,2,1,50,0,0
38464,-100,4,2,1,70,0,0
39064,-100,4,2,1,50,0,0
41664,-100,4,2,1,70,0,0
42264,-100,4,2,1,65,0,0
44864,-100,4,2,1,80,0,0
47864,-100,4,2,2,80,0,0
48464,-100,4,2,1,60,0,0
48664,-100,4,2,1,90,0,0
50264,-100,4,2,1,60,0,0
52864,-100,4,2,1,80,0,0
53464,-100,4,2,1,60,0,0
55664,-100,4,2,1,50,0,0
56064,-100,4,2,1,80,0,0
56864,-100,4,2,1,60,0,0
57264,-100,4,2,1,90,0,0
57664,-100,4,2,1,80,0,0
58464,-100,4,2,1,60,0,0
58864,-100,4,2,1,90,0,0
59264,-100,4,2,1,80,0,0
59864,-100,4,2,1,90,0,0
61864,-100,4,2,1,100,0,0
62764,-100,4,2,1,5,0,0
62864,-100,4,2,1,60,0,0
63264,-100,4,2,1,80,0,0
63864,-100,4,2,2,80,0,0
64664,-100,4,2,1,85,0,1
64964,-100,4,2,1,5,0,1
65064,-100,4,2,1,85,0,1
67064,-100,4,2,2,85,0,1
67664,-100,4,2,1,85,0,1
67864,-100,4,2,1,90,0,1
69314,-100,4,2,1,70,0,1
69664,-100,4,2,1,100,0,1
69864,-100,4,2,1,5,0,1
69964,-100,4,2,1,100,0,1
70164,-100,4,2,1,5,0,1
70264,-100,4,2,1,100,0,1
70464,-100,4,2,1,90,0,1
70664,-100,4,2,1,100,0,1
70864,-100,4,2,1,65,0,1
71064,-100,4,2,1,85,0,1
71364,-100,4,2,1,5,0,1
71464,-100,4,2,1,85,0,1
73464,-100,4,2,2,85,0,1
74064,-100,4,2,1,85,0,1
74264,-100,4,2,1,90,0,1
75664,-100,4,2,1,70,0,1
75864,-100,4,2,1,90,0,1
76764,-100,4,2,1,5,0,1
76864,-100,4,2,1,90,0,1
77464,-100,4,2,1,100,0,1
78114,-100,4,2,1,80,0,1
78464,-100,4,2,1,100,0,1
79464,-100,4,2,1,70,0,1
80664,-100,4,2,1,100,0,1
81314,-100,4,2,1,70,0,1
81664,-100,4,2,1,100,0,1
82664,-100,4,2,1,70,0,1
83864,-100,4,2,1,90,0,1
86264,-100,4,2,1,90,0,1
87864,-100,4,2,1,100,0,1
88064,-100,4,2,1,70,0,1
88264,-100,4,2,1,70,0,1
88464,-100,4,2,1,5,0,1
88564,-100,4,2,1,5,0,1
88664,-100,4,2,1,90,0,0
89264,-100,4,2,1,70,0,0
90264,-100,4,2,1,90,0,0
90864,-100,4,2,1,60,0,0
91864,-100,4,2,1,90,0,0
92464,-100,4,2,1,70,0,0
93464,-100,4,2,1,40,0,0
93664,-100,4,2,1,48,0,0
93864,-100,4,2,1,56,0,0
94064,-100,4,2,1,64,0,0
94264,-100,4,2,1,72,0,0
94464,-100,4,2,1,80,0,0
94664,-100,4,2,1,87,0,0
94864,-100,4,2,1,94,0,0
95064,-100,4,2,1,100,0,0
95364,-100,4,2,1,5,0,0
95464,-100,4,2,1,70,0,0
97464,-100,4,2,2,70,0,0
98264,-100,4,2,1,70,0,0
98564,-100,4,2,1,5,0,0
98664,-100,4,2,1,70,0,0
100464,-100,4,2,1,50,0,0
100864,-100,4,2,1,70,0,0
101464,-100,4,2,1,100,0,0
101764,-100,4,2,1,5,0,0
101864,-100,4,2,1,70,0,0
103864,-100,4,2,2,70,0,0
104964,-100,4,2,1,5,0,0
105064,-100,4,2,1,70,0,0
105314,-100,4,2,1,50,0,0
105664,-100,4,2,1,70,0,0
105714,-100,4,2,1,50,0,0
105864,-100,4,2,1,70,0,0
106264,-100,4,2,1,100,0,0
107064,-100,4,2,1,80,0,0
108264,-100,4,2,1,20,0,0
108464,-100,4,2,1,60,0,0
108514,-100,4,2,1,80,0,0
108564,-100,4,2,1,30,0,0

[Colours]
Combo1 : 197,187,69
Combo2 : 170,32,77
Combo3 : 36,132,155

[HitObjects]
180,47,3864,6,0,L|135:47,2,45,6|6|6,3:2|3:2|3:2,0:0:0:0:
332,192,5464,2,0,L|377:192,2,45,6|6|6,3:2|3:2|3:2,0:0:0:0:
180,337,7064,2,0,L|135:337,2,45,6|6|6,3:2|3:2|3:2,0:0:0:0:
413,250,8664,2,0,L|413:160,1,90,0|0,3:2|3:2,0:0:0:0:
413,70,9464,1,0,3:2:0:0:
323,70,9864,1,0,3:2:0:0:
266,139,10264,6,0,P|235:81|251:18,2,135,6|2|10,3:2|0:2|0:2,0:2:0:0:
305,221,11864,2,0,L|215:233,1,90,2|10,3:2|3:2,0:0:0:0:
132,200,12664,1,0,3:2:0:0:
144,289,13064,1,8,3:2:0:0:
92,362,13464,6,0,P|155:377|213:346,2,135,6|2|10,3:2|3:2|3:2,0:2:0:0:
55,279,15064,1,2,3:2:0:0:
109,206,15464,2,0,L|199:218,1,90,8|8,0:2|3:3,0:0:0:0:
287,228,16264,1,8,3:2:0:0:
349,163,16664,6,0,L|330:29,2,135,6|2|10,0:2|0:2|0:2,0:2:0:0:
430,200,18264,2,0,L|418:290,1,90,2|10,3:2|3:2,0:0:0:0:
406,378,19064,1,0,3:2:0:0:
316,366,19464,1,8,3:2:0:0:
327,276,19864,6,0,L|193:294,2,135,6|2|10,0:2|3:2|3:2,0:2:0:0:
315,186,21464,2,0,L|271:193,2,45,6|6|6,3:2|3:2|3:2,0:0:0:0:
405,174,22264,2,0,P|411:130|392:89,1,90,0|8,3:2|3:3,0:0:0:0:
328,26,23064,5,2,3:2:0:0:
266,145,23664,2,0,L|132:127,1,135,2|8,0:1|0:2,0:0:0:0:
77,199,24664,1,0,3:2:0:0:
132,322,25264,2,0,L|266:304,1,135,2|4,0:1|3:3,0:0:0:0:
356,292,26264,5,2,3:2:0:0:
438,185,26864,2,0,L|304:167,1,135,2|8,0:1|0:2,0:0:0:0:
214,155,27864,1,0,3:2:0:0:
266,30,28464,2,0,L|132:48,1,135,2|4,0:1|3:3,0:2:0:0:
78,119,29464,6,0,P|45:176|61:239,2,135,6|2|8,3:2|0:1|3:2,0:2:0:0:
166,131,31064,2,0,P|181:194|148:251,2,135,2|2|4,3:2|0:1|3:3,0:2:0:0:
240,80,32664,5,6,3:2:0:0:
372,97,33264,1,6,3:2:0:0:
289,204,33864,1,6,3:2:0:0:
378,217,34264,2,0,L|422:224,2,45,4|4|4,3:2|3:2|3:2,0:0:0:0:
364,306,35064,2,0,L|275:293,1,90,0|0,3:2|3:2,0:0:0:0:
260,381,35864,5,6,3:2:0:0:
138,318,36464,2,0,P|123:253|156:197,1,135,2|8,0:1|0:2,0:0:0:0:
246,209,37464,1,0,3:2:0:0:
367,148,38064,2,0,P|381:83|348:27,1,135,2|4,0:1|3:3,0:0:0:0:
259,39,39064,5,2,3:2:0:0:
240,172,39664,2,0,L|106:153,1,135,2|8,0:1|0:2,0:0:0:0:
94,243,40664,1,0,3:2:0:0:
113,376,41264,2,0,L|246:357,1,135,2|4,0:1|3:3,0:2:0:0:
280,273,42264,6,0,P|295:210|262:153,2,135,6|2|8,3:2|0:1|0:2,0:2:0:0:
192,285,43864,2,0,P|159:228|175:165,2,135,2|2|4,3:2|0:1|0:3,0:2:0:0:
178,374,45464,6,0,L|89:361,1,90,6|6,3:2|3:2,0:0:0:0:
34,287,46264,1,6,3:2:0:0:
160,240,46864,2,0,P|176:176|143:119,1,135,6|8,3:2|3:2,0:2:0:0:
206,54,47864,2,0,L|295:41,1,90,0|8,3:2|3:2,0:0:0:0:
353,109,48664,2,0,L|486:128,2,135,4|6|6,3:2|3:2|3:2,0:0:0:0:
292,175,50264,6,0,B|222:231|222:231|138:196,1,180,4|2,3:2|0:2,0:2:0:0:
55,163,51464,1,8,0:2:0:0:
69,253,51864,2,0,L|82:342,1,90,0|8,3:2|0:2,0:0:0:0:
171,328,52664,1,2,3:2:0:0:
157,238,53064,1,4,3:3:0:0:
209,165,53464,6,0,B|291:130|291:130|362:186,1,180,6|2,0:2|0:2,0:2:0:0:
434,242,54664,1,10,0:2:0:0:
445,152,55064,2,0,L|457:62,1,90,0|8,3:2|0:2,0:2:0:0:
368,47,55864,1,8,3:3:0:0:
355,137,56264,1,2,3:2:0:0:
265,124,56664,5,6,3:2:0:0:
157,42,57264,2,0,B|67:54|67:54|74:99,1,135,4|2,3:2|3:2,0:0:0:0:
87,189,58264,1,6,3:2:0:0:
195,271,58864,2,0,B|284:258|284:258|277:213,1,135,6|2,3:2|3:2,0:0:0:0:
265,124,59864,5,6,3:2:0:0:
347,18,60464,1,6,3:2:0:0:
397,144,61064,1,6,3:2:0:0:
242,236,61864,6,0,P|138:183|221:102,1,270,6|8,3:2|3:3,0:2:0:0:
311,109,63464,1,2,3:3:0:0:
324,199,63864,1,0,3:3:0:0:
337,289,64264,1,0,3:3:0:0:
286,363,64664,6,0,L|196:351,1,90,6|10,3:2|0:2,0:2:0:0:
152,272,65464,1,2,3:2:0:0:
62,283,65864,1,10,0:2:0:0:
97,200,66264,2,0,L|78:67,2,135,2|2|8,3:2|0:2|3:2,0:0:0:0:
186,189,67864,5,2,3:2:0:0:
197,278,68264,1,10,0:2:0:0:
286,267,68664,1,2,3:2:0:0:
275,178,69064,1,10,0:2:0:0:
341,60,69664,6,0,B|300:5|300:5|246:46,1,135,6|6,3:2|3:2,0:2:0:0:
176,100,70664,1,6,3:2:0:0:
87,89,71064,6,0,L|99:179,1,90,6|10,3:2|0:2,0:2:0:0:
178,223,71864,1,2,3:2:0:0:
167,313,72264,1,10,0:2:0:0:
250,278,72664,2,0,L|383:297,2,135,2|2|8,3:2|0:2|3:2,0:0:0:0:
178,223,74264,5,6,3:2:0:0:
88,234,74664,1,6,3:2:0:0:
77,144,75064,2,0,L|167:132,1,90,6|2,3:2|3:3,0:0:0:0:
255,120,75864,1,6,3:2:0:0:
346,219,76464,2,0,P|410:235|467:202,1,135,6|2,3:2|3:3,0:2:0:0:
490,115,77464,5,6,3:2:0:0:
382,34,78064,2,0,L|292:46,1,90,6|6,3:2|3:2,3:2:0:0:
204,58,78864,1,6,3:2:0:0:
22,269,80664,5,6,3:2:0:0:
130,350,81264,2,0,L|220:338,1,90,6|6,3:2|3:2,3:2:0:0:
308,326,82064,1,6,3:2:0:0:
321,167,83864,6,0,B|286:216|286:216|227:216|227:216|191:167,2,180,6|6|6,3:2|3:2|3:2,0:0:0:0:
256,0,86264,1,6,3:2:0:0:
221,268,87864,1,2,3:2:0:0:
311,268,88264,1,2,0:2:0:0:
401,268,88664,6,0,L|401:313,2,45,6|6|6,3:2|3:2|3:2,0:0:0:0:
256,116,90264,2,0,L|256:71,2,45,6|6|6,3:2|3:2|3:2,0:0:0:0:
111,268,91864,2,0,L|111:313,2,45,6|6|6,3:2|3:2|3:2,0:0:0:0:
198,35,93464,2,0,L|288:35,1,90,0|0,3:2|3:2,0:0:0:0:
378,35,94264,1,0,3:2:0:0:
378,125,94664,1,0,3:2:0:0:
309,182,95064,6,0,P|367:213|430:197,2,135,6|2|10,3:2|0:2|0:2,0:2:0:0:
231,135,96664,2,0,L|217:224,1,90,2|10,3:2|3:2,0:0:0:0:
252,309,97464,1,0,3:2:0:0:
163,296,97864,1,8,3:2:0:0:
106,226,98264,6,0,P|74:282|88:346,2,135,6|2|10,3:2|3:2|3:2,0:2:0:0:
173,166,99864,1,2,3:2:0:0:
159,76,100264,2,0,L|248:62,1,90,8|8,0:2|3:3,0:0:0:0:
337,48,101064,1,8,3:2:0:0:
304,132,101464,6,0,L|285:266,2,135,6|2|10,0:2|0:2|0:2,0:2:0:0:
214,118,103064,2,0,L|200:207,1,90,2|10,3:2|3:2,0:0:0:0:
186,296,103864,1,0,3:2:0:0:
96,282,104264,1,8,3:2:0:0:
40,211,104664,6,0,L|21:77,2,135,6|2|10,0:2|3:2|3:2,0:2:0:0:
129,198,106264,2,0,L|122:154,2,45,6|6|6,3:2|3:2|3:2,0:0:0:0:
141,288,107064,1,2,3:3:0:0:
229,274,107464,1,8,3:3:0:0:
215,185,107864,2,0,B|259:178|259:178|292:210|292:210|336:204,1,135,6|2,3:2|0:2,0:2:0:0:
