osu file format v14

[General]
AudioFilename: audio.mp3
AudioLeadIn: 0
PreviewTime: 4670
Countdown: 0
SampleSet: Normal
StackLeniency: 0.7
Mode: 0
LetterboxInBreaks: 0
WidescreenStoryboard: 1

[Editor]
DistanceSpacing: 1.3
BeatDivisor: 2
GridSize: 4
TimelineZoom: 1.350001

[Metadata]
Title:Kowareyasuki
TitleUnicode:コワレヤスキ
Artist:Guilty Kiss
ArtistUnicode:Guilty Kiss
Creator:Aeds Fuwa
Version:Normal
Source:Love Live! Sunshine!!
Tags:love live sunshine aqours guilty kiss kowareyasuki koware yasuki fragile love tsushima yoshiko yohane ohara mari sakurauchi riko
BeatmapID:1378382
BeatmapSetID:650463

[Difficulty]
HPDrainRate:4
CircleSize:3
OverallDifficulty:4
ApproachRate:5
SliderMultiplier:0.7
SliderTickRate:1

[Events]
//Background and Video events
0,0,"Guilty.Kiss.full.2018821.jpg",0,0
//Break Periods
//Storyboard Layer 0 (Background)
//Storyboard Layer 1 (Fail)
//Storyboard Layer 2 (Pass)
//Storyboard Layer 3 (Foreground)
//Storyboard Sound Samples

[TimingPoints]
5790,326.086956521739,4,1,0,70,1,0
57963,-100,4,1,0,70,0,1
78833,-100,4,1,0,70,0,0

[Colours]
Combo1 : 240,240,240
Combo2 : 255,255,255
Combo3 : 179,109,255

[HitObjects]
64,64,5790,6,0,P|40:128|76:200,1,140
184,332,7094,2,0,L|327:344,1,140
456,216,8398,2,0,P|480:152|456:72,1,140
284,68,9703,2,0,L|140:76,1,140
88,248,11007,6,0,P|144:296|216:280,1,140
388,268,12311,2,0,L|376:128,1,140
248,60,13616,2,0,P|178:35|124:68,1,140
88,200,14920,1,0,0:0:0:0:
184,320,15572,1,0,0:0:0:0:
364,284,16224,5,0,0:0:0:0:
352,192,16550,2,0,L|280:185,1,70
276,96,17203,2,0,L|347:89,1,70
416,32,17855,1,0,0:0:0:0:
444,120,18181,2,0,B|424:152|424:152|380:152,1,70
312,216,18833,6,0,P|336:272|284:320,1,140
192,312,19811,2,0,P|168:256|220:208,1,140
240,120,20789,2,0,B|260:88|260:88|304:88,1,70
332,168,21442,5,0,0:0:0:0:
404,112,21768,2,0,L|397:40,1,70
308,44,22420,2,0,L|301:115,1,70
292,204,23072,1,0,0:0:0:0:
240,128,23398,2,0,B|220:96|220:96|176:96,1,70
100,120,24050,2,0,P|76:176|128:224,1,140
216,204,25029,2,0,P|240:260|188:308,1,140
100,332,26007,2,0,B|68:312|68:312|68:268,1,70
56,188,26659,5,0,0:0:0:0:
148,176,26985,2,0,L|219:169,1,70
204,80,27637,2,0,L|275:86,1,70
364,92,28289,1,0,0:0:0:0:
436,148,28616,2,0,B|468:168|468:168|468:212,1,70
436,284,29268,2,0,P|380:308|332:256,1,140
344,168,30246,2,0,P|288:144|240:196,1,140
232,288,31224,2,0,B|212:320|212:320|168:320,1,70
84,308,31876,5,0,0:0:0:0:
112,220,32203,2,0,L|32:213,1,70
72,128,32855,2,0,L|151:121,1,70
152,32,33507,1,0,0:0:0:0:
244,32,33833,2,0,B|276:52|276:52|276:96,1,70
232,164,34485,2,0,P|254:220|325:217,1,140
396,160,35463,1,0,0:0:0:0:
444,236,35789,6,0,P|476:256|482:301,1,70
396,300,36442,2,0,P|364:280|358:234,1,70
336,160,37094,6,0,L|354:53,2,105
320,248,38398,1,0,0:0:0:0:
176,160,39703,6,0,L|157:53,2,105
192,248,41007,1,0,0:0:0:0:
192,248,42311,6,0,B|300:320|288:56|400:148,1,280
399,147,44920,6,0,B|291:219|303:-45|191:47,1,280
191,46,47529,6,0,L|88:28,2,105
279,66,48833,1,0,0:0:0:0:
191,166,50137,6,0,L|88:184,2,105
279,146,51442,1,0,0:0:0:0:
412,184,52094,1,0,0:0:0:0:
360,24,52746,1,0,0:0:0:0:
360,24,54050,5,0,0:0:0:0:
360,24,55355,6,0,L|367:107,1,70
272,116,56007,1,0,0:0:0:0:
184,140,56333,1,0,0:0:0:0:
96,168,56659,2,0,P|56:208|124:256,1,140
284,260,57963,6,0,P|344:248|336:120,1,210
276,60,59268,1,0,0:0:0:0:
124,156,59920,1,0,0:0:0:0:
12,300,60572,6,0,P|24:360|152:352,1,210,0|0,3:0|3:0,3:0:0:0:
220,304,61876,1,0,0:0:0:0:
308,276,62203,1,0,0:0:0:0:
396,248,62529,1,0,0:0:0:0:
484,220,62855,1,0,0:0:0:0:
480,128,63181,6,0,P|468:68|340:76,1,210,0|0,3:0|3:0,3:0:0:0:
324,156,64485,6,0,P|312:216|184:208,1,210,0|0,3:0|3:0,3:0:0:0:
136,136,65789,1,0,0:0:0:0:
204,76,66116,1,0,0:0:0:0:
272,16,66442,1,0,0:0:0:0:
360,0,66768,2,0,L|420:4,1,35
484,24,67257,2,0,L|484:64,1,35
484,104,67583,2,0,L|484:152,1,35
484,184,67909,2,0,L|484:228,1,35
480,308,68398,6,0,P|429:341|344:245,1,210
364,160,69703,1,0,0:0:0:0:
184,124,70355,1,0,0:0:0:0:
48,244,71007,6,0,P|15:295|111:380,1,210
184,336,72311,1,0,0:0:0:0:
264,288,72637,1,0,0:0:0:0:
344,244,72963,1,0,0:0:0:0:
424,200,73289,1,0,0:0:0:0:
420,108,73616,6,0,L|344:114,1,70
332,24,74268,2,0,L|256:17,1,70
248,108,74920,2,0,L|172:114,1,70
160,24,75572,2,0,L|84:17,1,70
256,192,76224,12,0,78181,0:0:0:0:
448,64,78833,6,0,P|472:128|436:200,1,140
340,340,80137,2,0,L|168:354,1,140
28,296,81442,6,0,P|4:232|40:160,1,140
136,20,82746,2,0,L|307:5,1,140
328,184,84050,6,0,P|264:208|192:172,1,140
52,76,85355,2,0,L|37:247,1,140
168,344,86659,6,0,P|232:368|304:332,1,140
432,220,87963,1,0,0:0:0:0:
256,172,88616,1,0,0:0:0:0:
344,12,89268,6,0,P|406:40|431:116,1,140
432,300,90572,2,0,L|296:340,1,140
116,324,91877,6,0,P|53:295|28:219,1,140
116,72,93181,2,0,L|252:32,1,140
360,85,94485,6,0,P|313:134|232:132,1,140,0|0,3:0|0:0,0:0:0:0:
64,160,95790,2,0,L|175:291,1,140
332,304,97094,6,0,P|394:275|419:199,1,140
304,87,98398,1,0,0:0:0:0:
137,163,99050,1,0,0:0:0:0:
182,339,99703,1,0,0:0:0:0:
