osu file format v14

[General]
AudioFilename: audio.mp3
AudioLeadIn: 0
PreviewTime: 38296
Countdown: 0
SampleSet: None
StackLeniency: 0.7
Mode: 0
LetterboxInBreaks: 0
EpilepsyWarning: 1
WidescreenStoryboard: 1

[Editor]
Bookmarks: 6992,17427,27861,38296,48731,90470
DistanceSpacing: 0.8
BeatDivisor: 8
GridSize: 4
TimelineZoom: 3.399999

[Metadata]
Title:Kowareyasuki
TitleUnicode:コワレヤスキ
Artist:Guilty Kiss
ArtistUnicode:Guilty Kiss
Creator:-Kazuto
Version:Extra
Source:ラブライブ!サンシャイン!!
Tags:Lovelive! Sunshine!! School idol project Sakurauchi Riko 桜内梨子 Tsushima Yoshiko Yohane 津島善子 Ohara Mari 小原鞠莉 Aida Rikako 逢田梨香子 Kobayashi Aika 小林愛香 Suzuki Aina 鈴木愛奈 -Aqua Aqua My Angel Kanan Sun Rainbow Akitoshi Corinn JeirYagtama Gaia
BeatmapID:1404320
BeatmapSetID:626381

[Difficulty]
HPDrainRate:6.6
CircleSize:4.4
OverallDifficulty:8.5
ApproachRate:9.3
SliderMultiplier:2
SliderTickRate:1

[Events]
//Background and Video events
0,0,"Yohane BG.jpg",0,0
//Break Periods
//Storyboard Layer 0 (Background)
Sprite,Background,Centre,"Yohane BG.jpg",320,240 M,0,0,,320,240 F,0,0,,0
//Storyboard Layer 1 (Fail)
//Storyboard Layer 2 (Pass)
//Storyboard Layer 3 (Foreground)
Sprite,Foreground,Centre,"SB\BG.jpg",320,240 F,0,1775,6992,0,1 M,0,1775,17427,320,240,319.4149,240 F,0,100742,,0
Sprite,Foreground,Centre,"SB\eyes.png",320,240 L,6992,4 F,0,0,2609,1,0
Sprite,Foreground,Centre,"SB\BG2.jpg",320,240 F,0,38296,48731,0,1 F,0,48731,57861,1 F,0,57861,58514,1,0.2363885
Sprite,Foreground,Centre,"SB\BG3.jpg",320,240 M,0,17427,,320,240 F,0,17427,17916,1,0 F,0,17916,18079,0 F,0,27861,28514,1,0 F,0,38296,39601,1,0
Sprite,Foreground,Centre,"SB\eyes.png",320,240 L,48731,8 F,0,0,1304,1,0
Sprite,Foreground,Centre,"SB\BG3.jpg",320,240 M,0,79710,,320,240 F,0,79710,79751,1,0 F,0,79751,79792,0,1 F,0,79792,79832,1,0 F,0,79832,79873,0,1 F,0,79873,79914,1,0 F,0,79914,79955,0,1 F,0,79955,79995,1,0 F,0,79995,80036,0,1
Sprite,Foreground,Centre,"SB\BG3.jpg",320,240 S,0,59167,59248,1,1.070217 F,0,59167,60471,1,0 S,0,59248,60471,1.070217,1.087771
Sprite,Foreground,Centre,"SB\BG3.jpg",320,240 S,0,69601,69683,1,1.069881 F,0,69601,70906,1,0 S,0,69683,70906,1.069881,1.087771
Sprite,Foreground,Centre,"sb\particle.png",320,240 F,0,59166,,0.6 C,0,59166,,255,23,23 F,0,59166,59366,0,0.6 M,0,59166,60166,513.2117,480,513.2117,300 S,0,59166,60166,0.2,0.3 P,0,59166,79599,A F,0,59966,60166,0.6,0 F,0,60166,60366,0,0.6 M,0,60166,61166,52.80439,480,52.80439,300 S,0,60166,61166,0.2,0.3 F,0,60966,61166,0.6,0 F,0,61166,61366,0,0.6 M,0,61166,62166,426.6357,480,426.6357,300 S,0,61166,62166,0.2,0.3 F,0,61966,62166,0.6,0 F,0,62166,62366,0,0.6 M,0,62166,63166,693.6595,480,693.6595,300 S,0,62166,63166,0.2,0.3 F,0,62966,63166,0.6,0 F,0,63166,63366,0,0.6 M,0,63166,64166,-102.6598,480,-102.6598,300 S,0,63166,64166,0.2,0.3 F,0,63966,64166,0.6,0 F,0,64166,64366,0,0.6 M,0,64166,65166,413.1807,480,413.1807,300 S,0,64166,65166,0.2,0.3 F,0,64966,65166,0.6,0 F,0,65166,65366,0,0.6 M,0,65166,66166,-90.04867,480,-90.04867,300 S,0,65166,66166,0.2,0.3 F,0,65966,66166,0.6,0 F,0,66199,66399,0,0.6 M,0,66199,67199,483.7352,480,483.7352,300 S,0,66199,67199,0.2,0.3 F,0,66999,67199,0.6,0 F,0,67232,67432,0,0.6 M,0,67232,68232,414.3723,480,414.3723,300 S,0,67232,68232,0.2,0.3 F,0,68032,68232,0.6,0 F,0,68266,68466,0,0.6 M,0,68266,69266,638.6821,480,638.6821,300 S,0,68266,69266,0.2,0.3 F,0,69066,69266,0.6,0 F,0,69299,69499,0,0.6 M,0,69299,70299,-20.56881,480,-20.56881,300 S,0,69299,70299,0.2,0.3 F,0,70099,70299,0.6,0 F,0,70332,70532,0,0.6 M,0,70332,71332,197.193,480,197.193,300 S,0,70332,71332,0.2,0.3 F,0,71132,71332,0.6,0 F,0,71365,71565,0,0.6 M,0,71365,72365,-5.044554,480,-5.044554,300 S,0,71365,72365,0.2,0.3 F,0,72165,72365,0.6,0 F,0,72399,72599,0,0.6 M,0,72399,73399,98.21302,480,98.21302,300 S,0,72399,73399,0.2,0.3 F,0,73199,73399,0.6,0 F,0,73432,73632,0,0.6 M,0,73432,74432,289.3495,480,289.3495,300 S,0,73432,74432,0.2,0.3 F,0,74232,74432,0.6,0 F,0,74465,74665,0,0.6 M,0,74465,75465,646.5936,480,646.5936,300 S,0,74465,75465,0.2,0.3 F,0,75265,75465,0.6,0 F,0,75499,75699,0,0.6 M,0,75499,76499,395.6768,480,395.6768,300 S,0,75499,76499,0.2,0.3 F,0,76299,76499,0.6,0 F,0,76532,76732,0,0.6 M,0,76532,77532,-56.49334,480,-56.49334,300 S,0,76532,77532,0.2,0.3 F,0,77332,77532,0.6,0 F,0,77565,77765,0,0.6 M,0,77565,78565,666.9857,480,666.9857,300 S,0,77565,78565,0.2,0.3 F,0,78365,78565,0.6,0 F,0,78599,78799,0,0.6 M,0,78599,79599,701.8108,480,701.8108,300 S,0,78599,79599,0.2,0.3 F,0,79399,79599,0.6,0
Sprite,Foreground,Centre,"sb\particle.png",320,240 F,0,59199,,0.6 C,0,59199,,255,23,23 F,0,59199,59399,0,0.6 M,0,59199,60199,590.9958,480,590.9958,300 S,0,59199,60199,0.2,0.3 P,0,59199,79632,A F,0,59999,60199,0.6,0 F,0,60199,60399,0,0.6 M,0,60199,61199,280.1414,480,280.1414,300 S,0,60199,61199,0.2,0.3 F,0,60999,61199,0.6,0 F,0,61199,61399,0,0.6 M,0,61199,62199,79.51939,480,79.51939,300 S,0,61199,62199,0.2,0.3 F,0,61999,62199,0.6,0 F,0,62199,62399,0,0.6 M,0,62199,63199,144.9273,480,144.9273,300 S,0,62199,63199,0.2,0.3 F,0,62999,63199,0.6,0 F,0,63199,63399,0,0.6 M,0,63199,64199,201.2419,480,201.2419,300 S,0,63199,64199,0.2,0.3 F,0,63999,64199,0.6,0 F,0,64199,64399,0,0.6 M,0,64199,65199,107.1391,480,107.1391,300 S,0,64199,65199,0.2,0.3 F,0,64999,65199,0.6,0 F,0,65199,65399,0,0.6 M,0,65199,66199,225.0675,480,225.0675,300 S,0,65199,66199,0.2,0.3 F,0,65999,66199,0.6,0 F,0,66232,66432,0,0.6 M,0,66232,67232,-3.507074,480,-3.507074,300 S,0,66232,67232,0.2,0.3 F,0,67032,67232,0.6,0 F,0,67266,67466,0,0.6 M,0,67266,68266,-105.4417,480,-105.4417,300 S,0,67266,68266,0.2,0.3 F,0,68066,68266,0.6,0 F,0,68299,68499,0,0.6 M,0,68299,69299,353.7705,480,353.7705,300 S,0,68299,69299,0.2,0.3 F,0,69099,69299,0.6,0 F,0,69332,69532,0,0.6 M,0,69332,70332,267.6171,480,267.6171,300 S,0,69332,70332,0.2,0.3 F,0,70132,70332,0.6,0 F,0,70365,70565,0,0.6 M,0,70365,71365,364.2183,480,364.2183,300 S,0,70365,71365,0.2,0.3 F,0,71165,71365,0.6,0 F,0,71399,71599,0,0.6 M,0,71399,72399,-19.4304,480,-19.4304,300 S,0,71399,72399,0.2,0.3 F,0,72199,72399,0.6,0 F,0,72432,72632,0,0.6 M,0,72432,73432,42.61781,480,42.61781,300 S,0,72432,73432,0.2,0.3 F,0,73232,73432,0.6,0 F,0,73465,73665,0,0.6 M,0,73465,74465,358.0798,480,358.0798,300 S,0,73465,74465,0.2,0.3 F,0,74265,74465,0.6,0 F,0,74499,74699,0,0.6 M,0,74499,75499,491.441,480,491.441,300 S,0,74499,75499,0.2,0.3 F,0,75299,75499,0.6,0 F,0,75532,75732,0,0.6 M,0,75532,76532,-53.52797,480,-53.52797,300 S,0,75532,76532,0.2,0.3 F,0,76332,76532,0.6,0 F,0,76565,76765,0,0.6 M,0,76565,77565,441.1502,480,441.1502,300 S,0,76565,77565,0.2,0.3 F,0,77365,77565,0.6,0 F,0,77599,77799,0,0.6 M,0,77599,78599,713.9062,480,713.9062,300 S,0,77599,78599,0.2,0.3 F,0,78399,78599,0.6,0 F,0,78632,78832,0,0.6 M,0,78632,79632,-16.96926,480,-16.96926,300 S,0,78632,79632,0.2,0.3 F,0,79432,79632,0.6,0
Sprite,Foreground,Centre,"sb\particle.png",320,240 F,0,59232,,0.6 C,0,59232,,255,23,23 F,0,59232,59432,0,0.6 M,0,59232,60232,548.8914,480,548.8914,300 S,0,59232,60232,0.2,0.3 P,0,59232,79665,A F,0,60032,60232,0.6,0 F,0,60232,60432,0,0.6 M,0,60232,61232,146.7848,480,146.7848,300 S,0,60232,61232,0.2,0.3 F,0,61032,61232,0.6,0 F,0,61232,61432,0,0.6 M,0,61232,62232,657.6395,480,657.6395,300 S,0,61232,62232,0.2,0.3 F,0,62032,62232,0.6,0 F,0,62232,62432,0,0.6 M,0,62232,63232,339.4586,480,339.4586,300 S,0,62232,63232,0.2,0.3 F,0,63032,63232,0.6,0 F,0,63232,63432,0,0.6 M,0,63232,64232,619.3141,480,619.3141,300 S,0,63232,64232,0.2,0.3 F,0,64032,64232,0.6,0 F,0,64232,64432,0,0.6 M,0,64232,65232,744.536,480,744.536,300 S,0,64232,65232,0.2,0.3 F,0,65032,65232,0.6,0 F,0,65232,65432,0,0.6 M,0,65232,66232,589.9022,480,589.9022,300 S,0,65232,66232,0.2,0.3 F,0,66032,66232,0.6,0 F,0,66266,66466,0,0.6 M,0,66266,67266,59.45379,480,59.45379,300 S,0,66266,67266,0.2,0.3 F,0,67066,67266,0.6,0 F,0,67299,67499,0,0.6 M,0,67299,68299,732.8465,480,732.8465,300 S,0,67299,68299,0.2,0.3 F,0,68099,68299,0.6,0 F,0,68332,68532,0,0.6 M,0,68332,69332,10.54399,480,10.54399,300 S,0,68332,69332,0.2,0.3 F,0,69132,69332,0.6,0 F,0,69365,69565,0,0.6 M,0,69365,70365,-5.022889,480,-5.022889,300 S,0,69365,70365,0.2,0.3 F,0,70165,70365,0.6,0 F,0,70399,70599,0,0.6 M,0,70399,71399,152.8648,480,152.8648,300 S,0,70399,71399,0.2,0.3 F,0,71199,71399,0.6,0 F,0,71432,71632,0,0.6 M,0,71432,72432,417.029,480,417.029,300 S,0,71432,72432,0.2,0.3 F,0,72232,72432,0.6,0 F,0,72465,72665,0,0.6 M,0,72465,73465,-1.425423,480,-1.425423,300 S,0,72465,73465,0.2,0.3 F,0,73265,73465,0.6,0 F,0,73499,73699,0,0.6 M,0,73499,74499,608.5999,480,608.5999,300 S,0,73499,74499,0.2,0.3 F,0,74299,74499,0.6,0 F,0,74532,74732,0,0.6 M,0,74532,75532,181.1666,480,181.1666,300 S,0,74532,75532,0.2,0.3 F,0,75332,75532,0.6,0 F,0,75565,75765,0,0.6 M,0,75565,76565,49.10522,480,49.10522,300 S,0,75565,76565,0.2,0.3 F,0,76365,76565,0.6,0 F,0,76599,76799,0,0.6 M,0,76599,77599,453.3764,480,453.3764,300 S,0,76599,77599,0.2,0.3 F,0,77399,77599,0.6,0 F,0,77632,77832,0,0.6 M,0,77632,78632,25.56357,480,25.56357,300 S,0,77632,78632,0.2,0.3 F,0,78432,78632,0.6,0 F,0,78665,78865,0,0.6 M,0,78665,79665,682.8693,480,682.8693,300 S,0,78665,79665,0.2,0.3 F,0,79465,79665,0.6,0
Sprite,Foreground,Centre,"sb\particle.png",320,240 F,0,59266,,0.6 C,0,59266,,255,23,23 F,0,59266,59466,0,0.6 M,0,59266,60266,369.6696,480,369.6696,300 S,0,59266,60266,0.2,0.3 P,0,59266,79699,A F,0,60066,60266,0.6,0 F,0,60266,60466,0,0.6 M,0,60266,61266,737.2164,480,737.2164,300 S,0,60266,61266,0.2,0.3 F,0,61066,61266,0.6,0 F,0,61266,61466,0,0.6 M,0,61266,62266,658.5596,480,658.5596,300 S,0,61266,62266,0.2,0.3 F,0,62066,62266,0.6,0 F,0,62266,62466,0,0.6 M,0,62266,63266,459.5375,480,459.5375,300 S,0,62266,63266,0.2,0.3 F,0,63066,63266,0.6,0 F,0,63266,63466,0,0.6 M,0,63266,64266,-53.78861,480,-53.78861,300 S,0,63266,64266,0.2,0.3 F,0,64066,64266,0.6,0 F,0,64266,64466,0,0.6 M,0,64266,65266,378.6608,480,378.6608,300 S,0,64266,65266,0.2,0.3 F,0,65066,65266,0.6,0 F,0,65266,65466,0,0.6 M,0,65266,66266,66.02398,480,66.02398,300 S,0,65266,66266,0.2,0.3 F,0,66066,66266,0.6,0 F,0,66299,66499,0,0.6 M,0,66299,67299,317.0254,480,317.0254,300 S,0,66299,67299,0.2,0.3 F,0,67099,67299,0.6,0 F,0,67332,67532,0,0.6 M,0,67332,68332,714.3697,480,714.3697,300 S,0,67332,68332,0.2,0.3 F,0,68132,68332,0.6,0 F,0,68366,68566,0,0.6 M,0,68366,69366,-105.2941,480,-105.2941,300 S,0,68366,69366,0.2,0.3 F,0,69166,69366,0.6,0 F,0,69399,69599,0,0.6 M,0,69399,70399,627.1265,480,627.1265,300 S,0,69399,70399,0.2,0.3 F,0,70199,70399,0.6,0 F,0,70432,70632,0,0.6 M,0,70432,71432,250.6147,480,250.6147,300 S,0,70432,71432,0.2,0.3 F,0,71232,71432,0.6,0 F,0,71465,71665,0,0.6 M,0,71465,72465,437.1816,480,437.1816,300 S,0,71465,72465,0.2,0.3 F,0,72265,72465,0.6,0 F,0,72499,72699,0,0.6 M,0,72499,73499,46.47664,480,46.47664,300 S,0,72499,73499,0.2,0.3 F,0,73299,73499,0.6,0 F,0,73532,73732,0,0.6 M,0,73532,74532,254.3783,480,254.3783,300 S,0,73532,74532,0.2,0.3 F,0,74332,74532,0.6,0 F,0,74565,74765,0,0.6 M,0,74565,75565,589.7882,480,589.7882,300 S,0,74565,75565,0.2,0.3 F,0,75365,75565,0.6,0 F,0,75599,75799,0,0.6 M,0,75599,76599,-71.82986,480,-71.82986,300 S,0,75599,76599,0.2,0.3 F,0,76399,76599,0.6,0 F,0,76632,76832,0,0.6 M,0,76632,77632,689.1985,480,689.1985,300 S,0,76632,77632,0.2,0.3 F,0,77432,77632,0.6,0 F,0,77665,77865,0,0.6 M,0,77665,78665,639.2994,480,639.2994,300 S,0,77665,78665,0.2,0.3 F,0,78465,78665,0.6,0 F,0,78699,78899,0,0.6 M,0,78699,79699,-89.90281,480,-89.90281,300 S,0,78699,79699,0.2,0.3 F,0,79499,79699,0.6,0
Sprite,Foreground,Centre,"sb\particle.png",320,240 F,0,59299,,0.6 C,0,59299,,255,23,23 F,0,59299,59499,0,0.6 M,0,59299,60299,68.95232,480,68.95232,300 S,0,59299,60299,0.2,0.3 P,0,59299,79732,A F,0,60099,60299,0.6,0 F,0,60299,60499,0,0.6 M,0,60299,61299,441.8636,480,441.8636,300 S,0,60299,61299,0.2,0.3 F,0,61099,61299,0.6,0 F,0,61299,61499,0,0.6 M,0,61299,62299,-33.06078,480,-33.06078,300 S,0,61299,62299,0.2,0.3 F,0,62099,62299,0.6,0 F,0,62299,62499,0,0.6 M,0,62299,63299,177.031,480,177.031,300 S,0,62299,63299,0.2,0.3 F,0,63099,63299,0.6,0 F,0,63299,63499,0,0.6 M,0,63299,64299,133.5268,480,133.5268,300 S,0,63299,64299,0.2,0.3 F,0,64099,64299,0.6,0 F,0,64299,64499,0,0.6 M,0,64299,65299,-52.8251,480,-52.8251,300 S,0,64299,65299,0.2,0.3 F,0,65099,65299,0.6,0 F,0,65299,65499,0,0.6 M,0,65299,66299,673.2394,480,673.2394,300 S,0,65299,66299,0.2,0.3 F,0,66099,66299,0.6,0 F,0,66332,66532,0,0.6 M,0,66332,67332,389.4212,480,389.4212,300 S,0,66332,67332,0.2,0.3 F,0,67132,67332,0.6,0 F,0,67366,67566,0,0.6 M,0,67366,68366,27.20049,480,27.20049,300 S,0,67366,68366,0.2,0.3 F,0,68166,68366,0.6,0 F,0,68399,68599,0,0.6 M,0,68399,69399,369.0755,480,369.0755,300 S,0,68399,69399,0.2,0.3 F,0,69199,69399,0.6,0 F,0,69432,69632,0,0.6 M,0,69432,70432,373.2724,480,373.2724,300 S,0,69432,70432,0.2,0.3 F,0,70232,70432,0.6,0 F,0,70465,70665,0,0.6 M,0,70465,71465,226.8925,480,226.8925,300 S,0,70465,71465,0.2,0.3 F,0,71265,71465,0.6,0 F,0,71499,71699,0,0.6 M,0,71499,72499,380.2621,480,380.2621,300 S,0,71499,72499,0.2,0.3 F,0,72299,72499,0.6,0 F,0,72532,72732,0,0.6 M,0,72532,73532,386.5851,480,386.5851,300 S,0,72532,73532,0.2,0.3 F,0,73332,73532,0.6,0 F,0,73565,73765,0,0.6 M,0,73565,74565,666.5483,480,666.5483,300 S,0,73565,74565,0.2,0.3 F,0,74365,74565,0.6,0 F,0,74599,74799,0,0.6 M,0,74599,75599,695.7449,480,695.7449,300 S,0,74599,75599,0.2,0.3 F,0,75399,75599,0.6,0 F,0,75632,75832,0,0.6 M,0,75632,76632,647.7737,480,647.7737,300 S,0,75632,76632,0.2,0.3 F,0,76432,76632,0.6,0 F,0,76665,76865,0,0.6 M,0,76665,77665,166.9798,480,166.9798,300 S,0,76665,77665,0.2,0.3 F,0,77465,77665,0.6,0 F,0,77699,77899,0,0.6 M,0,77699,78699,237.578,480,237.578,300 S,0,77699,78699,0.2,0.3 F,0,78499,78699,0.6,0 F,0,78732,78932,0,0.6 M,0,78732,79732,595.3378,480,595.3378,300 S,0,78732,79732,0.2,0.3 F,0,79532,79732,0.6,0
Sprite,Foreground,Centre,"sb\particle.png",320,240 F,0,59332,,0.6 C,0,59332,,255,23,23 F,0,59332,59532,0,0.6 M,0,59332,60332,370.2876,480,370.2876,300 S,0,59332,60332,0.2,0.3 P,0,59332,79765,A F,0,60132,60332,0.6,0 F,0,60332,60532,0,0.6 M,0,60332,61332,544.5709,480,544.5709,300 S,0,60332,61332,0.2,0.3 F,0,61132,61332,0.6,0 F,0,61332,61532,0,0.6 M,0,61332,62332,609.1465,480,609.1465,300 S,0,61332,62332,0.2,0.3 F,0,62132,62332,0.6,0 F,0,62332,62532,0,0.6 M,0,62332,63332,137.861,480,137.861,300 S,0,62332,63332,0.2,0.3 F,0,63132,63332,0.6,0 F,0,63332,63532,0,0.6 M,0,63332,64332,495.0494,480,495.0494,300 S,0,63332,64332,0.2,0.3 F,0,64132,64332,0.6,0 F,0,64332,64532,0,0.6 M,0,64332,65332,118.1859,480,118.1859,300 S,0,64332,65332,0.2,0.3 F,0,65132,65332,0.6,0 F,0,65332,65532,0,0.6 M,0,65332,66332,-81.74125,480,-81.74125,300 S,0,65332,66332,0.2,0.3 F,0,66132,66332,0.6,0 F,0,66366,66566,0,0.6 M,0,66366,67366,116.4614,480,116.4614,300 S,0,66366,67366,0.2,0.3 F,0,67166,67366,0.6,0 F,0,67399,67599,0,0.6 M,0,67399,68399,552.5074,480,552.5074,300 S,0,67399,68399,0.2,0.3 F,0,68199,68399,0.6,0 F,0,68432,68632,0,0.6 M,0,68432,69432,467.0524,480,467.0524,300 S,0,68432,69432,0.2,0.3 F,0,69232,69432,0.6,0 F,0,69465,69665,0,0.6 M,0,69465,70465,492.6685,480,492.6685,300 S,0,69465,70465,0.2,0.3 F,0,70265,70465,0.6,0 F,0,70499,70699,0,0.6 M,0,70499,71499,253.2096,480,253.2096,300 S,0,70499,71499,0.2,0.3 F,0,71299,71499,0.6,0 F,0,71532,71732,0,0.6 M,0,71532,72532,590.042,480,590.042,300 S,0,71532,72532,0.2,0.3 F,0,72332,72532,0.6,0 F,0,72565,72765,0,0.6 M,0,72565,73565,515.6141,480,515.6141,300 S,0,72565,73565,0.2,0.3 F,0,73365,73565,0.6,0 F,0,73599,73799,0,0.6 M,0,73599,74599,242.7875,480,242.7875,300 S,0,73599,74599,0.2,0.3 F,0,74399,74599,0.6,0 F,0,74632,74832,0,0.6 M,0,74632,75632,336.2097,480,336.2097,300 S,0,74632,75632,0.2,0.3 F,0,75432,75632,0.6,0 F,0,75665,75865,0,0.6 M,0,75665,76665,451.7922,480,451.7922,300 S,0,75665,76665,0.2,0.3 F,0,76465,76665,0.6,0 F,0,76699,76899,0,0.6 M,0,76699,77699,-14.76783,480,-14.76783,300 S,0,76699,77699,0.2,0.3 F,0,77499,77699,0.6,0 F,0,77732,77932,0,0.6 M,0,77732,78732,653.0583,480,653.0583,300 S,0,77732,78732,0.2,0.3 F,0,78532,78732,0.6,0 F,0,78765,78965,0,0.6 M,0,78765,79765,10.26618,480,10.26618,300 S,0,78765,79765,0.2,0.3 F,0,79565,79765,0.6,0
Sprite,Foreground,Centre,"sb\particle.png",320,240 F,0,59366,,0.6 C,0,59366,,255,23,23 F,0,59366,59566,0,0.6 M,0,59366,60366,666.7471,480,666.7471,300 S,0,59366,60366,0.2,0.3 P,0,59366,79799,A F,0,60166,60366,0.6,0 F,0,60366,60566,0,0.6 M,0,60366,61366,-81.04327,480,-81.04327,300 S,0,60366,61366,0.2,0.3 F,0,61166,61366,0.6,0 F,0,61366,61566,0,0.6 M,0,61366,62366,38.30198,480,38.30198,300 S,0,61366,62366,0.2,0.3 F,0,62166,62366,0.6,0 F,0,62366,62566,0,0.6 M,0,62366,63366,593.801,480,593.801,300 S,0,62366,63366,0.2,0.3 F,0,63166,63366,0.6,0 F,0,63366,63566,0,0.6 M,0,63366,64366,711.6276,480,711.6276,300 S,0,63366,64366,0.2,0.3 F,0,64166,64366,0.6,0 F,0,64366,64566,0,0.6 M,0,64366,65366,612.5463,480,612.5463,300 S,0,64366,65366,0.2,0.3 F,0,65166,65366,0.6,0 F,0,65366,65566,0,0.6 M,0,65366,66366,328.08,480,328.08,300 S,0,65366,66366,0.2,0.3 F,0,66166,66366,0.6,0 F,0,66399,66599,0,0.6 M,0,66399,67399,158.0501,480,158.0501,300 S,0,66399,67399,0.2,0.3 F,0,67199,67399,0.6,0 F,0,67432,67632,0,0.6 M,0,67432,68432,-29.05055,480,-29.05055,300 S,0,67432,68432,0.2,0.3 F,0,68232,68432,0.6,0 F,0,68466,68666,0,0.6 M,0,68466,69466,216.868,480,216.868,300 S,0,68466,69466,0.2,0.3 F,0,69266,69466,0.6,0 F,0,69499,69699,0,0.6 M,0,69499,70499,440.1349,480,440.1349,300 S,0,69499,70499,0.2,0.3 F,0,70299,70499,0.6,0 F,0,70532,70732,0,0.6 M,0,70532,71532,459.0976,480,459.0976,300 S,0,70532,71532,0.2,0.3 F,0,71332,71532,0.6,0 F,0,71565,71765,0,0.6 M,0,71565,72565,631.2453,480,631.2453,300 S,0,71565,72565,0.2,0.3 F,0,72365,72565,0.6,0 F,0,72599,72799,0,0.6 M,0,72599,73599,601.396,480,601.396,300 S,0,72599,73599,0.2,0.3 F,0,73399,73599,0.6,0 F,0,73632,73832,0,0.6 M,0,73632,74632,589.4424,480,589.4424,300 S,0,73632,74632,0.2,0.3 F,0,74432,74632,0.6,0 F,0,74665,74865,0,0.6 M,0,74665,75665,50.38896,480,50.38896,300 S,0,74665,75665,0.2,0.3 F,0,75465,75665,0.6,0 F,0,75699,75899,0,0.6 M,0,75699,76699,94.67212,480,94.67212,300 S,0,75699,76699,0.2,0.3 F,0,76499,76699,0.6,0 F,0,76732,76932,0,0.6 M,0,76732,77732,568.4893,480,568.4893,300 S,0,76732,77732,0.2,0.3 F,0,77532,77732,0.6,0 F,0,77765,77965,0,0.6 M,0,77765,78765,406.9742,480,406.9742,300 S,0,77765,78765,0.2,0.3 F,0,78565,78765,0.6,0 F,0,78799,78999,0,0.6 M,0,78799,79799,343.7916,480,343.7916,300 S,0,78799,79799,0.2,0.3 F,0,79599,79799,0.6,0
Sprite,Foreground,Centre,"sb\particle.png",320,240 F,0,59399,,0.6 C,0,59399,,255,23,23 F,0,59399,59599,0,0.6 M,0,59399,60399,270.6199,480,270.6199,300 S,0,59399,60399,0.2,0.3 P,0,59399,79832,A F,0,60199,60399,0.6,0 F,0,60399,60599,0,0.6 M,0,60399,61399,218.3779,480,218.3779,300 S,0,60399,61399,0.2,0.3 F,0,61199,61399,0.6,0 F,0,61399,61599,0,0.6 M,0,61399,62399,443.0745,480,443.0745,300 S,0,61399,62399,0.2,0.3 F,0,62199,62399,0.6,0 F,0,62399,62599,0,0.6 M,0,62399,63399,83.03031,480,83.03031,300 S,0,62399,63399,0.2,0.3 F,0,63199,63399,0.6,0 F,0,63399,63599,0,0.6 M,0,63399,64399,737.4458,480,737.4458,300 S,0,63399,64399,0.2,0.3 F,0,64199,64399,0.6,0 F,0,64399,64599,0,0.6 M,0,64399,65399,378.1454,480,378.1454,300 S,0,64399,65399,0.2,0.3 F,0,65199,65399,0.6,0 F,0,65399,65599,0,0.6 M,0,65399,66399,715.3077,480,715.3077,300 S,0,65399,66399,0.2,0.3 F,0,66199,66399,0.6,0 F,0,66432,66632,0,0.6 M,0,66432,67432,99.78419,480,99.78419,300 S,0,66432,67432,0.2,0.3 F,0,67232,67432,0.6,0 F,0,67466,67666,0,0.6 M,0,67466,68466,56.03913,480,56.03913,300 S,0,67466,68466,0.2,0.3 F,0,68266,68466,0.6,0 F,0,68499,68699,0,0.6 M,0,68499,69499,632.7073,480,632.7073,300 S,0,68499,69499,0.2,0.3 F,0,69299,69499,0.6,0 F,0,69532,69732,0,0.6 M,0,69532,70532,-93.75514,480,-93.75514,300 S,0,69532,70532,0.2,0.3 F,0,70332,70532,0.6,0 F,0,70565,70765,0,0.6 M,0,70565,71565,405.852,480,405.852,300 S,0,70565,71565,0.2,0.3 F,0,71365,71565,0.6,0 F,0,71599,71799,0,0.6 M,0,71599,72599,97.64669,480,97.64669,300 S,0,71599,72599,0.2,0.3 F,0,72399,72599,0.6,0 F,0,72632,72832,0,0.6 M,0,72632,73632,88.30461,480,88.30461,300 S,0,72632,73632,0.2,0.3 F,0,73432,73632,0.6,0 F,0,73665,73865,0,0.6 M,0,73665,74665,389.4103,480,389.4103,300 S,0,73665,74665,0.2,0.3 F,0,74465,74665,0.6,0 F,0,74699,74899,0,0.6 M,0,74699,75699,328.7081,480,328.7081,300 S,0,74699,75699,0.2,0.3 F,0,75499,75699,0.6,0 F,0,75732,75932,0,0.6 M,0,75732,76732,413.5194,480,413.5194,300 S,0,75732,76732,0.2,0.3 F,0,76532,76732,0.6,0 F,0,76765,76965,0,0.6 M,0,76765,77765,667.2474,480,667.2474,300 S,0,76765,77765,0.2,0.3 F,0,77565,77765,0.6,0 F,0,77799,77999,0,0.6 M,0,77799,78799,692.6491,480,692.6491,300 S,0,77799,78799,0.2,0.3 F,0,78599,78799,0.6,0 F,0,78832,79032,0,0.6 M,0,78832,79832,292.1588,480,292.1588,300 S,0,78832,79832,0.2,0.3 F,0,79632,79832,0.6,0
Sprite,Foreground,Centre,"sb\particle.png",320,240 F,0,59432,,0.6 C,0,59432,,255,23,23 F,0,59432,59632,0,0.6 M,0,59432,60432,727.8275,480,727.8275,300 S,0,59432,60432,0.2,0.3 P,0,59432,79865,A F,0,60232,60432,0.6,0 F,0,60432,60632,0,0.6 M,0,60432,61432,186.0431,480,186.0431,300 S,0,60432,61432,0.2,0.3 F,0,61232,61432,0.6,0 F,0,61432,61632,0,0.6 M,0,61432,62432,599.0995,480,599.0995,300 S,0,61432,62432,0.2,0.3 F,0,62232,62432,0.6,0 F,0,62432,62632,0,0.6 M,0,62432,63432,52.58834,480,52.58834,300 S,0,62432,63432,0.2,0.3 F,0,63232,63432,0.6,0 F,0,63432,63632,0,0.6 M,0,63432,64432,223.615,480,223.615,300 S,0,63432,64432,0.2,0.3 F,0,64232,64432,0.6,0 F,0,64432,64632,0,0.6 M,0,64432,65432,444.6756,480,444.6756,300 S,0,64432,65432,0.2,0.3 F,0,65232,65432,0.6,0 F,0,65432,65632,0,0.6 M,0,65432,66432,741.5103,480,741.5103,300 S,0,65432,66432,0.2,0.3 F,0,66232,66432,0.6,0 F,0,66466,66666,0,0.6 M,0,66466,67466,562.6006,480,562.6006,300 S,0,66466,67466,0.2,0.3 F,0,67266,67466,0.6,0 F,0,67499,67699,0,0.6 M,0,67499,68499,-53.62283,480,-53.62283,300 S,0,67499,68499,0.2,0.3 F,0,68299,68499,0.6,0 F,0,68532,68732,0,0.6 M,0,68532,69532,170.5747,480,170.5747,300 S,0,68532,69532,0.2,0.3 F,0,69332,69532,0.6,0 F,0,69565,69765,0,0.6 M,0,69565,70565,379.3031,480,379.3031,300 S,0,69565,70565,0.2,0.3 F,0,70365,70565,0.6,0 F,0,70599,70799,0,0.6 M,0,70599,71599,688.9258,480,688.9258,300 S,0,70599,71599,0.2,0.3 F,0,71399,71599,0.6,0 F,0,71632,71832,0,0.6 M,0,71632,72632,215.3759,480,215.3759,300 S,0,71632,72632,0.2,0.3 F,0,72432,72632,0.6,0 F,0,72665,72865,0,0.6 M,0,72665,73665,235.1884,480,235.1884,300 S,0,72665,73665,0.2,0.3 F,0,73465,73665,0.6,0 F,0,73699,73899,0,0.6 M,0,73699,74699,534.7647,480,534.7647,300 S,0,73699,74699,0.2,0.3 F,0,74499,74699,0.6,0 F,0,74732,74932,0,0.6 M,0,74732,75732,221.5176,480,221.5176,300 S,0,74732,75732,0.2,0.3 F,0,75532,75732,0.6,0 F,0,75765,75965,0,0.6 M,0,75765,76765,440.6989,480,440.6989,300 S,0,75765,76765,0.2,0.3 F,0,76565,76765,0.6,0 F,0,76799,76999,0,0.6 M,0,76799,77799,-43.48001,480,-43.48001,300 S,0,76799,77799,0.2,0.3 F,0,77599,77799,0.6,0 F,0,77832,78032,0,0.6 M,0,77832,78832,669.2991,480,669.2991,300 S,0,77832,78832,0.2,0.3 F,0,78632,78832,0.6,0 F,0,78865,79065,0,0.6 M,0,78865,79865,183.6109,480,183.6109,300 S,0,78865,79865,0.2,0.3 F,0,79665,79865,0.6,0
Sprite,Foreground,Centre,"sb\particle.png",320,240 F,0,59466,,0.6 C,0,59466,,255,23,23 F,0,59466,59666,0,0.6 M,0,59466,60466,126.7436,480,126.7436,300 S,0,59466,60466,0.2,0.3 P,0,59466,79899,A F,0,60266,60466,0.6,0 F,0,60466,60666,0,0.6 M,0,60466,61466,710.6667,480,710.6667,300 S,0,60466,61466,0.2,0.3 F,0,61266,61466,0.6,0 F,0,61466,61666,0,0.6 M,0,61466,62466,80.18626,480,80.18626,300 S,0,61466,62466,0.2,0.3 F,0,62266,62466,0.6,0 F,0,62466,62666,0,0.6 M,0,62466,63466,-48.4849,480,-48.4849,300 S,0,62466,63466,0.2,0.3 F,0,63266,63466,0.6,0 F,0,63466,63666,0,0.6 M,0,63466,64466,339.4201,480,339.4201,300 S,0,63466,64466,0.2,0.3 F,0,64266,64466,0.6,0 F,0,64466,64666,0,0.6 M,0,64466,65466,333.9767,480,333.9767,300 S,0,64466,65466,0.2,0.3 F,0,65266,65466,0.6,0 F,0,65466,65666,0,0.6 M,0,65466,66466,-92.59311,480,-92.59311,300 S,0,65466,66466,0.2,0.3 F,0,66266,66466,0.6,0 F,0,66499,66699,0,0.6 M,0,66499,67499,6.633214,480,6.633214,300 S,0,66499,67499,0.2,0.3 F,0,67299,67499,0.6,0 F,0,67532,67732,0,0.6 M,0,67532,68532,-13.00697,480,-13.00697,300 S,0,67532,68532,0.2,0.3 F,0,68332,68532,0.6,0 F,0,68566,68766,0,0.6 M,0,68566,69566,564.7862,480,564.7862,300 S,0,68566,69566,0.2,0.3 F,0,69366,69566,0.6,0 F,0,69599,69799,0,0.6 M,0,69599,70599,284.0951,480,284.0951,300 S,0,69599,70599,0.2,0.3 F,0,70399,70599,0.6,0 F,0,70632,70832,0,0.6 M,0,70632,71632,672.327,480,672.327,300 S,0,70632,71632,0.2,0.3 F,0,71432,71632,0.6,0 F,0,71665,71865,0,0.6 M,0,71665,72665,399.2059,480,399.2059,300 S,0,71665,72665,0.2,0.3 F,0,72465,72665,0.6,0 F,0,72699,72899,0,0.6 M,0,72699,73699,-68.92175,480,-68.92175,300 S,0,72699,73699,0.2,0.3 F,0,73499,73699,0.6,0 F,0,73732,73932,0,0.6 M,0,73732,74732,93.09005,480,93.09005,300 S,0,73732,74732,0.2,0.3 F,0,74532,74732,0.6,0 F,0,74765,74965,0,0.6 M,0,74765,75765,215.2088,480,215.2088,300 S,0,74765,75765,0.2,0.3 F,0,75565,75765,0.6,0 F,0,75799,75999,0,0.6 M,0,75799,76799,560.5513,480,560.5513,300 S,0,75799,76799,0.2,0.3 F,0,76599,76799,0.6,0 F,0,76832,77032,0,0.6 M,0,76832,77832,37.022,480,37.022,300 S,0,76832,77832,0.2,0.3 F,0,77632,77832,0.6,0 F,0,77865,78065,0,0.6 M,0,77865,78865,214.0341,480,214.0341,300 S,0,77865,78865,0.2,0.3 F,0,78665,78865,0.6,0 F,0,78899,79099,0,0.6 M,0,78899,79899,333.7167,480,333.7167,300 S,0,78899,79899,0.2,0.3 F,0,79699,79899,0.6,0
Sprite,Foreground,Centre,"sb\particle.png",320,240 F,0,59499,,0.6 C,0,59499,,255,23,23 F,0,59499,59699,0,0.6 M,0,59499,60499,142.288,480,142.288,300 S,0,59499,60499,0.2,0.3 P,0,59499,79932,A F,0,60299,60499,0.6,0 F,0,60499,60699,0,0.6 M,0,60499,61499,324.3803,480,324.3803,300 S,0,60499,61499,0.2,0.3 F,0,61299,61499,0.6,0 F,0,61499,61699,0,0.6 M,0,61499,62499,746.9767,480,746.9767,300 S,0,61499,62499,0.2,0.3 F,0,62299,62499,0.6,0 F,0,62499,62699,0,0.6 M,0,62499,63499,426.4278,480,426.4278,300 S,0,62499,63499,0.2,0.3 F,0,63299,63499,0.6,0 F,0,63499,63699,0,0.6 M,0,63499,64499,132.3978,480,132.3978,300 S,0,63499,64499,0.2,0.3 F,0,64299,64499,0.6,0 F,0,64499,64699,0,0.6 M,0,64499,65499,721.4887,480,721.4887,300 S,0,64499,65499,0.2,0.3 F,0,65299,65499,0.6,0 F,0,65499,65699,0,0.6 M,0,65499,66499,451.1049,480,451.1049,300 S,0,65499,66499,0.2,0.3 F,0,66299,66499,0.6,0 F,0,66532,66732,0,0.6 M,0,66532,67532,416.0782,480,416.0782,300 S,0,66532,67532,0.2,0.3 F,0,67332,67532,0.6,0 F,0,67566,67766,0,0.6 M,0,67566,68566,518.8086,480,518.8086,300 S,0,67566,68566,0.2,0.3 F,0,68366,68566,0.6,0 F,0,68599,68799,0,0.6 M,0,68599,69599,337.0458,480,337.0458,300 S,0,68599,69599,0.2,0.3 F,0,69399,69599,0.6,0 F,0,69632,69832,0,0.6 M,0,69632,70632,741.3746,480,741.3746,300 S,0,69632,70632,0.2,0.3 F,0,70432,70632,0.6,0 F,0,70665,70865,0,0.6 M,0,70665,71665,148.4321,480,148.4321,300 S,0,70665,71665,0.2,0.3 F,0,71465,71665,0.6,0 F,0,71699,71899,0,0.6 M,0,71699,72699,459.5913,480,459.5913,300 S,0,71699,72699,0.2,0.3 F,0,72499,72699,0.6,0 F,0,72732,72932,0,0.6 M,0,72732,73732,132.1377,480,132.1377,300 S,0,72732,73732,0.2,0.3 F,0,73532,73732,0.6,0 F,0,73765,73965,0,0.6 M,0,73765,74765,681.7637,480,681.7637,300 S,0,73765,74765,0.2,0.3 F,0,74565,74765,0.6,0 F,0,74799,74999,0,0.6 M,0,74799,75799,337.8753,480,337.8753,300 S,0,74799,75799,0.2,0.3 F,0,75599,75799,0.6,0 F,0,75832,76032,0,0.6 M,0,75832,76832,689.806,480,689.806,300 S,0,75832,76832,0.2,0.3 F,0,76632,76832,0.6,0 F,0,76865,77065,0,0.6 M,0,76865,77865,684.0828,480,684.0828,300 S,0,76865,77865,0.2,0.3 F,0,77665,77865,0.6,0 F,0,77899,78099,0,0.6 M,0,77899,78899,36.70851,480,36.70851,300 S,0,77899,78899,0.2,0.3 F,0,78699,78899,0.6,0 F,0,78932,79132,0,0.6 M,0,78932,79932,430.9908,480,430.9908,300 S,0,78932,79932,0.2,0.3 F,0,79732,79932,0.6,0
Sprite,Foreground,Centre,"sb\particle.png",320,240 F,0,59532,,0.6 C,0,59532,,255,23,23 F,0,59532,59732,0,0.6 M,0,59532,60532,292.0868,480,292.0868,300 S,0,59532,60532,0.2,0.3 P,0,59532,79965,A F,0,60332,60532,0.6,0 F,0,60532,60732,0,0.6 M,0,60532,61532,504.4405,480,504.4405,300 S,0,60532,61532,0.2,0.3 F,0,61332,61532,0.6,0 F,0,61532,61732,0,0.6 M,0,61532,62532,304.0863,480,304.0863,300 S,0,61532,62532,0.2,0.3 F,0,62332,62532,0.6,0 F,0,62532,62732,0,0.6 M,0,62532,63532,484.8605,480,484.8605,300 S,0,62532,63532,0.2,0.3 F,0,63332,63532,0.6,0 F,0,63532,63732,0,0.6 M,0,63532,64532,325.616,480,325.616,300 S,0,63532,64532,0.2,0.3 F,0,64332,64532,0.6,0 F,0,64532,64732,0,0.6 M,0,64532,65532,-40.63635,480,-40.63635,300 S,0,64532,65532,0.2,0.3 F,0,65332,65532,0.6,0 F,0,65532,65732,0,0.6 M,0,65532,66532,130.6934,480,130.6934,300 S,0,65532,66532,0.2,0.3 F,0,66332,66532,0.6,0 F,0,66566,66766,0,0.6 M,0,66566,67566,370.6338,480,370.6338,300 S,0,66566,67566,0.2,0.3 F,0,67366,67566,0.6,0 F,0,67599,67799,0,0.6 M,0,67599,68599,-19.95702,480,-19.95702,300 S,0,67599,68599,0.2,0.3 F,0,68399,68599,0.6,0 F,0,68632,68832,0,0.6 M,0,68632,69632,601.5096,480,601.5096,300 S,0,68632,69632,0.2,0.3 F,0,69432,69632,0.6,0 F,0,69665,69865,0,0.6 M,0,69665,70665,-2.519628,480,-2.519628,300 S,0,69665,70665,0.2,0.3 F,0,70465,70665,0.6,0 F,0,70699,70899,0,0.6 M,0,70699,71699,474.1547,480,474.1547,300 S,0,70699,71699,0.2,0.3 F,0,71499,71699,0.6,0 F,0,71732,71932,0,0.6 M,0,71732,72732,-37.8339,480,-37.8339,300 S,0,71732,72732,0.2,0.3 F,0,72532,72732,0.6,0 F,0,72765,72965,0,0.6 M,0,72765,73765,306.8246,480,306.8246,300 S,0,72765,73765,0.2,0.3 F,0,73565,73765,0.6,0 F,0,73799,73999,0,0.6 M,0,73799,74799,392.2148,480,392.2148,300 S,0,73799,74799,0.2,0.3 F,0,74599,74799,0.6,0 F,0,74832,75032,0,0.6 M,0,74832,75832,220.4518,480,220.4518,300 S,0,74832,75832,0.2,0.3 F,0,75632,75832,0.6,0 F,0,75865,76065,0,0.6 M,0,75865,76865,-68.27174,480,-68.27174,300 S,0,75865,76865,0.2,0.3 F,0,76665,76865,0.6,0 F,0,76899,77099,0,0.6 M,0,76899,77899,562.244,480,562.244,300 S,0,76899,77899,0.2,0.3 F,0,77699,77899,0.6,0 F,0,77932,78132,0,0.6 M,0,77932,78932,449.5147,480,449.5147,300 S,0,77932,78932,0.2,0.3 F,0,78732,78932,0.6,0 F,0,78965,79165,0,0.6 M,0,78965,79965,158.3806,480,158.3806,300 S,0,78965,79965,0.2,0.3 F,0,79765,79965,0.6,0
Sprite,Foreground,Centre,"sb\particle.png",320,240 F,0,59566,,0.6 C,0,59566,,255,23,23 F,0,59566,59766,0,0.6 M,0,59566,60566,433.2909,480,433.2909,300 S,0,59566,60566,0.2,0.3 P,0,59566,79999,A F,0,60366,60566,0.6,0 F,0,60566,60766,0,0.6 M,0,60566,61566,-5.4101,480,-5.4101,300 S,0,60566,61566,0.2,0.3 F,0,61366,61566,0.6,0 F,0,61566,61766,0,0.6 M,0,61566,62566,449.9833,480,449.9833,300 S,0,61566,62566,0.2,0.3 F,0,62366,62566,0.6,0 F,0,62566,62766,0,0.6 M,0,62566,63566,431.3568,480,431.3568,300 S,0,62566,63566,0.2,0.3 F,0,63366,63566,0.6,0 F,0,63566,63766,0,0.6 M,0,63566,64566,346.9685,480,346.9685,300 S,0,63566,64566,0.2,0.3 F,0,64366,64566,0.6,0 F,0,64566,64766,0,0.6 M,0,64566,65566,331.0741,480,331.0741,300 S,0,64566,65566,0.2,0.3 F,0,65366,65566,0.6,0 F,0,65566,65766,0,0.6 M,0,65566,66566,718.9612,480,718.9612,300 S,0,65566,66566,0.2,0.3 F,0,66366,66566,0.6,0 F,0,66599,66799,0,0.6 M,0,66599,67599,452.8989,480,452.8989,300 S,0,66599,67599,0.2,0.3 F,0,67399,67599,0.6,0 F,0,67632,67832,0,0.6 M,0,67632,68632,610.2125,480,610.2125,300 S,0,67632,68632,0.2,0.3 F,0,68432,68632,0.6,0 F,0,68666,68866,0,0.6 M,0,68666,69666,355.1867,480,355.1867,300 S,0,68666,69666,0.2,0.3 F,0,69466,69666,0.6,0 F,0,69699,69899,0,0.6 M,0,69699,70699,-4.093199,480,-4.093199,300 S,0,69699,70699,0.2,0.3 F,0,70499,70699,0.6,0 F,0,70732,70932,0,0.6 M,0,70732,71732,185.6431,480,185.6431,300 S,0,70732,71732,0.2,0.3 F,0,71532,71732,0.6,0 F,0,71765,71965,0,0.6 M,0,71765,72765,348.3621,480,348.3621,300 S,0,71765,72765,0.2,0.3 F,0,72565,72765,0.6,0 F,0,72799,72999,0,0.6 M,0,72799,73799,197.8095,480,197.8095,300 S,0,72799,73799,0.2,0.3 F,0,73599,73799,0.6,0 F,0,73832,74032,0,0.6 M,0,73832,74832,739.9587,480,739.9587,300 S,0,73832,74832,0.2,0.3 F,0,74632,74832,0.6,0 F,0,74865,75065,0,0.6 M,0,74865,75865,141.3374,480,141.3374,300 S,0,74865,75865,0.2,0.3 F,0,75665,75865,0.6,0 F,0,75899,76099,0,0.6 M,0,75899,76899,359.4347,480,359.4347,300 S,0,75899,76899,0.2,0.3 F,0,76699,76899,0.6,0 F,0,76932,77132,0,0.6 M,0,76932,77932,142.8298,480,142.8298,300 S,0,76932,77932,0.2,0.3 F,0,77732,77932,0.6,0 F,0,77965,78165,0,0.6 M,0,77965,78965,-27.296,480,-27.296,300 S,0,77965,78965,0.2,0.3 F,0,78765,78965,0.6,0 F,0,78999,79199,0,0.6 M,0,78999,79999,145.8594,480,145.8594,300 S,0,78999,79999,0.2,0.3 F,0,79799,79999,0.6,0
Sprite,Foreground,Centre,"sb\particle.png",320,240 F,0,59599,,0.6 C,0,59599,,255,23,23 F,0,59599,59799,0,0.6 M,0,59599,60599,293.9631,480,293.9631,300 S,0,59599,60599,0.2,0.3 P,0,59599,80032,A F,0,60399,60599,0.6,0 F,0,60599,60799,0,0.6 M,0,60599,61599,126.5276,480,126.5276,300 S,0,60599,61599,0.2,0.3 F,0,61399,61599,0.6,0 F,0,61599,61799,0,0.6 M,0,61599,62599,507.646,480,507.646,300 S,0,61599,62599,0.2,0.3 F,0,62399,62599,0.6,0 F,0,62599,62799,0,0.6 M,0,62599,63599,685.2023,480,685.2023,300 S,0,62599,63599,0.2,0.3 F,0,63399,63599,0.6,0 F,0,63599,63799,0,0.6 M,0,63599,64599,-58.31483,480,-58.31483,300 S,0,63599,64599,0.2,0.3 F,0,64399,64599,0.6,0 F,0,64599,64799,0,0.6 M,0,64599,65599,26.02358,480,26.02358,300 S,0,64599,65599,0.2,0.3 F,0,65399,65599,0.6,0 F,0,65599,65799,0,0.6 M,0,65599,66599,394.9748,480,394.9748,300 S,0,65599,66599,0.2,0.3 F,0,66399,66599,0.6,0 F,0,66632,66832,0,0.6 M,0,66632,67632,184.2377,480,184.2377,300 S,0,66632,67632,0.2,0.3 F,0,67432,67632,0.6,0 F,0,67666,67866,0,0.6 M,0,67666,68666,441.8408,480,441.8408,300 S,0,67666,68666,0.2,0.3 F,0,68466,68666,0.6,0 F,0,68699,68899,0,0.6 M,0,68699,69699,339.2242,480,339.2242,300 S,0,68699,69699,0.2,0.3 F,0,69499,69699,0.6,0 F,0,69732,69932,0,0.6 M,0,69732,70732,134.8599,480,134.8599,300 S,0,69732,70732,0.2,0.3 F,0,70532,70732,0.6,0 F,0,70765,70965,0,0.6 M,0,70765,71765,291.5776,480,291.5776,300 S,0,70765,71765,0.2,0.3 F,0,71565,71765,0.6,0 F,0,71799,71999,0,0.6 M,0,71799,72799,742.9191,480,742.9191,300 S,0,71799,72799,0.2,0.3 F,0,72599,72799,0.6,0 F,0,72832,73032,0,0.6 M,0,72832,73832,411.7672,480,411.7672,300 S,0,72832,73832,0.2,0.3 F,0,73632,73832,0.6,0 F,0,73865,74065,0,0.6 M,0,73865,74865,-62.53968,480,-62.53968,300 S,0,73865,74865,0.2,0.3 F,0,74665,74865,0.6,0 F,0,74899,75099,0,0.6 M,0,74899,75899,603.6595,480,603.6595,300 S,0,74899,75899,0.2,0.3 F,0,75699,75899,0.6,0 F,0,75932,76132,0,0.6 M,0,75932,76932,349.1727,480,349.1727,300 S,0,75932,76932,0.2,0.3 F,0,76732,76932,0.6,0 F,0,76965,77165,0,0.6 M,0,76965,77965,236.091,480,236.091,300 S,0,76965,77965,0.2,0.3 F,0,77765,77965,0.6,0 F,0,77999,78199,0,0.6 M,0,77999,78999,432.925,480,432.925,300 S,0,77999,78999,0.2,0.3 F,0,78799,78999,0.6,0 F,0,79032,79232,0,0.6 M,0,79032,80032,161.7367,480,161.7367,300 S,0,79032,80032,0.2,0.3 F,0,79832,80032,0.6,0
Sprite,Foreground,Centre,"sb\particle.png",320,240 F,0,59632,,0.6 C,0,59632,,255,23,23 F,0,59632,59832,0,0.6 M,0,59632,60632,731.7571,480,731.7571,300 S,0,59632,60632,0.2,0.3 P,0,59632,79032,A F,0,60432,60632,0.6,0 F,0,60632,60832,0,0.6 M,0,60632,61632,667.6616,480,667.6616,300 S,0,60632,61632,0.2,0.3 F,0,61432,61632,0.6,0 F,0,61632,61832,0,0.6 M,0,61632,62632,584.2811,480,584.2811,300 S,0,61632,62632,0.2,0.3 F,0,62432,62632,0.6,0 F,0,62632,62832,0,0.6 M,0,62632,63632,82.0261,480,82.0261,300 S,0,62632,63632,0.2,0.3 F,0,63432,63632,0.6,0 F,0,63632,63832,0,0.6 M,0,63632,64632,132.5928,480,132.5928,300 S,0,63632,64632,0.2,0.3 F,0,64432,64632,0.6,0 F,0,64632,64832,0,0.6 M,0,64632,65632,587.8594,480,587.8594,300 S,0,64632,65632,0.2,0.3 F,0,65432,65632,0.6,0 F,0,65632,65832,0,0.6 M,0,65632,66632,552.4603,480,552.4603,300 S,0,65632,66632,0.2,0.3 F,0,66432,66632,0.6,0 F,0,66666,66866,0,0.6 M,0,66666,67666,-87.09219,480,-87.09219,300 S,0,66666,67666,0.2,0.3 F,0,67466,67666,0.6,0 F,0,67699,67899,0,0.6 M,0,67699,68699,382.3203,480,382.3203,300 S,0,67699,68699,0.2,0.3 F,0,68499,68699,0.6,0 F,0,68732,68932,0,0.6 M,0,68732,69732,32.12446,480,32.12446,300 S,0,68732,69732,0.2,0.3 F,0,69532,69732,0.6,0 F,0,69765,69965,0,0.6 M,0,69765,70765,431.5392,480,431.5392,300 S,0,69765,70765,0.2,0.3 F,0,70565,70765,0.6,0 F,0,70799,70999,0,0.6 M,0,70799,71799,575.5667,480,575.5667,300 S,0,70799,71799,0.2,0.3 F,0,71599,71799,0.6,0 F,0,71832,72032,0,0.6 M,0,71832,72832,28.99544,480,28.99544,300 S,0,71832,72832,0.2,0.3 F,0,72632,72832,0.6,0 F,0,72865,73065,0,0.6 M,0,72865,73865,248.2564,480,248.2564,300 S,0,72865,73865,0.2,0.3 F,0,73665,73865,0.6,0 F,0,73899,74099,0,0.6 M,0,73899,74899,362.2643,480,362.2643,300 S,0,73899,74899,0.2,0.3 F,0,74699,74899,0.6,0 F,0,74932,75132,0,0.6 M,0,74932,75932,568.0212,480,568.0212,300 S,0,74932,75932,0.2,0.3 F,0,75732,75932,0.6,0 F,0,75965,76165,0,0.6 M,0,75965,76965,112.6289,480,112.6289,300 S,0,75965,76965,0.2,0.3 F,0,76765,76965,0.6,0 F,0,76999,77199,0,0.6 M,0,76999,77999,636.7369,480,636.7369,300 S,0,76999,77999,0.2,0.3 F,0,77799,77999,0.6,0 F,0,78032,78232,0,0.6 M,0,78032,79032,562.5466,480,562.5466,300 S,0,78032,79032,0.2,0.3 F,0,78832,79032,0.6,0
Sprite,Foreground,Centre,"sb\particle.png",320,240 F,0,59666,,0.6 C,0,59666,,255,23,23 F,0,59666,59866,0,0.6 M,0,59666,60666,-81.06659,480,-81.06659,300 S,0,59666,60666,0.2,0.3 P,0,59666,79065,A F,0,60466,60666,0.6,0 F,0,60666,60866,0,0.6 M,0,60666,61666,571.7298,480,571.7298,300 S,0,60666,61666,0.2,0.3 F,0,61466,61666,0.6,0 F,0,61666,61866,0,0.6 M,0,61666,62666,-20.80117,480,-20.80117,300 S,0,61666,62666,0.2,0.3 F,0,62466,62666,0.6,0 F,0,62666,62866,0,0.6 M,0,62666,63666,686.1163,480,686.1163,300 S,0,62666,63666,0.2,0.3 F,0,63466,63666,0.6,0 F,0,63666,63866,0,0.6 M,0,63666,64666,316.6512,480,316.6512,300 S,0,63666,64666,0.2,0.3 F,0,64466,64666,0.6,0 F,0,64666,64866,0,0.6 M,0,64666,65666,441.7132,480,441.7132,300 S,0,64666,65666,0.2,0.3 F,0,65466,65666,0.6,0 F,0,65666,65866,0,0.6 M,0,65666,66666,169.8386,480,169.8386,300 S,0,65666,66666,0.2,0.3 F,0,66466,66666,0.6,0 F,0,66699,66899,0,0.6 M,0,66699,67699,-23.91782,480,-23.91782,300 S,0,66699,67699,0.2,0.3 F,0,67499,67699,0.6,0 F,0,67732,67932,0,0.6 M,0,67732,68732,99.35544,480,99.35544,300 S,0,67732,68732,0.2,0.3 F,0,68532,68732,0.6,0 F,0,68766,68966,0,0.6 M,0,68766,69766,434.5943,480,434.5943,300 S,0,68766,69766,0.2,0.3 F,0,69566,69766,0.6,0 F,0,69799,69999,0,0.6 M,0,69799,70799,575.5855,480,575.5855,300 S,0,69799,70799,0.2,0.3 F,0,70599,70799,0.6,0 F,0,70832,71032,0,0.6 M,0,70832,71832,78.23032,480,78.23032,300 S,0,70832,71832,0.2,0.3 F,0,71632,71832,0.6,0 F,0,71865,72065,0,0.6 M,0,71865,72865,303.3788,480,303.3788,300 S,0,71865,72865,0.2,0.3 F,0,72665,72865,0.6,0 F,0,72899,73099,0,0.6 M,0,72899,73899,571.3052,480,571.3052,300 S,0,72899,73899,0.2,0.3 F,0,73699,73899,0.6,0 F,0,73932,74132,0,0.6 M,0,73932,74932,29.90858,480,29.90858,300 S,0,73932,74932,0.2,0.3 F,0,74732,74932,0.6,0 F,0,74965,75165,0,0.6 M,0,74965,75965,515.3122,480,515.3122,300 S,0,74965,75965,0.2,0.3 F,0,75765,75965,0.6,0 F,0,75999,76199,0,0.6 M,0,75999,76999,-92.46867,480,-92.46867,300 S,0,75999,76999,0.2,0.3 F,0,76799,76999,0.6,0 F,0,77032,77232,0,0.6 M,0,77032,78032,89.6692,480,89.6692,300 S,0,77032,78032,0.2,0.3 F,0,77832,78032,0.6,0 F,0,78065,78265,0,0.6 M,0,78065,79065,168.0818,480,168.0818,300 S,0,78065,79065,0.2,0.3 F,0,78865,79065,0.6,0
Sprite,Foreground,Centre,"sb\particle.png",320,240 F,0,59699,,0.6 C,0,59699,,255,23,23 F,0,59699,59899,0,0.6 M,0,59699,60699,629.4641,480,629.4641,300 S,0,59699,60699,0.2,0.3 P,0,59699,79099,A F,0,60499,60699,0.6,0 F,0,60699,60899,0,0.6 M,0,60699,61699,180.9349,480,180.9349,300 S,0,60699,61699,0.2,0.3 F,0,61499,61699,0.6,0 F,0,61699,61899,0,0.6 M,0,61699,62699,515.6463,480,515.6463,300 S,0,61699,62699,0.2,0.3 F,0,62499,62699,0.6,0 F,0,62699,62899,0,0.6 M,0,62699,63699,-50.19056,480,-50.19056,300 S,0,62699,63699,0.2,0.3 F,0,63499,63699,0.6,0 F,0,63699,63899,0,0.6 M,0,63699,64699,615.8388,480,615.8388,300 S,0,63699,64699,0.2,0.3 F,0,64499,64699,0.6,0 F,0,64699,64899,0,0.6 M,0,64699,65699,384.386,480,384.386,300 S,0,64699,65699,0.2,0.3 F,0,65499,65699,0.6,0 F,0,65699,65899,0,0.6 M,0,65699,66699,252.0432,480,252.0432,300 S,0,65699,66699,0.2,0.3 F,0,66499,66699,0.6,0 F,0,66732,66932,0,0.6 M,0,66732,67732,642.7357,480,642.7357,300 S,0,66732,67732,0.2,0.3 F,0,67532,67732,0.6,0 F,0,67766,67966,0,0.6 M,0,67766,68766,607.9631,480,607.9631,300 S,0,67766,68766,0.2,0.3 F,0,68566,68766,0.6,0 F,0,68799,68999,0,0.6 M,0,68799,69799,365.4619,480,365.4619,300 S,0,68799,69799,0.2,0.3 F,0,69599,69799,0.6,0 F,0,69832,70032,0,0.6 M,0,69832,70832,111.3035,480,111.3035,300 S,0,69832,70832,0.2,0.3 F,0,70632,70832,0.6,0 F,0,70865,71065,0,0.6 M,0,70865,71865,669.3235,480,669.3235,300 S,0,70865,71865,0.2,0.3 F,0,71665,71865,0.6,0 F,0,71899,72099,0,0.6 M,0,71899,72899,-52.51398,480,-52.51398,300 S,0,71899,72899,0.2,0.3 F,0,72699,72899,0.6,0 F,0,72932,73132,0,0.6 M,0,72932,73932,57.65117,480,57.65117,300 S,0,72932,73932,0.2,0.3 F,0,73732,73932,0.6,0 F,0,73965,74165,0,0.6 M,0,73965,74965,717.9403,480,717.9403,300 S,0,73965,74965,0.2,0.3 F,0,74765,74965,0.6,0 F,0,74999,75199,0,0.6 M,0,74999,75999,238.6941,480,238.6941,300 S,0,74999,75999,0.2,0.3 F,0,75799,75999,0.6,0 F,0,76032,76232,0,0.6 M,0,76032,77032,35.52342,480,35.52342,300 S,0,76032,77032,0.2,0.3 F,0,76832,77032,0.6,0 F,0,77065,77265,0,0.6 M,0,77065,78065,-6.309083,480,-6.309083,300 S,0,77065,78065,0.2,0.3 F,0,77865,78065,0.6,0 F,0,78099,78299,0,0.6 M,0,78099,79099,161.9969,480,161.9969,300 S,0,78099,79099,0.2,0.3 F,0,78899,79099,0.6,0
Sprite,Foreground,Centre,"sb\particle.png",320,240 F,0,59732,,0.6 C,0,59732,,255,23,23 F,0,59732,59932,0,0.6 M,0,59732,60732,743.0264,480,743.0264,300 S,0,59732,60732,0.2,0.3 P,0,59732,79132,A F,0,60532,60732,0.6,0 F,0,60732,60932,0,0.6 M,0,60732,61732,283.4563,480,283.4563,300 S,0,60732,61732,0.2,0.3 F,0,61532,61732,0.6,0 F,0,61732,61932,0,0.6 M,0,61732,62732,506.5569,480,506.5569,300 S,0,61732,62732,0.2,0.3 F,0,62532,62732,0.6,0 F,0,62732,62932,0,0.6 M,0,62732,63732,661.6891,480,661.6891,300 S,0,62732,63732,0.2,0.3 F,0,63532,63732,0.6,0 F,0,63732,63932,0,0.6 M,0,63732,64732,416.6368,480,416.6368,300 S,0,63732,64732,0.2,0.3 F,0,64532,64732,0.6,0 F,0,64732,64932,0,0.6 M,0,64732,65732,365.144,480,365.144,300 S,0,64732,65732,0.2,0.3 F,0,65532,65732,0.6,0 F,0,65732,65932,0,0.6 M,0,65732,66732,725.5928,480,725.5928,300 S,0,65732,66732,0.2,0.3 F,0,66532,66732,0.6,0 F,0,66766,66966,0,0.6 M,0,66766,67766,500.085,480,500.085,300 S,0,66766,67766,0.2,0.3 F,0,67566,67766,0.6,0 F,0,67799,67999,0,0.6 M,0,67799,68799,627.082,480,627.082,300 S,0,67799,68799,0.2,0.3 F,0,68599,68799,0.6,0 F,0,68832,69032,0,0.6 M,0,68832,69832,161.6769,480,161.6769,300 S,0,68832,69832,0.2,0.3 F,0,69632,69832,0.6,0 F,0,69865,70065,0,0.6 M,0,69865,70865,118.4433,480,118.4433,300 S,0,69865,70865,0.2,0.3 F,0,70665,70865,0.6,0 F,0,70899,71099,0,0.6 M,0,70899,71899,336.7844,480,336.7844,300 S,0,70899,71899,0.2,0.3 F,0,71699,71899,0.6,0 F,0,71932,72132,0,0.6 M,0,71932,72932,23.06834,480,23.06834,300 S,0,71932,72932,0.2,0.3 F,0,72732,72932,0.6,0 F,0,72965,73165,0,0.6 M,0,72965,73965,-19.7144,480,-19.7144,300 S,0,72965,73965,0.2,0.3 F,0,73765,73965,0.6,0 F,0,73999,74199,0,0.6 M,0,73999,74999,271.5141,480,271.5141,300 S,0,73999,74999,0.2,0.3 F,0,74799,74999,0.6,0 F,0,75032,75232,0,0.6 M,0,75032,76032,350.6023,480,350.6023,300 S,0,75032,76032,0.2,0.3 F,0,75832,76032,0.6,0 F,0,76065,76265,0,0.6 M,0,76065,77065,-43.04406,480,-43.04406,300 S,0,76065,77065,0.2,0.3 F,0,76865,77065,0.6,0 F,0,77099,77299,0,0.6 M,0,77099,78099,376.6399,480,376.6399,300 S,0,77099,78099,0.2,0.3 F,0,77899,78099,0.6,0 F,0,78132,78332,0,0.6 M,0,78132,79132,-25.60841,480,-25.60841,300 S,0,78132,79132,0.2,0.3 F,0,78932,79132,0.6,0
Sprite,Foreground,Centre,"sb\particle.png",320,240 F,0,59766,,0.6 C,0,59766,,255,23,23 F,0,59766,59966,0,0.6 M,0,59766,60766,471.3127,480,471.3127,300 S,0,59766,60766,0.2,0.3 P,0,59766,79165,A F,0,60566,60766,0.6,0 F,0,60766,60966,0,0.6 M,0,60766,61766,18.38858,480,18.38858,300 S,0,60766,61766,0.2,0.3 F,0,61566,61766,0.6,0 F,0,61766,61966,0,0.6 M,0,61766,62766,0.2002701,480,0.2002701,300 S,0,61766,62766,0.2,0.3 F,0,62566,62766,0.6,0 F,0,62766,62966,0,0.6 M,0,62766,63766,472.4437,480,472.4437,300 S,0,62766,63766,0.2,0.3 F,0,63566,63766,0.6,0 F,0,63766,63966,0,0.6 M,0,63766,64766,-18.04851,480,-18.04851,300 S,0,63766,64766,0.2,0.3 F,0,64566,64766,0.6,0 F,0,64766,64966,0,0.6 M,0,64766,65766,467.3058,480,467.3058,300 S,0,64766,65766,0.2,0.3 F,0,65566,65766,0.6,0 F,0,65766,65966,0,0.6 M,0,65766,66766,649.6436,480,649.6436,300 S,0,65766,66766,0.2,0.3 F,0,66566,66766,0.6,0 F,0,66799,66999,0,0.6 M,0,66799,67799,654.8867,480,654.8867,300 S,0,66799,67799,0.2,0.3 F,0,67599,67799,0.6,0 F,0,67832,68032,0,0.6 M,0,67832,68832,275.0551,480,275.0551,300 S,0,67832,68832,0.2,0.3 F,0,68632,68832,0.6,0 F,0,68865,69065,0,0.6 M,0,68865,69865,106.4578,480,106.4578,300 S,0,68865,69865,0.2,0.3 F,0,69665,69865,0.6,0 F,0,69899,70099,0,0.6 M,0,69899,70899,-95.90813,480,-95.90813,300 S,0,69899,70899,0.2,0.3 F,0,70699,70899,0.6,0 F,0,70932,71132,0,0.6 M,0,70932,71932,629.2005,480,629.2005,300 S,0,70932,71932,0.2,0.3 F,0,71732,71932,0.6,0 F,0,71965,72165,0,0.6 M,0,71965,72965,734.4031,480,734.4031,300 S,0,71965,72965,0.2,0.3 F,0,72765,72965,0.6,0 F,0,72999,73199,0,0.6 M,0,72999,73999,8.216492,480,8.216492,300 S,0,72999,73999,0.2,0.3 F,0,73799,73999,0.6,0 F,0,74032,74232,0,0.6 M,0,74032,75032,260.2459,480,260.2459,300 S,0,74032,75032,0.2,0.3 F,0,74832,75032,0.6,0 F,0,75065,75265,0,0.6 M,0,75065,76065,255.9429,480,255.9429,300 S,0,75065,76065,0.2,0.3 F,0,75865,76065,0.6,0 F,0,76099,76299,0,0.6 M,0,76099,77099,513.0347,480,513.0347,300 S,0,76099,77099,0.2,0.3 F,0,76899,77099,0.6,0 F,0,77132,77332,0,0.6 M,0,77132,78132,80.67972,480,80.67972,300 S,0,77132,78132,0.2,0.3 F,0,77932,78132,0.6,0 F,0,78165,78365,0,0.6 M,0,78165,79165,485.6679,480,485.6679,300 S,0,78165,79165,0.2,0.3 F,0,78965,79165,0.6,0
Sprite,Foreground,Centre,"sb\particle.png",320,240 F,0,59799,,0.6 C,0,59799,,255,23,23 F,0,59799,59999,0,0.6 M,0,59799,60799,161.6614,480,161.6614,300 S,0,59799,60799,0.2,0.3 P,0,59799,79199,A F,0,60599,60799,0.6,0 F,0,60799,60999,0,0.6 M,0,60799,61799,82.00278,480,82.00278,300 S,0,60799,61799,0.2,0.3 F,0,61599,61799,0.6,0 F,0,61799,61999,0,0.6 M,0,61799,62799,666.0206,480,666.0206,300 S,0,61799,62799,0.2,0.3 F,0,62599,62799,0.6,0 F,0,62799,62999,0,0.6 M,0,62799,63799,-26.74275,480,-26.74275,300 S,0,62799,63799,0.2,0.3 F,0,63599,63799,0.6,0 F,0,63799,63999,0,0.6 M,0,63799,64799,526.949,480,526.949,300 S,0,63799,64799,0.2,0.3 F,0,64599,64799,0.6,0 F,0,64799,64999,0,0.6 M,0,64799,65799,742.3427,480,742.3427,300 S,0,64799,65799,0.2,0.3 F,0,65599,65799,0.6,0 F,0,65799,65999,0,0.6 M,0,65799,66799,723.8457,480,723.8457,300 S,0,65799,66799,0.2,0.3 F,0,66599,66799,0.6,0 F,0,66832,67032,0,0.6 M,0,66832,67832,449.1797,480,449.1797,300 S,0,66832,67832,0.2,0.3 F,0,67632,67832,0.6,0 F,0,67866,68066,0,0.6 M,0,67866,68866,667.693,480,667.693,300 S,0,67866,68866,0.2,0.3 F,0,68666,68866,0.6,0 F,0,68899,69099,0,0.6 M,0,68899,69899,576.7382,480,576.7382,300 S,0,68899,69899,0.2,0.3 F,0,69699,69899,0.6,0 F,0,69932,70132,0,0.6 M,0,69932,70932,273.6891,480,273.6891,300 S,0,69932,70932,0.2,0.3 F,0,70732,70932,0.6,0 F,0,70965,71165,0,0.6 M,0,70965,71965,704.0154,480,704.0154,300 S,0,70965,71965,0.2,0.3 F,0,71765,71965,0.6,0 F,0,71999,72199,0,0.6 M,0,71999,72999,-75.96298,480,-75.96298,300 S,0,71999,72999,0.2,0.3 F,0,72799,72999,0.6,0 F,0,73032,73232,0,0.6 M,0,73032,74032,341.4274,480,341.4274,300 S,0,73032,74032,0.2,0.3 F,0,73832,74032,0.6,0 F,0,74065,74265,0,0.6 M,0,74065,75065,681.6434,480,681.6434,300 S,0,74065,75065,0.2,0.3 F,0,74865,75065,0.6,0 F,0,75099,75299,0,0.6 M,0,75099,76099,-43.61889,480,-43.61889,300 S,0,75099,76099,0.2,0.3 F,0,75899,76099,0.6,0 F,0,76132,76332,0,0.6 M,0,76132,77132,116.726,480,116.726,300 S,0,76132,77132,0.2,0.3 F,0,76932,77132,0.6,0 F,0,77165,77365,0,0.6 M,0,77165,78165,466.8935,480,466.8935,300 S,0,77165,78165,0.2,0.3 F,0,77965,78165,0.6,0 F,0,78199,78399,0,0.6 M,0,78199,79199,377.612,480,377.612,300 S,0,78199,79199,0.2,0.3 F,0,78999,79199,0.6,0
Sprite,Foreground,Centre,"sb\particle.png",320,240 F,0,59832,,0.6 C,0,59832,,255,23,23 F,0,59832,60032,0,0.6 M,0,59832,60832,590.6393,480,590.6393,300 S,0,59832,60832,0.2,0.3 P,0,59832,79232,A F,0,60632,60832,0.6,0 F,0,60832,61032,0,0.6 M,0,60832,61832,243.2026,480,243.2026,300 S,0,60832,61832,0.2,0.3 F,0,61632,61832,0.6,0 F,0,61832,62032,0,0.6 M,0,61832,62832,54.51173,480,54.51173,300 S,0,61832,62832,0.2,0.3 F,0,62632,62832,0.6,0 F,0,62832,63032,0,0.6 M,0,62832,63832,20.32921,480,20.32921,300 S,0,62832,63832,0.2,0.3 F,0,63632,63832,0.6,0 F,0,63832,64032,0,0.6 M,0,63832,64832,236.2022,480,236.2022,300 S,0,63832,64832,0.2,0.3 F,0,64632,64832,0.6,0 F,0,64832,65032,0,0.6 M,0,64832,65832,150.6012,480,150.6012,300 S,0,64832,65832,0.2,0.3 F,0,65632,65832,0.6,0 F,0,65832,66032,0,0.6 M,0,65832,66832,110.919,480,110.919,300 S,0,65832,66832,0.2,0.3 F,0,66632,66832,0.6,0 F,0,66866,67066,0,0.6 M,0,66866,67866,111.0327,480,111.0327,300 S,0,66866,67866,0.2,0.3 F,0,67666,67866,0.6,0 F,0,67899,68099,0,0.6 M,0,67899,68899,578.9058,480,578.9058,300 S,0,67899,68899,0.2,0.3 F,0,68699,68899,0.6,0 F,0,68932,69132,0,0.6 M,0,68932,69932,285.9523,480,285.9523,300 S,0,68932,69932,0.2,0.3 F,0,69732,69932,0.6,0 F,0,69965,70165,0,0.6 M,0,69965,70965,144.3511,480,144.3511,300 S,0,69965,70965,0.2,0.3 F,0,70765,70965,0.6,0 F,0,70999,71199,0,0.6 M,0,70999,71999,124.3586,480,124.3586,300 S,0,70999,71999,0.2,0.3 F,0,71799,71999,0.6,0 F,0,72032,72232,0,0.6 M,0,72032,73032,176.598,480,176.598,300 S,0,72032,73032,0.2,0.3 F,0,72832,73032,0.6,0 F,0,73065,73265,0,0.6 M,0,73065,74065,538.4232,480,538.4232,300 S,0,73065,74065,0.2,0.3 F,0,73865,74065,0.6,0 F,0,74099,74299,0,0.6 M,0,74099,75099,-59.95199,480,-59.95199,300 S,0,74099,75099,0.2,0.3 F,0,74899,75099,0.6,0 F,0,75132,75332,0,0.6 M,0,75132,76132,178.897,480,178.897,300 S,0,75132,76132,0.2,0.3 F,0,75932,76132,0.6,0 F,0,76165,76365,0,0.6 M,0,76165,77165,370.0078,480,370.0078,300 S,0,76165,77165,0.2,0.3 F,0,76965,77165,0.6,0 F,0,77199,77399,0,0.6 M,0,77199,78199,305.4452,480,305.4452,300 S,0,77199,78199,0.2,0.3 F,0,77999,78199,0.6,0 F,0,78232,78432,0,0.6 M,0,78232,79232,256.8795,480,256.8795,300 S,0,78232,79232,0.2,0.3 F,0,79032,79232,0.6,0
Sprite,Foreground,Centre,"sb\particle.png",320,240 F,0,59866,,0.6 C,0,59866,,255,23,23 F,0,59866,60066,0,0.6 M,0,59866,60866,617.2362,480,617.2362,300 S,0,59866,60866,0.2,0.3 P,0,59866,79265,A F,0,60666,60866,0.6,0 F,0,60866,61066,0,0.6 M,0,60866,61866,506.7927,480,506.7927,300 S,0,60866,61866,0.2,0.3 F,0,61666,61866,0.6,0 F,0,61866,62066,0,0.6 M,0,61866,62866,300.1956,480,300.1956,300 S,0,61866,62866,0.2,0.3 F,0,62666,62866,0.6,0 F,0,62866,63066,0,0.6 M,0,62866,63866,-15.64549,480,-15.64549,300 S,0,62866,63866,0.2,0.3 F,0,63666,63866,0.6,0 F,0,63866,64066,0,0.6 M,0,63866,64866,690.1173,480,690.1173,300 S,0,63866,64866,0.2,0.3 F,0,64666,64866,0.6,0 F,0,64866,65066,0,0.6 M,0,64866,65866,-51.95656,480,-51.95656,300 S,0,64866,65866,0.2,0.3 F,0,65666,65866,0.6,0 F,0,65866,66066,0,0.6 M,0,65866,66866,5.954066,480,5.954066,300 S,0,65866,66866,0.2,0.3 F,0,66666,66866,0.6,0 F,0,66899,67099,0,0.6 M,0,66899,67899,119.1674,480,119.1674,300 S,0,66899,67899,0.2,0.3 F,0,67699,67899,0.6,0 F,0,67932,68132,0,0.6 M,0,67932,68932,286.0487,480,286.0487,300 S,0,67932,68932,0.2,0.3 F,0,68732,68932,0.6,0 F,0,68965,69165,0,0.6 M,0,68965,69965,680.0471,480,680.0471,300 S,0,68965,69965,0.2,0.3 F,0,69765,69965,0.6,0 F,0,69999,70199,0,0.6 M,0,69999,70999,610.1501,480,610.1501,300 S,0,69999,70999,0.2,0.3 F,0,70799,70999,0.6,0 F,0,71032,71232,0,0.6 M,0,71032,72032,317.4225,480,317.4225,300 S,0,71032,72032,0.2,0.3 F,0,71832,72032,0.6,0 F,0,72065,72265,0,0.6 M,0,72065,73065,-77.91111,480,-77.91111,300 S,0,72065,73065,0.2,0.3 F,0,72865,73065,0.6,0 F,0,73099,73299,0,0.6 M,0,73099,74099,213.2359,480,213.2359,300 S,0,73099,74099,0.2,0.3 F,0,73899,74099,0.6,0 F,0,74132,74332,0,0.6 M,0,74132,75132,440.0807,480,440.0807,300 S,0,74132,75132,0.2,0.3 F,0,74932,75132,0.6,0 F,0,75165,75365,0,0.6 M,0,75165,76165,675.4651,480,675.4651,300 S,0,75165,76165,0.2,0.3 F,0,75965,76165,0.6,0 F,0,76199,76399,0,0.6 M,0,76199,77199,377.7906,480,377.7906,300 S,0,76199,77199,0.2,0.3 F,0,76999,77199,0.6,0 F,0,77232,77432,0,0.6 M,0,77232,78232,512.1667,480,512.1667,300 S,0,77232,78232,0.2,0.3 F,0,78032,78232,0.6,0 F,0,78265,78465,0,0.6 M,0,78265,79265,305.8541,480,305.8541,300 S,0,78265,79265,0.2,0.3 F,0,79065,79265,0.6,0
Sprite,Foreground,Centre,"sb\particle.png",320,240 F,0,59899,,0.6 C,0,59899,,255,23,23 F,0,59899,60099,0,0.6 M,0,59899,60899,740.0845,480,740.0845,300 S,0,59899,60899,0.2,0.3 P,0,59899,79332,A F,0,60699,60899,0.6,0 F,0,60899,61099,0,0.6 M,0,60899,61899,422.3351,480,422.3351,300 S,0,60899,61899,0.2,0.3 F,0,61699,61899,0.6,0 F,0,61899,62099,0,0.6 M,0,61899,62899,354.8391,480,354.8391,300 S,0,61899,62899,0.2,0.3 F,0,62699,62899,0.6,0 F,0,62899,63099,0,0.6 M,0,62899,63899,413.8292,480,413.8292,300 S,0,62899,63899,0.2,0.3 F,0,63699,63899,0.6,0 F,0,63899,64099,0,0.6 M,0,63899,64899,4.616383,480,4.616383,300 S,0,63899,64899,0.2,0.3 F,0,64699,64899,0.6,0 F,0,64899,65099,0,0.6 M,0,64899,65899,290.7104,480,290.7104,300 S,0,64899,65899,0.2,0.3 F,0,65699,65899,0.6,0 F,0,65932,66132,0,0.6 M,0,65932,66932,45.20088,480,45.20088,300 S,0,65932,66932,0.2,0.3 F,0,66732,66932,0.6,0 F,0,66966,67166,0,0.6 M,0,66966,67966,60.30273,480,60.30273,300 S,0,66966,67966,0.2,0.3 F,0,67766,67966,0.6,0 F,0,67999,68199,0,0.6 M,0,67999,68999,557.5276,480,557.5276,300 S,0,67999,68999,0.2,0.3 F,0,68799,68999,0.6,0 F,0,69032,69232,0,0.6 M,0,69032,70032,57.18345,480,57.18345,300 S,0,69032,70032,0.2,0.3 F,0,69832,70032,0.6,0 F,0,70065,70265,0,0.6 M,0,70065,71065,346.0637,480,346.0637,300 S,0,70065,71065,0.2,0.3 F,0,70865,71065,0.6,0 F,0,71099,71299,0,0.6 M,0,71099,72099,53.57022,480,53.57022,300 S,0,71099,72099,0.2,0.3 F,0,71899,72099,0.6,0 F,0,72132,72332,0,0.6 M,0,72132,73132,382.7076,480,382.7076,300 S,0,72132,73132,0.2,0.3 F,0,72932,73132,0.6,0 F,0,73165,73365,0,0.6 M,0,73165,74165,283.1544,480,283.1544,300 S,0,73165,74165,0.2,0.3 F,0,73965,74165,0.6,0 F,0,74199,74399,0,0.6 M,0,74199,75199,746.1829,480,746.1829,300 S,0,74199,75199,0.2,0.3 F,0,74999,75199,0.6,0 F,0,75232,75432,0,0.6 M,0,75232,76232,449.8636,480,449.8636,300 S,0,75232,76232,0.2,0.3 F,0,76032,76232,0.6,0 F,0,76265,76465,0,0.6 M,0,76265,77265,505.0878,480,505.0878,300 S,0,76265,77265,0.2,0.3 F,0,77065,77265,0.6,0 F,0,77299,77499,0,0.6 M,0,77299,78299,31.82452,480,31.82452,300 S,0,77299,78299,0.2,0.3 F,0,78099,78299,0.6,0 F,0,78332,78532,0,0.6 M,0,78332,79332,15.54256,480,15.54256,300 S,0,78332,79332,0.2,0.3 F,0,79132,79332,0.6,0
Sprite,Foreground,Centre,"sb\particle.png",320,240 F,0,59932,,0.6 C,0,59932,,255,23,23 F,0,59932,60132,0,0.6 M,0,59932,60932,-79.13808,480,-79.13808,300 S,0,59932,60932,0.2,0.3 P,0,59932,79365,A F,0,60732,60932,0.6,0 F,0,60932,61132,0,0.6 M,0,60932,61932,309.7247,480,309.7247,300 S,0,60932,61932,0.2,0.3 F,0,61732,61932,0.6,0 F,0,61932,62132,0,0.6 M,0,61932,62932,170.9776,480,170.9776,300 S,0,61932,62932,0.2,0.3 F,0,62732,62932,0.6,0 F,0,62932,63132,0,0.6 M,0,62932,63932,706.8986,480,706.8986,300 S,0,62932,63932,0.2,0.3 F,0,63732,63932,0.6,0 F,0,63932,64132,0,0.6 M,0,63932,64932,490.5031,480,490.5031,300 S,0,63932,64932,0.2,0.3 F,0,64732,64932,0.6,0 F,0,64932,65132,0,0.6 M,0,64932,65932,305.5453,480,305.5453,300 S,0,64932,65932,0.2,0.3 F,0,65732,65932,0.6,0 F,0,65966,66166,0,0.6 M,0,65966,66966,646.9897,480,646.9897,300 S,0,65966,66966,0.2,0.3 F,0,66766,66966,0.6,0 F,0,66999,67199,0,0.6 M,0,66999,67999,650.9973,480,650.9973,300 S,0,66999,67999,0.2,0.3 F,0,67799,67999,0.6,0 F,0,68032,68232,0,0.6 M,0,68032,69032,257.5678,480,257.5678,300 S,0,68032,69032,0.2,0.3 F,0,68832,69032,0.6,0 F,0,69065,69265,0,0.6 M,0,69065,70065,21.32354,480,21.32354,300 S,0,69065,70065,0.2,0.3 F,0,69865,70065,0.6,0 F,0,70099,70299,0,0.6 M,0,70099,71099,705.635,480,705.635,300 S,0,70099,71099,0.2,0.3 F,0,70899,71099,0.6,0 F,0,71132,71332,0,0.6 M,0,71132,72132,116.281,480,116.281,300 S,0,71132,72132,0.2,0.3 F,0,71932,72132,0.6,0 F,0,72165,72365,0,0.6 M,0,72165,73165,626.7705,480,626.7705,300 S,0,72165,73165,0.2,0.3 F,0,72965,73165,0.6,0 F,0,73199,73399,0,0.6 M,0,73199,74199,-34.13345,480,-34.13345,300 S,0,73199,74199,0.2,0.3 F,0,73999,74199,0.6,0 F,0,74232,74432,0,0.6 M,0,74232,75232,631.9771,480,631.9771,300 S,0,74232,75232,0.2,0.3 F,0,75032,75232,0.6,0 F,0,75265,75465,0,0.6 M,0,75265,76265,596.2688,480,596.2688,300 S,0,75265,76265,0.2,0.3 F,0,76065,76265,0.6,0 F,0,76299,76499,0,0.6 M,0,76299,77299,718.1285,480,718.1285,300 S,0,76299,77299,0.2,0.3 F,0,77099,77299,0.6,0 F,0,77332,77532,0,0.6 M,0,77332,78332,-89.11387,480,-89.11387,300 S,0,77332,78332,0.2,0.3 F,0,78132,78332,0.6,0 F,0,78365,78565,0,0.6 M,0,78365,79365,178.3399,480,178.3399,300 S,0,78365,79365,0.2,0.3 F,0,79165,79365,0.6,0
Sprite,Foreground,Centre,"sb\particle.png",320,240 F,0,59966,,0.6 C,0,59966,,255,23,23 F,0,59966,60166,0,0.6 M,0,59966,60966,490.7505,480,490.7505,300 S,0,59966,60966,0.2,0.3 P,0,59966,79399,A F,0,60766,60966,0.6,0 F,0,60966,61166,0,0.6 M,0,60966,61966,59.45607,480,59.45607,300 S,0,60966,61966,0.2,0.3 F,0,61766,61966,0.6,0 F,0,61966,62166,0,0.6 M,0,61966,62966,466.0653,480,466.0653,300 S,0,61966,62966,0.2,0.3 F,0,62766,62966,0.6,0 F,0,62966,63166,0,0.6 M,0,62966,63966,311.9939,480,311.9939,300 S,0,62966,63966,0.2,0.3 F,0,63766,63966,0.6,0 F,0,63966,64166,0,0.6 M,0,63966,64966,418.5589,480,418.5589,300 S,0,63966,64966,0.2,0.3 F,0,64766,64966,0.6,0 F,0,64966,65166,0,0.6 M,0,64966,65966,77.72532,480,77.72532,300 S,0,64966,65966,0.2,0.3 F,0,65766,65966,0.6,0 F,0,65999,66199,0,0.6 M,0,65999,66999,358.1373,480,358.1373,300 S,0,65999,66999,0.2,0.3 F,0,66799,66999,0.6,0 F,0,67032,67232,0,0.6 M,0,67032,68032,312.8132,480,312.8132,300 S,0,67032,68032,0.2,0.3 F,0,67832,68032,0.6,0 F,0,68066,68266,0,0.6 M,0,68066,69066,445.6862,480,445.6862,300 S,0,68066,69066,0.2,0.3 F,0,68866,69066,0.6,0 F,0,69099,69299,0,0.6 M,0,69099,70099,457.786,480,457.786,300 S,0,69099,70099,0.2,0.3 F,0,69899,70099,0.6,0 F,0,70132,70332,0,0.6 M,0,70132,71132,65.63342,480,65.63342,300 S,0,70132,71132,0.2,0.3 F,0,70932,71132,0.6,0 F,0,71165,71365,0,0.6 M,0,71165,72165,418.5953,480,418.5953,300 S,0,71165,72165,0.2,0.3 F,0,71965,72165,0.6,0 F,0,72199,72399,0,0.6 M,0,72199,73199,84.55105,480,84.55105,300 S,0,72199,73199,0.2,0.3 F,0,72999,73199,0.6,0 F,0,73232,73432,0,0.6 M,0,73232,74232,392.8515,480,392.8515,300 S,0,73232,74232,0.2,0.3 F,0,74032,74232,0.6,0 F,0,74265,74465,0,0.6 M,0,74265,75265,281.3469,480,281.3469,300 S,0,74265,75265,0.2,0.3 F,0,75065,75265,0.6,0 F,0,75299,75499,0,0.6 M,0,75299,76299,95.21105,480,95.21105,300 S,0,75299,76299,0.2,0.3 F,0,76099,76299,0.6,0 F,0,76332,76532,0,0.6 M,0,76332,77332,682.3371,480,682.3371,300 S,0,76332,77332,0.2,0.3 F,0,77132,77332,0.6,0 F,0,77365,77565,0,0.6 M,0,77365,78365,275.5605,480,275.5605,300 S,0,77365,78365,0.2,0.3 F,0,78165,78365,0.6,0 F,0,78399,78599,0,0.6 M,0,78399,79399,30.50885,480,30.50885,300 S,0,78399,79399,0.2,0.3 F,0,79199,79399,0.6,0
Sprite,Foreground,Centre,"sb\particle.png",320,240 F,0,59999,,0.6 C,0,59999,,255,23,23 F,0,59999,60199,0,0.6 M,0,59999,60999,342.4467,480,342.4467,300 S,0,59999,60999,0.2,0.3 P,0,59999,79432,A F,0,60799,60999,0.6,0 F,0,60999,61199,0,0.6 M,0,60999,61999,642.9755,480,642.9755,300 S,0,60999,61999,0.2,0.3 F,0,61799,61999,0.6,0 F,0,61999,62199,0,0.6 M,0,61999,62999,293.0117,480,293.0117,300 S,0,61999,62999,0.2,0.3 F,0,62799,62999,0.6,0 F,0,62999,63199,0,0.6 M,0,62999,63999,19.44005,480,19.44005,300 S,0,62999,63999,0.2,0.3 F,0,63799,63999,0.6,0 F,0,63999,64199,0,0.6 M,0,63999,64999,602.305,480,602.305,300 S,0,63999,64999,0.2,0.3 F,0,64799,64999,0.6,0 F,0,64999,65199,0,0.6 M,0,64999,65999,-45.77708,480,-45.77708,300 S,0,64999,65999,0.2,0.3 F,0,65799,65999,0.6,0 F,0,66032,66232,0,0.6 M,0,66032,67032,563.4286,480,563.4286,300 S,0,66032,67032,0.2,0.3 F,0,66832,67032,0.6,0 F,0,67066,67266,0,0.6 M,0,67066,68066,437.7014,480,437.7014,300 S,0,67066,68066,0.2,0.3 F,0,67866,68066,0.6,0 F,0,68099,68299,0,0.6 M,0,68099,69099,746.1511,480,746.1511,300 S,0,68099,69099,0.2,0.3 F,0,68899,69099,0.6,0 F,0,69132,69332,0,0.6 M,0,69132,70132,68.31889,480,68.31889,300 S,0,69132,70132,0.2,0.3 F,0,69932,70132,0.6,0 F,0,70165,70365,0,0.6 M,0,70165,71165,700.3605,480,700.3605,300 S,0,70165,71165,0.2,0.3 F,0,70965,71165,0.6,0 F,0,71199,71399,0,0.6 M,0,71199,72199,395.9135,480,395.9135,300 S,0,71199,72199,0.2,0.3 F,0,71999,72199,0.6,0 F,0,72232,72432,0,0.6 M,0,72232,73232,-7.705384,480,-7.705384,300 S,0,72232,73232,0.2,0.3 F,0,73032,73232,0.6,0 F,0,73265,73465,0,0.6 M,0,73265,74265,-72.67857,480,-72.67857,300 S,0,73265,74265,0.2,0.3 F,0,74065,74265,0.6,0 F,0,74299,74499,0,0.6 M,0,74299,75299,462.4201,480,462.4201,300 S,0,74299,75299,0.2,0.3 F,0,75099,75299,0.6,0 F,0,75332,75532,0,0.6 M,0,75332,76332,609.4169,480,609.4169,300 S,0,75332,76332,0.2,0.3 F,0,76132,76332,0.6,0 F,0,76365,76565,0,0.6 M,0,76365,77365,478.3029,480,478.3029,300 S,0,76365,77365,0.2,0.3 F,0,77165,77365,0.6,0 F,0,77399,77599,0,0.6 M,0,77399,78399,291.0174,480,291.0174,300 S,0,77399,78399,0.2,0.3 F,0,78199,78399,0.6,0 F,0,78432,78632,0,0.6 M,0,78432,79432,314.5519,480,314.5519,300 S,0,78432,79432,0.2,0.3 F,0,79232,79432,0.6,0
Sprite,Foreground,Centre,"sb\particle.png",320,240 F,0,60032,,0.6 C,0,60032,,255,23,23 F,0,60032,60232,0,0.6 M,0,60032,61032,690.6519,480,690.6519,300 S,0,60032,61032,0.2,0.3 P,0,60032,79465,A F,0,60832,61032,0.6,0 F,0,61032,61232,0,0.6 M,0,61032,62032,597.9114,480,597.9114,300 S,0,61032,62032,0.2,0.3 F,0,61832,62032,0.6,0 F,0,62032,62232,0,0.6 M,0,62032,63032,604.8063,480,604.8063,300 S,0,62032,63032,0.2,0.3 F,0,62832,63032,0.6,0 F,0,63032,63232,0,0.6 M,0,63032,64032,471.6803,480,471.6803,300 S,0,63032,64032,0.2,0.3 F,0,63832,64032,0.6,0 F,0,64032,64232,0,0.6 M,0,64032,65032,478.0981,480,478.0981,300 S,0,64032,65032,0.2,0.3 F,0,64832,65032,0.6,0 F,0,65032,65232,0,0.6 M,0,65032,66032,89.62554,480,89.62554,300 S,0,65032,66032,0.2,0.3 F,0,65832,66032,0.6,0 F,0,66066,66266,0,0.6 M,0,66066,67066,331.9908,480,331.9908,300 S,0,66066,67066,0.2,0.3 F,0,66866,67066,0.6,0 F,0,67099,67299,0,0.6 M,0,67099,68099,166.0342,480,166.0342,300 S,0,67099,68099,0.2,0.3 F,0,67899,68099,0.6,0 F,0,68132,68332,0,0.6 M,0,68132,69132,413.0281,480,413.0281,300 S,0,68132,69132,0.2,0.3 F,0,68932,69132,0.6,0 F,0,69165,69365,0,0.6 M,0,69165,70165,349.8019,480,349.8019,300 S,0,69165,70165,0.2,0.3 F,0,69965,70165,0.6,0 F,0,70199,70399,0,0.6 M,0,70199,71199,620.3824,480,620.3824,300 S,0,70199,71199,0.2,0.3 F,0,70999,71199,0.6,0 F,0,71232,71432,0,0.6 M,0,71232,72232,668.4915,480,668.4915,300 S,0,71232,72232,0.2,0.3 F,0,72032,72232,0.6,0 F,0,72265,72465,0,0.6 M,0,72265,73265,27.33361,480,27.33361,300 S,0,72265,73265,0.2,0.3 F,0,73065,73265,0.6,0 F,0,73299,73499,0,0.6 M,0,73299,74299,557.4111,480,557.4111,300 S,0,73299,74299,0.2,0.3 F,0,74099,74299,0.6,0 F,0,74332,74532,0,0.6 M,0,74332,75332,-26.38992,480,-26.38992,300 S,0,74332,75332,0.2,0.3 F,0,75132,75332,0.6,0 F,0,75365,75565,0,0.6 M,0,75365,76365,369.4012,480,369.4012,300 S,0,75365,76365,0.2,0.3 F,0,76165,76365,0.6,0 F,0,76399,76599,0,0.6 M,0,76399,77399,740.5194,480,740.5194,300 S,0,76399,77399,0.2,0.3 F,0,77199,77399,0.6,0 F,0,77432,77632,0,0.6 M,0,77432,78432,-42.95832,480,-42.95832,300 S,0,77432,78432,0.2,0.3 F,0,78232,78432,0.6,0 F,0,78465,78665,0,0.6 M,0,78465,79465,671.3124,480,671.3124,300 S,0,78465,79465,0.2,0.3 F,0,79265,79465,0.6,0
Sprite,Foreground,Centre,"sb\particle.png",320,240 F,0,60066,,0.6 C,0,60066,,255,23,23 F,0,60066,60266,0,0.6 M,0,60066,61066,480.2277,480,480.2277,300 S,0,60066,61066,0.2,0.3 P,0,60066,79499,A F,0,60866,61066,0.6,0 F,0,61066,61266,0,0.6 M,0,61066,62066,521.0295,480,521.0295,300 S,0,61066,62066,0.2,0.3 F,0,61866,62066,0.6,0 F,0,62066,62266,0,0.6 M,0,62066,63066,584.0601,480,584.0601,300 S,0,62066,63066,0.2,0.3 F,0,62866,63066,0.6,0 F,0,63066,63266,0,0.6 M,0,63066,64066,379.6619,480,379.6619,300 S,0,63066,64066,0.2,0.3 F,0,63866,64066,0.6,0 F,0,64066,64266,0,0.6 M,0,64066,65066,379.5601,480,379.5601,300 S,0,64066,65066,0.2,0.3 F,0,64866,65066,0.6,0 F,0,65066,65266,0,0.6 M,0,65066,66066,21.81108,480,21.81108,300 S,0,65066,66066,0.2,0.3 F,0,65866,66066,0.6,0 F,0,66099,66299,0,0.6 M,0,66099,67099,193.9355,480,193.9355,300 S,0,66099,67099,0.2,0.3 F,0,66899,67099,0.6,0 F,0,67132,67332,0,0.6 M,0,67132,68132,208.1021,480,208.1021,300 S,0,67132,68132,0.2,0.3 F,0,67932,68132,0.6,0 F,0,68166,68366,0,0.6 M,0,68166,69166,-30.39206,480,-30.39206,300 S,0,68166,69166,0.2,0.3 F,0,68966,69166,0.6,0 F,0,69199,69399,0,0.6 M,0,69199,70199,328.5143,480,328.5143,300 S,0,69199,70199,0.2,0.3 F,0,69999,70199,0.6,0 F,0,70232,70432,0,0.6 M,0,70232,71232,658.2894,480,658.2894,300 S,0,70232,71232,0.2,0.3 F,0,71032,71232,0.6,0 F,0,71265,71465,0,0.6 M,0,71265,72265,200.639,480,200.639,300 S,0,71265,72265,0.2,0.3 F,0,72065,72265,0.6,0 F,0,72299,72499,0,0.6 M,0,72299,73299,555.2972,480,555.2972,300 S,0,72299,73299,0.2,0.3 F,0,73099,73299,0.6,0 F,0,73332,73532,0,0.6 M,0,73332,74332,188.711,480,188.711,300 S,0,73332,74332,0.2,0.3 F,0,74132,74332,0.6,0 F,0,74365,74565,0,0.6 M,0,74365,75365,740.7336,480,740.7336,300 S,0,74365,75365,0.2,0.3 F,0,75165,75365,0.6,0 F,0,75399,75599,0,0.6 M,0,75399,76399,278.2014,480,278.2014,300 S,0,75399,76399,0.2,0.3 F,0,76199,76399,0.6,0 F,0,76432,76632,0,0.6 M,0,76432,77432,493.5338,480,493.5338,300 S,0,76432,77432,0.2,0.3 F,0,77232,77432,0.6,0 F,0,77465,77665,0,0.6 M,0,77465,78465,712.4366,480,712.4366,300 S,0,77465,78465,0.2,0.3 F,0,78265,78465,0.6,0 F,0,78499,78699,0,0.6 M,0,78499,79499,638.4193,480,638.4193,300 S,0,78499,79499,0.2,0.3 F,0,79299,79499,0.6,0
Sprite,Foreground,Centre,"sb\particle.png",320,240 F,0,60099,,0.6 C,0,60099,,255,23,23 F,0,60099,60299,0,0.6 M,0,60099,61099,359.9804,480,359.9804,300 S,0,60099,61099,0.2,0.3 P,0,60099,79532,A F,0,60899,61099,0.6,0 F,0,61099,61299,0,0.6 M,0,61099,62099,625.9192,480,625.9192,300 S,0,61099,62099,0.2,0.3 F,0,61899,62099,0.6,0 F,0,62099,62299,0,0.6 M,0,62099,63099,570.7603,480,570.7603,300 S,0,62099,63099,0.2,0.3 F,0,62899,63099,0.6,0 F,0,63099,63299,0,0.6 M,0,63099,64099,85.49428,480,85.49428,300 S,0,63099,64099,0.2,0.3 F,0,63899,64099,0.6,0 F,0,64099,64299,0,0.6 M,0,64099,65099,40.54355,480,40.54355,300 S,0,64099,65099,0.2,0.3 F,0,64899,65099,0.6,0 F,0,65099,65299,0,0.6 M,0,65099,66099,274.6525,480,274.6525,300 S,0,65099,66099,0.2,0.3 F,0,65899,66099,0.6,0 F,0,66132,66332,0,0.6 M,0,66132,67132,739.952,480,739.952,300 S,0,66132,67132,0.2,0.3 F,0,66932,67132,0.6,0 F,0,67166,67366,0,0.6 M,0,67166,68166,101.8301,480,101.8301,300 S,0,67166,68166,0.2,0.3 F,0,67966,68166,0.6,0 F,0,68199,68399,0,0.6 M,0,68199,69199,425.76,480,425.76,300 S,0,68199,69199,0.2,0.3 F,0,68999,69199,0.6,0 F,0,69232,69432,0,0.6 M,0,69232,70232,553.3564,480,553.3564,300 S,0,69232,70232,0.2,0.3 F,0,70032,70232,0.6,0 F,0,70265,70465,0,0.6 M,0,70265,71265,291.7335,480,291.7335,300 S,0,70265,71265,0.2,0.3 F,0,71065,71265,0.6,0 F,0,71299,71499,0,0.6 M,0,71299,72299,539.308,480,539.308,300 S,0,71299,72299,0.2,0.3 F,0,72099,72299,0.6,0 F,0,72332,72532,0,0.6 M,0,72332,73332,604.2961,480,604.2961,300 S,0,72332,73332,0.2,0.3 F,0,73132,73332,0.6,0 F,0,73365,73565,0,0.6 M,0,73365,74365,490.7473,480,490.7473,300 S,0,73365,74365,0.2,0.3 F,0,74165,74365,0.6,0 F,0,74399,74599,0,0.6 M,0,74399,75399,481.2927,480,481.2927,300 S,0,74399,75399,0.2,0.3 F,0,75199,75399,0.6,0 F,0,75432,75632,0,0.6 M,0,75432,76432,527.3674,480,527.3674,300 S,0,75432,76432,0.2,0.3 F,0,76232,76432,0.6,0 F,0,76465,76665,0,0.6 M,0,76465,77465,473.7927,480,473.7927,300 S,0,76465,77465,0.2,0.3 F,0,77265,77465,0.6,0 F,0,77499,77699,0,0.6 M,0,77499,78499,720.4893,480,720.4893,300 S,0,77499,78499,0.2,0.3 F,0,78299,78499,0.6,0 F,0,78532,78732,0,0.6 M,0,78532,79532,441.2148,480,441.2148,300 S,0,78532,79532,0.2,0.3 F,0,79332,79532,0.6,0
Sprite,Foreground,Centre,"sb\particle.png",320,240 F,0,60132,,0.6 C,0,60132,,255,23,23 F,0,60132,60332,0,0.6 M,0,60132,61132,-37.7321,480,-37.7321,300 S,0,60132,61132,0.2,0.3 P,0,60132,79565,A F,0,60932,61132,0.6,0 F,0,61132,61332,0,0.6 M,0,61132,62132,473.5056,480,473.5056,300 S,0,61132,62132,0.2,0.3 F,0,61932,62132,0.6,0 F,0,62132,62332,0,0.6 M,0,62132,63132,545.8881,480,545.8881,300 S,0,62132,63132,0.2,0.3 F,0,62932,63132,0.6,0 F,0,63132,63332,0,0.6 M,0,63132,64132,420.9276,480,420.9276,300 S,0,63132,64132,0.2,0.3 F,0,63932,64132,0.6,0 F,0,64132,64332,0,0.6 M,0,64132,65132,50.59098,480,50.59098,300 S,0,64132,65132,0.2,0.3 F,0,64932,65132,0.6,0 F,0,65132,65332,0,0.6 M,0,65132,66132,278.2218,480,278.2218,300 S,0,65132,66132,0.2,0.3 F,0,65932,66132,0.6,0 F,0,66166,66366,0,0.6 M,0,66166,67166,-78.43963,480,-78.43963,300 S,0,66166,67166,0.2,0.3 F,0,66966,67166,0.6,0 F,0,67199,67399,0,0.6 M,0,67199,68199,743.0892,480,743.0892,300 S,0,67199,68199,0.2,0.3 F,0,67999,68199,0.6,0 F,0,68232,68432,0,0.6 M,0,68232,69232,739.0159,480,739.0159,300 S,0,68232,69232,0.2,0.3 F,0,69032,69232,0.6,0 F,0,69265,69465,0,0.6 M,0,69265,70265,304.9214,480,304.9214,300 S,0,69265,70265,0.2,0.3 F,0,70065,70265,0.6,0 F,0,70299,70499,0,0.6 M,0,70299,71299,614.0661,480,614.0661,300 S,0,70299,71299,0.2,0.3 F,0,71099,71299,0.6,0 F,0,71332,71532,0,0.6 M,0,71332,72332,566.7524,480,566.7524,300 S,0,71332,72332,0.2,0.3 F,0,72132,72332,0.6,0 F,0,72365,72565,0,0.6 M,0,72365,73365,537.6061,480,537.6061,300 S,0,72365,73365,0.2,0.3 F,0,73165,73365,0.6,0 F,0,73399,73599,0,0.6 M,0,73399,74399,496.9117,480,496.9117,300 S,0,73399,74399,0.2,0.3 F,0,74199,74399,0.6,0 F,0,74432,74632,0,0.6 M,0,74432,75432,-63.01517,480,-63.01517,300 S,0,74432,75432,0.2,0.3 F,0,75232,75432,0.6,0 F,0,75465,75665,0,0.6 M,0,75465,76465,508.8323,480,508.8323,300 S,0,75465,76465,0.2,0.3 F,0,76265,76465,0.6,0 F,0,76499,76699,0,0.6 M,0,76499,77499,427.9878,480,427.9878,300 S,0,76499,77499,0.2,0.3 F,0,77299,77499,0.6,0 F,0,77532,77732,0,0.6 M,0,77532,78532,101.1527,480,101.1527,300 S,0,77532,78532,0.2,0.3 F,0,78332,78532,0.6,0 F,0,78565,78765,0,0.6 M,0,78565,79565,504.4476,480,504.4476,300 S,0,78565,79565,0.2,0.3 F,0,79365,79565,0.6,0
Sprite,Foreground,Centre,"sb\particle.png",320,240 F,0,65899,,0.6 C,0,65899,,255,23,23 F,0,65899,66099,0,0.6 M,0,65899,66899,659.2543,480,659.2543,300 S,0,65899,66899,0.2,0.3 P,0,65899,79299,A F,0,66699,66899,0.6,0 F,0,66932,67132,0,0.6 M,0,66932,67932,297.8068,480,297.8068,300 S,0,66932,67932,0.2,0.3 F,0,67732,67932,0.6,0 F,0,67966,68166,0,0.6 M,0,67966,68966,183.7722,480,183.7722,300 S,0,67966,68966,0.2,0.3 F,0,68766,68966,0.6,0 F,0,68999,69199,0,0.6 M,0,68999,69999,181.1371,480,181.1371,300 S,0,68999,69999,0.2,0.3 F,0,69799,69999,0.6,0 F,0,70032,70232,0,0.6 M,0,70032,71032,596.0219,480,596.0219,300 S,0,70032,71032,0.2,0.3 F,0,70832,71032,0.6,0 F,0,71065,71265,0,0.6 M,0,71065,72065,172.6673,480,172.6673,300 S,0,71065,72065,0.2,0.3 F,0,71865,72065,0.6,0 F,0,72099,72299,0,0.6 M,0,72099,73099,334.7181,480,334.7181,300 S,0,72099,73099,0.2,0.3 F,0,72899,73099,0.6,0 F,0,73132,73332,0,0.6 M,0,73132,74132,508.2709,480,508.2709,300 S,0,73132,74132,0.2,0.3 F,0,73932,74132,0.6,0 F,0,74165,74365,0,0.6 M,0,74165,75165,155.8687,480,155.8687,300 S,0,74165,75165,0.2,0.3 F,0,74965,75165,0.6,0 F,0,75199,75399,0,0.6 M,0,75199,76199,556.1039,480,556.1039,300 S,0,75199,76199,0.2,0.3 F,0,75999,76199,0.6,0 F,0,76232,76432,0,0.6 M,0,76232,77232,417.9116,480,417.9116,300 S,0,76232,77232,0.2,0.3 F,0,77032,77232,0.6,0 F,0,77265,77465,0,0.6 M,0,77265,78265,303.6414,480,303.6414,300 S,0,77265,78265,0.2,0.3 F,0,78065,78265,0.6,0 F,0,78299,78499,0,0.6 M,0,78299,79299,-100.1008,480,-100.1008,300 S,0,78299,79299,0.2,0.3 F,0,79099,79299,0.6,0
Sprite,Foreground,Centre,"sb\particle.png",320,240 F,0,59166,,0.2996568 S,0,59166,,0.3 C,0,59166,,104,149,155 F,0,59166,59366,0,0.2996568 M,0,59166,59666,513.2117,392.3162 P,0,59166,79866,A F,0,59466,59666,0.2996568,0 F,0,59682,59882,0,0.2996568 M,0,59682,60182,657.6395,430.2911 F,0,59982,60182,0.2996568,0 F,0,60199,60399,0,0.2996568 M,0,60199,60699,133.5268,338.3884 F,0,60499,60699,0.2996568,0 F,0,60715,60915,0,0.2996568 M,0,60715,61215,328.08,462.187 F,0,61015,61215,0.2996568,0 F,0,61232,61432,0,0.2996568 M,0,61232,61732,-29.05055,91.63792 F,0,61532,61732,0.2996568,0 F,0,61749,61949,0,0.2996568 M,0,61749,62249,440.1349,7.444418 F,0,62049,62249,0.2996568,0 F,0,62265,62465,0,0.2996568 M,0,62265,62765,631.2453,115.0239 F,0,62565,62765,0.2996568,0 F,0,62782,62982,0,0.2996568 M,0,62782,63282,589.4424,279.0128 F,0,63082,63282,0.2996568,0 F,0,63299,63499,0,0.2996568 M,0,63299,63799,94.67212,292.5636 F,0,63599,63799,0.2996568,0 F,0,63815,64015,0,0.2996568 M,0,63815,64315,406.9742,449.4515 F,0,64115,64315,0.2996568,0 F,0,64332,64532,0,0.2996568 M,0,64332,64832,415.8278,461.5693 F,0,64632,64832,0.2996568,0 F,0,64849,65049,0,0.2996568 M,0,64849,65349,89.12792,61.92637 F,0,65149,65349,0.2996568,0 F,0,65365,65565,0,0.2996568 M,0,65365,65865,77.58904,443.57 F,0,65665,65865,0.2996568,0 F,0,65865,66065,0,0.2996568 M,0,65865,66365,338.3633,231.2067 F,0,66165,66365,0.2996568,0 F,0,66365,66565,0,0.2996568 M,0,66365,66865,-87.3275,9.263746 F,0,66665,66865,0.2996568,0 F,0,66865,67065,0,0.2996568 M,0,66865,67365,-48.52785,369.0378 F,0,67165,67365,0.2996568,0 F,0,67365,67565,0,0.2996568 M,0,67365,67865,670.671,167.159 F,0,67665,67865,0.2996568,0 F,0,67865,68065,0,0.2996568 M,0,67865,68365,203.9439,0.8153307 F,0,68165,68365,0.2996568,0 F,0,68365,68565,0,0.2996568 M,0,68365,68865,493.2497,229.049 F,0,68665,68865,0.2996568,0 F,0,68866,69066,0,0.2996568 M,0,68866,69366,597.5873,449.0471 F,0,69166,69366,0.2996568,0 F,0,69366,69566,0,0.2996568 M,0,69366,69866,472.636,478.7023 F,0,69666,69866,0.2996568,0 F,0,69866,70066,0,0.2996568 M,0,69866,70366,653.1115,62.89907 F,0,70166,70366,0.2996568,0 F,0,70366,70566,0,0.2996568 M,0,70366,70866,320.4599,177.0193 F,0,70666,70866,0.2996568,0 F,0,70866,71066,0,0.2996568 M,0,70866,71366,27.70033,161.649 F,0,71166,71366,0.2996568,0 F,0,71366,71566,0,0.2996568 M,0,71366,71866,248.8751,244.3154 F,0,71666,71866,0.2996568,0 F,0,71866,72066,0,0.2996568 M,0,71866,72366,248.0664,410.3023 F,0,72166,72366,0.2996568,0 F,0,72366,72566,0,0.2996568 M,0,72366,72866,613.1016,357.5164 F,0,72666,72866,0.2996568,0 F,0,72866,73066,0,0.2996568 M,0,72866,73366,51.76882,57.5535 F,0,73166,73366,0.2996568,0 F,0,73366,73566,0,0.2996568 M,0,73366,73866,140.9735,166.9541 F,0,73666,73866,0.2996568,0 F,0,73866,74066,0,0.2996568 M,0,73866,74366,723.0605,343.8501 F,0,74166,74366,0.2996568,0 F,0,74366,74566,0,0.2996568 M,0,74366,74866,-78.90807,253.7071 F,0,74666,74866,0.2996568,0 F,0,74866,75066,0,0.2996568 M,0,74866,75366,368.5609,255.8353 F,0,75166,75366,0.2996568,0 F,0,75366,75566,0,0.2996568 M,0,75366,75866,365.3391,27.77993 F,0,75666,75866,0.2996568,0 F,0,75866,76066,0,0.2996568 M,0,75866,76366,421.8016,202.4382 F,0,76166,76366,0.2996568,0 F,0,76366,76566,0,0.2996568 M,0,76366,76866,196.7751,80.45801 F,0,76666,76866,0.2996568,0 F,0,76866,77066,0,0.2996568 M,0,76866,77366,360.1905,359.5898 F,0,77166,77366,0.2996568,0 F,0,77366,77566,0,0.2996568 M,0,77366,77866,437.0352,2.273417 F,0,77666,77866,0.2996568,0 F,0,77866,78066,0,0.2996568 M,0,77866,78366,515.5833,50.42877 F,0,78166,78366,0.2996568,0 F,0,78366,78566,0,0.2996568 M,0,78366,78866,617.3129,155.7111 F,0,78666,78866,0.2996568,0 F,0,78866,79066,0,0.2996568 M,0,78866,79366,601.8228,400.8134 F,0,79166,79366,0.2996568,0 F,0,79366,79566,0,0.2996568 M,0,79366,79866,-43.62216,4.56034 F,0,79666,79866,0.2996568,0
Sprite,Foreground,Centre,"sb\particle.png",320,240 F,0,59182,,0.2996568 S,0,59182,,0.3 C,0,59182,,104,149,155 F,0,59182,59382,0,0.2996568 M,0,59182,59682,548.8914,267.9174 P,0,59182,79882,A F,0,59482,59682,0.2996568,0 F,0,59699,59899,0,0.2996568 M,0,59699,60199,-33.06078,402.518 F,0,59999,60199,0.2996568,0 F,0,60215,60415,0,0.2996568 M,0,60215,60715,711.6276,474.6299 F,0,60515,60715,0.2996568,0 F,0,60732,60932,0,0.2996568 M,0,60732,61232,741.5103,8.097548 F,0,61032,61232,0.2996568,0 F,0,61249,61449,0,0.2996568 M,0,61249,61749,-53.62283,52.82981 F,0,61549,61749,0.2996568,0 F,0,61765,61965,0,0.2996568 M,0,61765,62265,379.3031,219.8193 F,0,62065,62265,0.2996568,0 F,0,62282,62482,0,0.2996568 M,0,62282,62782,215.3759,284.5185 F,0,62582,62782,0.2996568,0 F,0,62799,62999,0,0.2996568 M,0,62799,63299,534.7647,112.4628 F,0,63099,63299,0.2996568,0 F,0,63315,63515,0,0.2996568 M,0,63315,63815,440.6989,375.2045 F,0,63615,63815,0.2996568,0 F,0,63832,64032,0,0.2996568 M,0,63832,64332,669.2991,180.4407 F,0,64132,64332,0.2996568,0 F,0,64349,64549,0,0.2996568 M,0,64349,64849,50.81562,377.8203 F,0,64649,64849,0.2996568,0 F,0,64865,65065,0,0.2996568 M,0,64865,65365,-42.23317,352.9556 F,0,65165,65365,0.2996568,0 F,0,65382,65582,0,0.2996568 M,0,65382,65882,372.9371,209.1462 F,0,65682,65882,0.2996568,0 F,0,65882,66082,0,0.2996568 M,0,65882,66382,718.1174,317.1404 F,0,66182,66382,0.2996568,0 F,0,66382,66582,0,0.2996568 M,0,66382,66882,352.8883,426.5217 F,0,66682,66882,0.2996568,0 F,0,66882,67082,0,0.2996568 M,0,66882,67382,271.8043,239.8152 F,0,67182,67382,0.2996568,0 F,0,67382,67582,0,0.2996568 M,0,67382,67882,144.6792,53.52691 F,0,67682,67882,0.2996568,0 F,0,67882,68082,0,0.2996568 M,0,67882,68382,53.65318,359.682 F,0,68182,68382,0.2996568,0 F,0,68382,68582,0,0.2996568 M,0,68382,68882,619.3414,374.5591 F,0,68682,68882,0.2996568,0 F,0,68882,69082,0,0.2996568 M,0,68882,69382,615.8019,333.6639 F,0,69182,69382,0.2996568,0 F,0,69382,69582,0,0.2996568 M,0,69382,69882,485.02,303.4843 F,0,69682,69882,0.2996568,0 F,0,69882,70082,0,0.2996568 M,0,69882,70382,376.1712,220.1435 F,0,70182,70382,0.2996568,0 F,0,70382,70582,0,0.2996568 M,0,70382,70882,359.6403,412.2173 F,0,70682,70882,0.2996568,0 F,0,70882,71082,0,0.2996568 M,0,70882,71382,508.5957,136.2978 F,0,71182,71382,0.2996568,0 F,0,71382,71582,0,0.2996568 M,0,71382,71882,489.6537,269.1175 F,0,71682,71882,0.2996568,0 F,0,71882,72082,0,0.2996568 M,0,71882,72382,-11.50747,432.7693 F,0,72182,72382,0.2996568,0 F,0,72382,72582,0,0.2996568 M,0,72382,72882,518.9089,16.03854 F,0,72682,72882,0.2996568,0 F,0,72882,73082,0,0.2996568 M,0,72882,73382,148.8654,234.0222 F,0,73182,73382,0.2996568,0 F,0,73382,73582,0,0.2996568 M,0,73382,73882,-75.73825,148.3089 F,0,73682,73882,0.2996568,0 F,0,73882,74082,0,0.2996568 M,0,73882,74382,618.5352,7.408099 F,0,74182,74382,0.2996568,0 F,0,74382,74582,0,0.2996568 M,0,74382,74882,227.6438,360.872 F,0,74682,74882,0.2996568,0 F,0,74882,75082,0,0.2996568 M,0,74882,75382,337.7463,434.6666 F,0,75182,75382,0.2996568,0 F,0,75382,75582,0,0.2996568 M,0,75382,75882,298.4618,177.1654 F,0,75682,75882,0.2996568,0 F,0,75882,76082,0,0.2996568 M,0,75882,76382,-57.60727,89.59562 F,0,76182,76382,0.2996568,0 F,0,76382,76582,0,0.2996568 M,0,76382,76882,282.7875,236.9191 F,0,76682,76882,0.2996568,0 F,0,76882,77082,0,0.2996568 M,0,76882,77382,171.0283,115.3646 F,0,77182,77382,0.2996568,0 F,0,77382,77582,0,0.2996568 M,0,77382,77882,421.7814,9.523444 F,0,77682,77882,0.2996568,0 F,0,77882,78082,0,0.2996568 M,0,77882,78382,216.2978,308.9514 F,0,78182,78382,0.2996568,0 F,0,78382,78582,0,0.2996568 M,0,78382,78882,23.91116,326.447 F,0,78682,78882,0.2996568,0 F,0,78882,79082,0,0.2996568 M,0,78882,79382,97.64318,346.4548 F,0,79182,79382,0.2996568,0 F,0,79382,79582,0,0.2996568 M,0,79382,79882,245.1766,249.859 F,0,79682,79882,0.2996568,0
Sprite,Foreground,Centre,"sb\particle.png",320,240 F,0,59199,,0.2996568 S,0,59199,,0.3 C,0,59199,,104,149,155 F,0,59199,59399,0,0.2996568 M,0,59199,59699,68.95232,268.2647 P,0,59199,79899,A F,0,59499,59699,0.2996568,0 F,0,59715,59915,0,0.2996568 M,0,59715,60215,38.30198,309.1754 F,0,60015,60215,0.2996568,0 F,0,60232,60432,0,0.2996568 M,0,60232,60732,223.615,250.9153 F,0,60532,60732,0.2996568,0 F,0,60749,60949,0,0.2996568 M,0,60749,61249,451.1049,133.5982 F,0,61049,61249,0.2996568,0 F,0,61265,61465,0,0.2996568 M,0,61265,61765,518.8086,48.92345 F,0,61565,61765,0.2996568,0 F,0,61782,61982,0,0.2996568 M,0,61782,62282,741.3746,58.72433 F,0,62082,62282,0.2996568,0 F,0,62299,62499,0,0.2996568 M,0,62299,62799,459.5913,38.87556 F,0,62599,62799,0.2996568,0 F,0,62815,63015,0,0.2996568 M,0,62815,63315,681.7637,280.5891 F,0,63115,63315,0.2996568,0 F,0,63332,63532,0,0.2996568 M,0,63332,63832,689.806,21.76764 F,0,63632,63832,0.2996568,0 F,0,63849,64049,0,0.2996568 M,0,63849,64349,36.70851,312.7951 F,0,64149,64349,0.2996568,0 F,0,64365,64565,0,0.2996568 M,0,64365,64865,429.2327,169.7744 F,0,64665,64865,0.2996568,0 F,0,64882,65082,0,0.2996568 M,0,64882,65382,519.5198,266.1183 F,0,65182,65382,0.2996568,0 F,0,65399,65599,0,0.2996568 M,0,65399,65899,121.5711,110.1809 F,0,65699,65899,0.2996568,0 F,0,65899,66099,0,0.2996568 M,0,65899,66399,88.51665,320.2279 F,0,66199,66399,0.2996568,0 F,0,66399,66599,0,0.2996568 M,0,66399,66899,512.4389,254.6445 F,0,66699,66899,0.2996568,0 F,0,66899,67099,0,0.2996568 M,0,66899,67399,-97.71486,379.3858 F,0,67199,67399,0.2996568,0 F,0,67399,67599,0,0.2996568 M,0,67399,67899,333.9767,250.4822 F,0,67699,67899,0.2996568,0 F,0,67899,68099,0,0.2996568 M,0,67899,68399,-79.24536,468.4764 F,0,68199,68399,0.2996568,0 F,0,68399,68599,0,0.2996568 M,0,68399,68899,21.83307,240.7803 F,0,68699,68899,0.2996568,0 F,0,68899,69099,0,0.2996568 M,0,68899,69399,692.7612,54.62712 F,0,69199,69399,0.2996568,0 F,0,69399,69599,0,0.2996568 M,0,69399,69899,253.473,285.1278 F,0,69699,69899,0.2996568,0 F,0,69899,70099,0,0.2996568 M,0,69899,70399,201.583,153.8259 F,0,70199,70399,0.2996568,0 F,0,70399,70599,0,0.2996568 M,0,70399,70899,210.2625,333.494 F,0,70699,70899,0.2996568,0 F,0,70899,71099,0,0.2996568 M,0,70899,71399,282.3026,198.5868 F,0,71199,71399,0.2996568,0 F,0,71399,71599,0,0.2996568 M,0,71399,71899,108.6179,341.2142 F,0,71699,71899,0.2996568,0 F,0,71899,72099,0,0.2996568 M,0,71899,72399,64.58471,238.3441 F,0,72199,72399,0.2996568,0 F,0,72399,72599,0,0.2996568 M,0,72399,72899,113.833,362.819 F,0,72699,72899,0.2996568,0 F,0,72899,73099,0,0.2996568 M,0,72899,73399,-25.94006,74.10878 F,0,73199,73399,0.2996568,0 F,0,73399,73599,0,0.2996568 M,0,73399,73899,558.981,114.7253 F,0,73699,73899,0.2996568,0 F,0,73899,74099,0,0.2996568 M,0,73899,74399,285.9094,385.1266 F,0,74199,74399,0.2996568,0 F,0,74399,74599,0,0.2996568 M,0,74399,74899,441.3554,362.1795 F,0,74699,74899,0.2996568,0 F,0,74899,75099,0,0.2996568 M,0,74899,75399,510.4198,176.1049 F,0,75199,75399,0.2996568,0 F,0,75399,75599,0,0.2996568 M,0,75399,75899,-88.58319,142.4763 F,0,75699,75899,0.2996568,0 F,0,75899,76099,0,0.2996568 M,0,75899,76399,683.7467,317.3842 F,0,76199,76399,0.2996568,0 F,0,76399,76599,0,0.2996568 M,0,76399,76899,373.9656,298.7319 F,0,76699,76899,0.2996568,0 F,0,76899,77099,0,0.2996568 M,0,76899,77399,199.6513,380.7602 F,0,77199,77399,0.2996568,0 F,0,77399,77599,0,0.2996568 M,0,77399,77899,312.3831,413.5257 F,0,77699,77899,0.2996568,0 F,0,77899,78099,0,0.2996568 M,0,77899,78399,347.1067,137.3714 F,0,78199,78399,0.2996568,0 F,0,78399,78599,0,0.2996568 M,0,78399,78899,678.2759,216.2911 F,0,78699,78899,0.2996568,0 F,0,78899,79099,0,0.2996568 M,0,78899,79399,426.7185,10.71414 F,0,79199,79399,0.2996568,0 F,0,79399,79599,0,0.2996568 M,0,79399,79899,593.8699,427.0656 F,0,79699,79899,0.2996568,0
Sprite,Foreground,Centre,"sb\particle.png",320,240 F,0,59215,,0.2996568 S,0,59215,,0.3 C,0,59215,,104,149,155 F,0,59215,59415,0,0.2996568 M,0,59215,59715,666.7471,212.2454 P,0,59215,79916,A F,0,59515,59715,0.2996568,0 F,0,59732,59932,0,0.2996568 M,0,59732,60232,599.0995,105.2101 F,0,60032,60232,0.2996568,0 F,0,60249,60449,0,0.2996568 M,0,60249,60749,132.3978,243.1565 F,0,60549,60749,0.2996568,0 F,0,60765,60965,0,0.2996568 M,0,60765,61265,718.9612,282.1404 F,0,61065,61265,0.2996568,0 F,0,61282,61482,0,0.2996568 M,0,61282,61782,610.2125,308.482 F,0,61582,61782,0.2996568,0 F,0,61799,61999,0,0.2996568 M,0,61799,62299,-4.093199,135.94 F,0,62099,62299,0.2996568,0 F,0,62315,62515,0,0.2996568 M,0,62315,62815,348.3621,477.7063 F,0,62615,62815,0.2996568,0 F,0,62832,63032,0,0.2996568 M,0,62832,63332,739.9587,24.98941 F,0,63132,63332,0.2996568,0 F,0,63349,63549,0,0.2996568 M,0,63349,63849,359.4347,256.3969 F,0,63649,63849,0.2996568,0 F,0,63865,64065,0,0.2996568 M,0,63865,64365,-27.296,303.4707 F,0,64165,64365,0.2996568,0 F,0,64382,64582,0,0.2996568 M,0,64382,64882,-63.10468,382.1389 F,0,64682,64882,0.2996568,0 F,0,64899,65099,0,0.2996568 M,0,64899,65399,-68.4194,191.574 F,0,65199,65399,0.2996568,0 F,0,65415,65615,0,0.2996568 M,0,65415,65915,143.9554,108.3804 F,0,65715,65915,0.2996568,0 F,0,65915,66115,0,0.2996568 M,0,65915,66415,169.1387,421.0256 F,0,66215,66415,0.2996568,0 F,0,66415,66615,0,0.2996568 M,0,66415,66915,-21.14773,213.0568 F,0,66715,66915,0.2996568,0 F,0,66915,67115,0,0.2996568 M,0,66915,67415,-35.28733,345.1537 F,0,67215,67415,0.2996568,0 F,0,67415,67615,0,0.2996568 M,0,67415,67915,518.2409,35.22758 F,0,67715,67915,0.2996568,0 F,0,67915,68115,0,0.2996568 M,0,67915,68415,206.1422,250.6809 F,0,68215,68415,0.2996568,0 F,0,68415,68615,0,0.2996568 M,0,68415,68915,149.8705,121.5684 F,0,68715,68915,0.2996568,0 F,0,68916,69116,0,0.2996568 M,0,68916,69416,431.1503,192.3553 F,0,69216,69416,0.2996568,0 F,0,69416,69616,0,0.2996568 M,0,69416,69916,543.0687,239.443 F,0,69716,69916,0.2996568,0 F,0,69916,70116,0,0.2996568 M,0,69916,70416,275.1908,17.06558 F,0,70216,70416,0.2996568,0 F,0,70416,70616,0,0.2996568 M,0,70416,70916,187.7653,81.64287 F,0,70716,70916,0.2996568,0 F,0,70916,71116,0,0.2996568 M,0,70916,71416,691.9379,200.7376 F,0,71216,71416,0.2996568,0 F,0,71416,71616,0,0.2996568 M,0,71416,71916,671.3262,23.28622 F,0,71716,71916,0.2996568,0 F,0,71916,72116,0,0.2996568 M,0,71916,72416,630.9923,348.1201 F,0,72216,72416,0.2996568,0 F,0,72416,72616,0,0.2996568 M,0,72416,72916,172.1161,276.2248 F,0,72716,72916,0.2996568,0 F,0,72916,73116,0,0.2996568 M,0,72916,73416,175.4377,216.1653 F,0,73216,73416,0.2996568,0 F,0,73416,73616,0,0.2996568 M,0,73416,73916,543.7921,120.1516 F,0,73716,73916,0.2996568,0 F,0,73916,74116,0,0.2996568 M,0,73916,74416,516.5078,294.4496 F,0,74216,74416,0.2996568,0 F,0,74416,74616,0,0.2996568 M,0,74416,74916,88.95703,179.4727 F,0,74716,74916,0.2996568,0 F,0,74916,75116,0,0.2996568 M,0,74916,75416,594.5593,283.6618 F,0,75216,75416,0.2996568,0 F,0,75416,75616,0,0.2996568 M,0,75416,75916,503.7054,315.0812 F,0,75716,75916,0.2996568,0 F,0,75916,76116,0,0.2996568 M,0,75916,76416,556.0161,448.0901 F,0,76216,76416,0.2996568,0 F,0,76416,76616,0,0.2996568 M,0,76416,76916,598.3236,478.6159 F,0,76716,76916,0.2996568,0 F,0,76916,77116,0,0.2996568 M,0,76916,77416,545.2755,472.5938 F,0,77216,77416,0.2996568,0 F,0,77416,77616,0,0.2996568 M,0,77416,77916,51.59253,109.5128 F,0,77716,77916,0.2996568,0 F,0,77916,78116,0,0.2996568 M,0,77916,78416,95.66939,370.7603 F,0,78216,78416,0.2996568,0 F,0,78416,78616,0,0.2996568 M,0,78416,78916,599.7151,407.4304 F,0,78716,78916,0.2996568,0 F,0,78916,79116,0,0.2996568 M,0,78916,79416,232.5183,424.8316 F,0,79216,79416,0.2996568,0 F,0,79416,79616,0,0.2996568 M,0,79416,79916,577.2556,48.42835 F,0,79716,79916,0.2996568,0
Sprite,Foreground,Centre,"sb\particle.png",320,240 F,0,59232,,0.2996568 S,0,59232,,0.3 C,0,59232,,104,149,155 F,0,59232,59432,0,0.2996568 M,0,59232,59732,727.8275,131.3781 P,0,59232,79932,A F,0,59532,59732,0.2996568,0 F,0,59749,59949,0,0.2996568 M,0,59749,60249,746.9767,231.0555 F,0,60049,60249,0.2996568,0 F,0,60265,60465,0,0.2996568 M,0,60265,60765,346.9685,27.36403 F,0,60565,60765,0.2996568,0 F,0,60782,60982,0,0.2996568 M,0,60782,61282,552.4603,155.6001 F,0,61082,61282,0.2996568,0 F,0,61299,61499,0,0.2996568 M,0,61299,61799,382.3203,115.9843 F,0,61599,61799,0.2996568,0 F,0,61815,62015,0,0.2996568 M,0,61815,62315,431.5392,383.6546 F,0,62115,62315,0.2996568,0 F,0,62332,62532,0,0.2996568 M,0,62332,62832,28.99544,230.6579 F,0,62632,62832,0.2996568,0 F,0,62849,63049,0,0.2996568 M,0,62849,63349,362.2643,76.95096 F,0,63149,63349,0.2996568,0 F,0,63365,63565,0,0.2996568 M,0,63365,63865,112.6289,8.167492 F,0,63665,63865,0.2996568,0 F,0,63882,64082,0,0.2996568 M,0,63882,64382,562.5466,154.6127 F,0,64182,64382,0.2996568,0 F,0,64399,64599,0,0.2996568 M,0,64399,64899,40.47351,341.7554 F,0,64699,64899,0.2996568,0 F,0,64915,65115,0,0.2996568 M,0,64915,65415,581.2775,60.91563 F,0,65215,65415,0.2996568,0 F,0,65432,65632,0,0.2996568 M,0,65432,65932,288.1632,237.629 F,0,65732,65932,0.2996568,0 F,0,65932,66132,0,0.2996568 M,0,65932,66432,569.2609,73.42373 F,0,66232,66432,0.2996568,0 F,0,66432,66632,0,0.2996568 M,0,66432,66932,63.78446,144.4776 F,0,66732,66932,0.2996568,0 F,0,66932,67132,0,0.2996568 M,0,66932,67432,-61.2334,264.4599 F,0,67232,67432,0.2996568,0 F,0,67432,67632,0,0.2996568 M,0,67432,67932,-100.2506,106.6167 F,0,67732,67932,0.2996568,0 F,0,67932,68132,0,0.2996568 M,0,67932,68432,167.6335,204.7214 F,0,68232,68432,0.2996568,0 F,0,68432,68632,0,0.2996568 M,0,68432,68932,298.2688,363.6675 F,0,68732,68932,0.2996568,0 F,0,68932,69132,0,0.2996568 M,0,68932,69432,342.2823,205.5513 F,0,69232,69432,0.2996568,0 F,0,69432,69632,0,0.2996568 M,0,69432,69932,350.7959,121.7309 F,0,69732,69932,0.2996568,0 F,0,69932,70132,0,0.2996568 M,0,69932,70432,279.7618,66.62999 F,0,70232,70432,0.2996568,0 F,0,70432,70632,0,0.2996568 M,0,70432,70932,-58.13806,194.2788 F,0,70732,70932,0.2996568,0 F,0,70932,71132,0,0.2996568 M,0,70932,71432,701.4879,24.86551 F,0,71232,71432,0.2996568,0 F,0,71432,71632,0,0.2996568 M,0,71432,71932,457.81,328.767 F,0,71732,71932,0.2996568,0 F,0,71932,72132,0,0.2996568 M,0,71932,72432,231.0914,429.1088 F,0,72232,72432,0.2996568,0 F,0,72432,72632,0,0.2996568 M,0,72432,72932,325.1321,212.228 F,0,72732,72932,0.2996568,0 F,0,72932,73132,0,0.2996568 M,0,72932,73432,68.77365,164.2549 F,0,73232,73432,0.2996568,0 F,0,73432,73632,0,0.2996568 M,0,73432,73932,210.3376,218.0849 F,0,73732,73932,0.2996568,0 F,0,73932,74132,0,0.2996568 M,0,73932,74432,729.3162,128.2018 F,0,74232,74432,0.2996568,0 F,0,74432,74632,0,0.2996568 M,0,74432,74932,-5.215481,98.15621 F,0,74732,74932,0.2996568,0 F,0,74932,75132,0,0.2996568 M,0,74932,75432,233.5656,381.7917 F,0,75232,75432,0.2996568,0 F,0,75432,75632,0,0.2996568 M,0,75432,75932,215.1241,91.9112 F,0,75732,75932,0.2996568,0 F,0,75932,76132,0,0.2996568 M,0,75932,76432,335.3961,82.88073 F,0,76232,76432,0.2996568,0 F,0,76432,76632,0,0.2996568 M,0,76432,76932,249.6333,263.2269 F,0,76732,76932,0.2996568,0 F,0,76932,77132,0,0.2996568 M,0,76932,77432,471.4123,427.2781 F,0,77232,77432,0.2996568,0 F,0,77432,77632,0,0.2996568 M,0,77432,77932,382.7317,216.1322 F,0,77732,77932,0.2996568,0 F,0,77932,78132,0,0.2996568 M,0,77932,78432,23.30723,404.8126 F,0,78232,78432,0.2996568,0 F,0,78432,78632,0,0.2996568 M,0,78432,78932,-79.51377,90.03149 F,0,78732,78932,0.2996568,0 F,0,78932,79132,0,0.2996568 M,0,78932,79432,536.6351,243.3416 F,0,79232,79432,0.2996568,0 F,0,79432,79632,0,0.2996568 M,0,79432,79932,310.8014,363.8025 F,0,79732,79932,0.2996568,0
Sprite,Foreground,Centre,"sb\particle.png",320,240 F,0,59249,,0.2996568 S,0,59249,,0.3 C,0,59249,,104,149,155 F,0,59249,59449,0,0.2996568 M,0,59249,59749,142.288,224.3111 P,0,59249,79949,A F,0,59549,59749,0.2996568,0 F,0,59765,59965,0,0.2996568 M,0,59765,60265,449.9833,345.4685 F,0,60065,60265,0.2996568,0 F,0,60282,60482,0,0.2996568 M,0,60282,60782,132.5928,238.1178 F,0,60582,60782,0.2996568,0 F,0,60799,60999,0,0.2996568 M,0,60799,61299,252.0432,467.9678 F,0,61099,61299,0.2996568,0 F,0,61315,61515,0,0.2996568 M,0,61315,61815,607.9631,412.5988 F,0,61615,61815,0.2996568,0 F,0,61832,62032,0,0.2996568 M,0,61832,62332,111.3035,126.7129 F,0,62132,62332,0.2996568,0 F,0,62349,62549,0,0.2996568 M,0,62349,62849,-52.51398,73.10632 F,0,62649,62849,0.2996568,0 F,0,62865,63065,0,0.2996568 M,0,62865,63365,717.9403,212.748 F,0,63165,63365,0.2996568,0 F,0,63382,63582,0,0.2996568 M,0,63382,63882,35.52342,35.94714 F,0,63682,63882,0.2996568,0 F,0,63899,64099,0,0.2996568 M,0,63899,64399,161.9969,45.74703 F,0,64199,64399,0.2996568,0 F,0,64415,64615,0,0.2996568 M,0,64415,64915,600.8058,125.1641 F,0,64715,64915,0.2996568,0 F,0,64932,65132,0,0.2996568 M,0,64932,65432,221.3802,369.4597 F,0,65232,65432,0.2996568,0 F,0,65449,65649,0,0.2996568 M,0,65449,65949,32.80857,403.8762 F,0,65749,65949,0.2996568,0 F,0,65949,66149,0,0.2996568 M,0,65949,66449,346.321,33.59574 F,0,66249,66449,0.2996568,0 F,0,66449,66649,0,0.2996568 M,0,66449,66949,163.3168,180.5803 F,0,66749,66949,0.2996568,0 F,0,66949,67149,0,0.2996568 M,0,66949,67449,377.9206,244.5946 F,0,67249,67449,0.2996568,0 F,0,67449,67649,0,0.2996568 M,0,67449,67949,620.6072,383.2953 F,0,67749,67949,0.2996568,0 F,0,67949,68149,0,0.2996568 M,0,67949,68449,195.3411,448.7374 F,0,68249,68449,0.2996568,0 F,0,68449,68649,0,0.2996568 M,0,68449,68949,142.4729,33.76083 F,0,68749,68949,0.2996568,0 F,0,68949,69149,0,0.2996568 M,0,68949,69449,118.5156,82.62964 F,0,69249,69449,0.2996568,0 F,0,69449,69649,0,0.2996568 M,0,69449,69949,-43.88857,431.4408 F,0,69749,69949,0.2996568,0 F,0,69949,70149,0,0.2996568 M,0,69949,70449,-82.12141,192.5257 F,0,70249,70449,0.2996568,0 F,0,70449,70649,0,0.2996568 M,0,70449,70949,329.4149,471.3073 F,0,70749,70949,0.2996568,0 F,0,70949,71149,0,0.2996568 M,0,70949,71449,717.9099,204.5072 F,0,71249,71449,0.2996568,0 F,0,71449,71649,0,0.2996568 M,0,71449,71949,332.9798,244.8075 F,0,71749,71949,0.2996568,0 F,0,71949,72149,0,0.2996568 M,0,71949,72449,99.60279,166.8474 F,0,72249,72449,0.2996568,0 F,0,72449,72649,0,0.2996568 M,0,72449,72949,-101.599,330.9303 F,0,72749,72949,0.2996568,0 F,0,72949,73149,0,0.2996568 M,0,72949,73449,722.5328,147.1192 F,0,73249,73449,0.2996568,0 F,0,73449,73649,0,0.2996568 M,0,73449,73949,523.9977,386.9825 F,0,73749,73949,0.2996568,0 F,0,73949,74149,0,0.2996568 M,0,73949,74449,169.9893,367.9836 F,0,74249,74449,0.2996568,0 F,0,74449,74649,0,0.2996568 M,0,74449,74949,64.92361,102.7048 F,0,74749,74949,0.2996568,0 F,0,74949,75149,0,0.2996568 M,0,74949,75449,676.6234,426.9892 F,0,75249,75449,0.2996568,0 F,0,75449,75649,0,0.2996568 M,0,75449,75949,33.512,294.3668 F,0,75749,75949,0.2996568,0 F,0,75949,76149,0,0.2996568 M,0,75949,76449,732.9153,299.4552 F,0,76249,76449,0.2996568,0 F,0,76449,76649,0,0.2996568 M,0,76449,76949,449.9714,102.8015 F,0,76749,76949,0.2996568,0 F,0,76949,77149,0,0.2996568 M,0,76949,77449,723.5311,366.625 F,0,77249,77449,0.2996568,0 F,0,77449,77649,0,0.2996568 M,0,77449,77949,525.7254,403.4095 F,0,77749,77949,0.2996568,0 F,0,77949,78149,0,0.2996568 M,0,77949,78449,243.0671,138.0774 F,0,78249,78449,0.2996568,0 F,0,78449,78649,0,0.2996568 M,0,78449,78949,517.1916,444.3469 F,0,78749,78949,0.2996568,0 F,0,78949,79149,0,0.2996568 M,0,78949,79449,174.925,250.0713 F,0,79249,79449,0.2996568,0 F,0,79449,79649,0,0.2996568 M,0,79449,79949,-23.53959,282.4131 F,0,79749,79949,0.2996568,0
Sprite,Foreground,Centre,"sb\particle.png",320,240 F,0,59265,,0.2996568 S,0,59265,,0.3 C,0,59265,,104,149,155 F,0,59265,59465,0,0.2996568 M,0,59265,59765,433.2909,225.3657 P,0,59265,79966,A F,0,59565,59765,0.2996568,0 F,0,59782,59982,0,0.2996568 M,0,59782,60282,584.2811,48.44899 F,0,60082,60282,0.2996568,0 F,0,60299,60499,0,0.2996568 M,0,60299,60799,615.8388,294.3158 F,0,60599,60799,0.2996568,0 F,0,60815,61015,0,0.2996568 M,0,60815,61315,649.6436,466.9859 F,0,61115,61315,0.2996568,0 F,0,61332,61532,0,0.2996568 M,0,61332,61832,275.0551,435.4246 F,0,61632,61832,0.2996568,0 F,0,61849,62049,0,0.2996568 M,0,61849,62349,-95.90813,213.9705 F,0,62149,62349,0.2996568,0 F,0,62365,62565,0,0.2996568 M,0,62365,62865,734.4031,17.44469 F,0,62665,62865,0.2996568,0 F,0,62882,63082,0,0.2996568 M,0,62882,63382,260.2459,443.2657 F,0,63182,63382,0.2996568,0 F,0,63399,63599,0,0.2996568 M,0,63399,63899,513.0347,125.7476 F,0,63699,63899,0.2996568,0 F,0,63915,64115,0,0.2996568 M,0,63915,64415,485.6679,272.3815 F,0,64215,64415,0.2996568,0 F,0,64432,64632,0,0.2996568 M,0,64432,64932,553.5715,462.3807 F,0,64732,64932,0.2996568,0 F,0,64949,65149,0,0.2996568 M,0,64949,65449,195.1716,41.14949 F,0,65249,65449,0.2996568,0 F,0,65465,65665,0,0.2996568 M,0,65465,65965,-2.022895,92.4696 F,0,65765,65965,0.2996568,0 F,0,65965,66165,0,0.2996568 M,0,65965,66465,133.504,449.9578 F,0,66265,66465,0.2996568,0 F,0,66465,66665,0,0.2996568 M,0,66465,66965,534.5511,139.0311 F,0,66765,66965,0.2996568,0 F,0,66965,67165,0,0.2996568 M,0,66965,67465,-2.28403,58.32931 F,0,67265,67465,0.2996568,0 F,0,67465,67665,0,0.2996568 M,0,67465,67965,557.0379,200.9053 F,0,67765,67965,0.2996568,0 F,0,67965,68165,0,0.2996568 M,0,67965,68465,-39.99962,446.4189 F,0,68265,68465,0.2996568,0 F,0,68465,68665,0,0.2996568 M,0,68465,68965,713.7352,250.8059 F,0,68765,68965,0.2996568,0 F,0,68966,69166,0,0.2996568 M,0,68966,69466,566.5527,199.3251 F,0,69266,69466,0.2996568,0 F,0,69466,69666,0,0.2996568 M,0,69466,69966,72.28785,296.9346 F,0,69766,69966,0.2996568,0 F,0,69966,70166,0,0.2996568 M,0,69966,70466,-77.20525,174.751 F,0,70266,70466,0.2996568,0 F,0,70466,70666,0,0.2996568 M,0,70466,70966,607.5647,279.7406 F,0,70766,70966,0.2996568,0 F,0,70966,71166,0,0.2996568 M,0,70966,71466,245.9883,123.0359 F,0,71266,71466,0.2996568,0 F,0,71466,71666,0,0.2996568 M,0,71466,71966,453.1306,10.58335 F,0,71766,71966,0.2996568,0 F,0,71966,72166,0,0.2996568 M,0,71966,72466,177.8658,279.8774 F,0,72266,72466,0.2996568,0 F,0,72466,72666,0,0.2996568 M,0,72466,72966,457.2358,35.89045 F,0,72766,72966,0.2996568,0 F,0,72966,73166,0,0.2996568 M,0,72966,73466,662.4487,88.80703 F,0,73266,73466,0.2996568,0 F,0,73466,73666,0,0.2996568 M,0,73466,73966,306.1786,209.2803 F,0,73766,73966,0.2996568,0 F,0,73966,74166,0,0.2996568 M,0,73966,74466,264.0896,32.17698 F,0,74266,74466,0.2996568,0 F,0,74466,74666,0,0.2996568 M,0,74466,74966,358.9416,380.1424 F,0,74766,74966,0.2996568,0 F,0,74966,75166,0,0.2996568 M,0,74966,75466,151.5648,243.3976 F,0,75266,75466,0.2996568,0 F,0,75466,75666,0,0.2996568 M,0,75466,75966,489.9608,381.7572 F,0,75766,75966,0.2996568,0 F,0,75966,76166,0,0.2996568 M,0,75966,76466,-13.12051,328.4486 F,0,76266,76466,0.2996568,0 F,0,76466,76666,0,0.2996568 M,0,76466,76966,119.7712,431.2779 F,0,76766,76966,0.2996568,0 F,0,76966,77166,0,0.2996568 M,0,76966,77466,400.969,173.9452 F,0,77266,77466,0.2996568,0 F,0,77466,77666,0,0.2996568 M,0,77466,77966,392.9906,214.2032 F,0,77766,77966,0.2996568,0 F,0,77966,78166,0,0.2996568 M,0,77966,78466,70.68734,226.2611 F,0,78266,78466,0.2996568,0 F,0,78466,78666,0,0.2996568 M,0,78466,78966,218.413,452.244 F,0,78766,78966,0.2996568,0 F,0,78966,79166,0,0.2996568 M,0,78966,79466,-69.88029,301.9359 F,0,79266,79466,0.2996568,0 F,0,79466,79666,0,0.2996568 M,0,79466,79966,584.3898,440.5807 F,0,79766,79966,0.2996568,0
Sprite,Foreground,Centre,"sb\particle.png",320,240 F,0,59282,,0.2996568 S,0,59282,,0.3 C,0,59282,,104,149,155 F,0,59282,59482,0,0.2996568 M,0,59282,59782,731.7571,14.57616 P,0,59282,79982,A F,0,59582,59782,0.2996568,0 F,0,59799,59999,0,0.2996568 M,0,59799,60299,515.6463,344.8563 F,0,60099,60299,0.2996568,0 F,0,60315,60515,0,0.2996568 M,0,60315,60815,-18.04851,356.3179 F,0,60615,60815,0.2996568,0 F,0,60832,61032,0,0.2996568 M,0,60832,61332,110.919,63.48706 F,0,61132,61332,0.2996568,0 F,0,61349,61549,0,0.2996568 M,0,61349,61849,578.9058,220.9173 F,0,61649,61849,0.2996568,0 F,0,61865,62065,0,0.2996568 M,0,61865,62365,144.3511,403.0821 F,0,62165,62365,0.2996568,0 F,0,62382,62582,0,0.2996568 M,0,62382,62882,176.598,16.34973 F,0,62682,62882,0.2996568,0 F,0,62899,63099,0,0.2996568 M,0,62899,63399,-59.95199,307.4927 F,0,63199,63399,0.2996568,0 F,0,63415,63615,0,0.2996568 M,0,63415,63915,370.0078,272.4818 F,0,63715,63915,0.2996568,0 F,0,63932,64132,0,0.2996568 M,0,63932,64432,256.8795,232.0491 F,0,64232,64432,0.2996568,0 F,0,64449,64649,0,0.2996568 M,0,64449,64949,468.9728,358.5615 F,0,64749,64949,0.2996568,0 F,0,64965,65165,0,0.2996568 M,0,64965,65465,189.3076,301.469 F,0,65265,65465,0.2996568,0 F,0,65482,65682,0,0.2996568 M,0,65482,65982,524.4599,296.7091 F,0,65782,65982,0.2996568,0 F,0,65982,66182,0,0.2996568 M,0,65982,66482,320.766,380.4743 F,0,66282,66482,0.2996568,0 F,0,66482,66682,0,0.2996568 M,0,66482,66982,-95.1142,445.5358 F,0,66782,66982,0.2996568,0 F,0,66982,67182,0,0.2996568 M,0,66982,67482,296.692,38.6477 F,0,67282,67482,0.2996568,0 F,0,67482,67682,0,0.2996568 M,0,67482,67982,233.2974,289.9471 F,0,67782,67982,0.2996568,0 F,0,67982,68182,0,0.2996568 M,0,67982,68482,318.7951,159.9283 F,0,68282,68482,0.2996568,0 F,0,68482,68682,0,0.2996568 M,0,68482,68982,-50.77904,174.3822 F,0,68782,68982,0.2996568,0 F,0,68982,69182,0,0.2996568 M,0,68982,69482,677.9113,154.4658 F,0,69282,69482,0.2996568,0 F,0,69482,69682,0,0.2996568 M,0,69482,69982,28.60685,422.4979 F,0,69782,69982,0.2996568,0 F,0,69982,70182,0,0.2996568 M,0,69982,70482,299.9288,344.4624 F,0,70282,70482,0.2996568,0 F,0,70482,70682,0,0.2996568 M,0,70482,70982,-75.19362,118.0374 F,0,70782,70982,0.2996568,0 F,0,70982,71182,0,0.2996568 M,0,70982,71482,326.5125,468.0339 F,0,71282,71482,0.2996568,0 F,0,71482,71682,0,0.2996568 M,0,71482,71982,511.3208,206.877 F,0,71782,71982,0.2996568,0 F,0,71982,72182,0,0.2996568 M,0,71982,72482,167.6598,14.64573 F,0,72282,72482,0.2996568,0 F,0,72482,72682,0,0.2996568 M,0,72482,72982,520.653,168.9886 F,0,72782,72982,0.2996568,0 F,0,72982,73182,0,0.2996568 M,0,72982,73482,269.1489,398.0765 F,0,73282,73482,0.2996568,0 F,0,73482,73682,0,0.2996568 M,0,73482,73982,57.265,232.4659 F,0,73782,73982,0.2996568,0 F,0,73982,74182,0,0.2996568 M,0,73982,74482,459.2607,120.0992 F,0,74282,74482,0.2996568,0 F,0,74482,74682,0,0.2996568 M,0,74482,74982,-14.99064,51.46598 F,0,74782,74982,0.2996568,0 F,0,74982,75182,0,0.2996568 M,0,74982,75482,-84.35143,209.1827 F,0,75282,75482,0.2996568,0 F,0,75482,75682,0,0.2996568 M,0,75482,75982,472.6294,50.83736 F,0,75782,75982,0.2996568,0 F,0,75982,76182,0,0.2996568 M,0,75982,76482,-48.549,437.8769 F,0,76282,76482,0.2996568,0 F,0,76482,76682,0,0.2996568 M,0,76482,76982,-100.3121,210.7265 F,0,76782,76982,0.2996568,0 F,0,76982,77182,0,0.2996568 M,0,76982,77482,537.3965,408.8874 F,0,77282,77482,0.2996568,0 F,0,77482,77682,0,0.2996568 M,0,77482,77982,703.9946,329.6393 F,0,77782,77982,0.2996568,0 F,0,77982,78182,0,0.2996568 M,0,77982,78482,168.322,383.4242 F,0,78282,78482,0.2996568,0 F,0,78482,78682,0,0.2996568 M,0,78482,78982,723.5311,335.9126 F,0,78782,78982,0.2996568,0 F,0,78982,79182,0,0.2996568 M,0,78982,79482,481.3542,310.4571 F,0,79282,79482,0.2996568,0 F,0,79482,79682,0,0.2996568 M,0,79482,79982,238.7305,14.89245 F,0,79782,79982,0.2996568,0
Sprite,Foreground,Centre,"sb\particle.png",320,240 F,0,59299,,0.2996568 S,0,59299,,0.3 C,0,59299,,104,149,155 F,0,59299,59499,0,0.2996568 M,0,59299,59799,629.4641,477.7666 P,0,59299,79999,A F,0,59599,59799,0.2996568,0 F,0,59815,60015,0,0.2996568 M,0,59815,60315,0.2002701,434.4847 F,0,60115,60315,0.2996568,0 F,0,60332,60532,0,0.2996568 M,0,60332,60832,236.2022,448.0284 F,0,60632,60832,0.2996568,0 F,0,60849,61049,0,0.2996568 M,0,60849,61349,659.2543,85.54617 F,0,61149,61349,0.2996568,0 F,0,61365,61565,0,0.2996568 M,0,61365,61865,183.7722,373.505 F,0,61665,61865,0.2996568,0 F,0,61882,62082,0,0.2996568 M,0,61882,62382,596.0219,254.6494 F,0,62182,62382,0.2996568,0 F,0,62399,62599,0,0.2996568 M,0,62399,62899,334.7181,275.2455 F,0,62699,62899,0.2996568,0 F,0,62915,63115,0,0.2996568 M,0,62915,63415,155.8687,479.5407 F,0,63215,63415,0.2996568,0 F,0,63432,63632,0,0.2996568 M,0,63432,63932,417.9116,344.0306 F,0,63732,63932,0.2996568,0 F,0,63949,64149,0,0.2996568 M,0,63949,64449,-100.1008,68.87638 F,0,64249,64449,0.2996568,0 F,0,64465,64665,0,0.2996568 M,0,64465,64965,312.1942,353.4225 F,0,64765,64965,0.2996568,0 F,0,64982,65182,0,0.2996568 M,0,64982,65482,698.03,340.3618 F,0,65282,65482,0.2996568,0 F,0,65499,65699,0,0.2996568 M,0,65499,65999,41.07526,376.2762 F,0,65799,65999,0.2996568,0 F,0,65999,66199,0,0.2996568 M,0,65999,66499,505.3877,69.01733 F,0,66299,66499,0.2996568,0 F,0,66499,66699,0,0.2996568 M,0,66499,66999,-61.98383,232.6035 F,0,66799,66999,0.2996568,0 F,0,66999,67199,0,0.2996568 M,0,66999,67499,-95.05604,85.82908 F,0,67299,67499,0.2996568,0 F,0,67499,67699,0,0.2996568 M,0,67499,67999,-91.2977,304.7872 F,0,67799,67999,0.2996568,0 F,0,67999,68199,0,0.2996568 M,0,67999,68499,608.6114,379.3127 F,0,68299,68499,0.2996568,0 F,0,68499,68699,0,0.2996568 M,0,68499,68999,354.0966,412.7393 F,0,68799,68999,0.2996568,0 F,0,68999,69199,0,0.2996568 M,0,68999,69499,236.3006,268.6003 F,0,69299,69499,0.2996568,0 F,0,69499,69699,0,0.2996568 M,0,69499,69999,658.2303,186.0186 F,0,69799,69999,0.2996568,0 F,0,69999,70199,0,0.2996568 M,0,69999,70499,162.1612,52.80431 F,0,70299,70499,0.2996568,0 F,0,70499,70699,0,0.2996568 M,0,70499,70999,287.4384,252.0031 F,0,70799,70999,0.2996568,0 F,0,70999,71199,0,0.2996568 M,0,70999,71499,523.4912,331.8493 F,0,71299,71499,0.2996568,0 F,0,71499,71699,0,0.2996568 M,0,71499,71999,-60.25252,19.00152 F,0,71799,71999,0.2996568,0 F,0,71999,72199,0,0.2996568 M,0,71999,72499,721.7523,425.7857 F,0,72299,72499,0.2996568,0 F,0,72499,72699,0,0.2996568 M,0,72499,72999,589.116,231.5888 F,0,72799,72999,0.2996568,0 F,0,72999,73199,0,0.2996568 M,0,72999,73499,401.0346,72.79802 F,0,73299,73499,0.2996568,0 F,0,73499,73699,0,0.2996568 M,0,73499,73999,-27.45047,187.8593 F,0,73799,73999,0.2996568,0 F,0,73999,74199,0,0.2996568 M,0,73999,74499,430.8793,271.9351 F,0,74299,74499,0.2996568,0 F,0,74499,74699,0,0.2996568 M,0,74499,74999,53.3353,335.991 F,0,74799,74999,0.2996568,0 F,0,74999,75199,0,0.2996568 M,0,74999,75499,481.0315,471.8625 F,0,75299,75499,0.2996568,0 F,0,75499,75699,0,0.2996568 M,0,75499,75999,265.4664,12.44733 F,0,75799,75999,0.2996568,0 F,0,75999,76199,0,0.2996568 M,0,75999,76499,32.94925,360.2169 F,0,76299,76499,0.2996568,0 F,0,76499,76699,0,0.2996568 M,0,76499,76999,661.6094,29.42995 F,0,76799,76999,0.2996568,0 F,0,76999,77199,0,0.2996568 M,0,76999,77499,487.4103,402.1024 F,0,77299,77499,0.2996568,0 F,0,77499,77699,0,0.2996568 M,0,77499,77999,728.1096,259.2905 F,0,77799,77999,0.2996568,0 F,0,77999,78199,0,0.2996568 M,0,77999,78499,-65.18298,161.1818 F,0,78299,78499,0.2996568,0 F,0,78499,78699,0,0.2996568 M,0,78499,78999,81.35684,397.6262 F,0,78799,78999,0.2996568,0 F,0,78999,79199,0,0.2996568 M,0,78999,79499,217.2419,175.1373 F,0,79299,79499,0.2996568,0 F,0,79499,79699,0,0.2996568 M,0,79499,79999,389.3572,244.4493 F,0,79799,79999,0.2996568,0
Sprite,Foreground,Centre,"sb\particle.png",320,240 F,0,59315,,0.2996568 S,0,59315,,0.3 C,0,59315,,104,149,155 F,0,59315,59515,0,0.2996568 M,0,59315,59815,471.3127,151.0041 P,0,59315,80016,A F,0,59615,59815,0.2996568,0 F,0,59832,60032,0,0.2996568 M,0,59832,60332,54.51173,228.8687 F,0,60132,60332,0.2996568,0 F,0,60349,60549,0,0.2996568 M,0,60349,60849,4.616383,335.8331 F,0,60649,60849,0.2996568,0 F,0,60865,61065,0,0.2996568 M,0,60865,61365,646.9897,261.4355 F,0,61165,61365,0.2996568,0 F,0,61382,61582,0,0.2996568 M,0,61382,61882,257.5678,310.6433 F,0,61682,61882,0.2996568,0 F,0,61899,62099,0,0.2996568 M,0,61899,62399,705.635,97.03049 F,0,62199,62399,0.2996568,0 F,0,62415,62615,0,0.2996568 M,0,62415,62915,626.7705,107.6634 F,0,62715,62915,0.2996568,0 F,0,62932,63132,0,0.2996568 M,0,62932,63432,631.9771,218.2746 F,0,63232,63432,0.2996568,0 F,0,63449,63649,0,0.2996568 M,0,63449,63949,718.1285,443.6555 F,0,63749,63949,0.2996568,0 F,0,63965,64165,0,0.2996568 M,0,63965,64465,178.3399,77.28835 F,0,64265,64465,0.2996568,0 F,0,64482,64682,0,0.2996568 M,0,64482,64982,475.0421,337.8849 F,0,64782,64982,0.2996568,0 F,0,64999,65199,0,0.2996568 M,0,64999,65499,538.592,245.1994 F,0,65299,65499,0.2996568,0 F,0,65515,65715,0,0.2996568 M,0,65515,66015,60.67875,87.5901 F,0,65815,66015,0.2996568,0 F,0,66015,66215,0,0.2996568 M,0,66015,66515,361.6249,238.1649 F,0,66315,66515,0.2996568,0 F,0,66515,66715,0,0.2996568 M,0,66515,67015,152.2778,236.2201 F,0,66815,67015,0.2996568,0 F,0,67015,67215,0,0.2996568 M,0,67015,67515,256.9254,344.9732 F,0,67315,67515,0.2996568,0 F,0,67515,67715,0,0.2996568 M,0,67515,68015,533.1822,115.7934 F,0,67815,68015,0.2996568,0 F,0,68015,68215,0,0.2996568 M,0,68015,68515,82.41836,86.6969 F,0,68315,68515,0.2996568,0 F,0,68515,68715,0,0.2996568 M,0,68515,69015,-4.94327,249.6521 F,0,68815,69015,0.2996568,0 F,0,69016,69216,0,0.2996568 M,0,69016,69516,288.4666,84.51096 F,0,69316,69516,0.2996568,0 F,0,69516,69716,0,0.2996568 M,0,69516,70016,372.0719,326.0578 F,0,69816,70016,0.2996568,0 F,0,70016,70216,0,0.2996568 M,0,70016,70516,507.3824,187.9081 F,0,70316,70516,0.2996568,0 F,0,70516,70716,0,0.2996568 M,0,70516,71016,-99.307,320.2029 F,0,70816,71016,0.2996568,0 F,0,71016,71216,0,0.2996568 M,0,71016,71516,-51.55719,30.27445 F,0,71316,71516,0.2996568,0 F,0,71516,71716,0,0.2996568 M,0,71516,72016,-42.16872,26.82534 F,0,71816,72016,0.2996568,0 F,0,72016,72216,0,0.2996568 M,0,72016,72516,565.0381,418.8199 F,0,72316,72516,0.2996568,0 F,0,72516,72716,0,0.2996568 M,0,72516,73016,50.43623,262.3058 F,0,72816,73016,0.2996568,0 F,0,73016,73216,0,0.2996568 M,0,73016,73516,49.34637,223.4062 F,0,73316,73516,0.2996568,0 F,0,73516,73716,0,0.2996568 M,0,73516,74016,735.7724,402.2398 F,0,73816,74016,0.2996568,0 F,0,74016,74216,0,0.2996568 M,0,74016,74516,79.19979,455.3451 F,0,74316,74516,0.2996568,0 F,0,74516,74716,0,0.2996568 M,0,74516,75016,58.52652,189.3839 F,0,74816,75016,0.2996568,0 F,0,75016,75216,0,0.2996568 M,0,75016,75516,427.3622,116.4733 F,0,75316,75516,0.2996568,0 F,0,75516,75716,0,0.2996568 M,0,75516,76016,379.8979,4.917336 F,0,75816,76016,0.2996568,0 F,0,76016,76216,0,0.2996568 M,0,76016,76516,298.9932,140.6979 F,0,76316,76516,0.2996568,0 F,0,76516,76716,0,0.2996568 M,0,76516,77016,489.4138,387.8377 F,0,76816,77016,0.2996568,0 F,0,77016,77216,0,0.2996568 M,0,77016,77516,214.9342,29.11747 F,0,77316,77516,0.2996568,0 F,0,77516,77716,0,0.2996568 M,0,77516,78016,439.2094,269.8927 F,0,77816,78016,0.2996568,0 F,0,78016,78216,0,0.2996568 M,0,78016,78516,728.9128,365.9877 F,0,78316,78516,0.2996568,0 F,0,78516,78716,0,0.2996568 M,0,78516,79016,404.4097,218.3927 F,0,78816,79016,0.2996568,0 F,0,79016,79216,0,0.2996568 M,0,79016,79516,371.05,409.81 F,0,79316,79516,0.2996568,0 F,0,79516,79716,0,0.2996568 M,0,79516,80016,609.3424,7.165391 F,0,79816,80016,0.2996568,0
Sprite,Foreground,Centre,"sb\particle.png",320,240 F,0,59332,,0.2996568 S,0,59332,,0.3 C,0,59332,,104,149,155 F,0,59332,59532,0,0.2996568 M,0,59332,59832,590.6393,407.0648 P,0,59332,80032,A F,0,59632,59832,0.2996568,0 F,0,59849,60049,0,0.2996568 M,0,59849,60349,354.8391,156.2403 F,0,60149,60349,0.2996568,0 F,0,60365,60565,0,0.2996568 M,0,60365,60865,418.5589,398.6726 F,0,60665,60865,0.2996568,0 F,0,60882,61082,0,0.2996568 M,0,60882,61382,563.4286,246.7395 F,0,61182,61382,0.2996568,0 F,0,61399,61599,0,0.2996568 M,0,61399,61899,746.1511,292.2874 F,0,61699,61899,0.2996568,0 F,0,61915,62115,0,0.2996568 M,0,61915,62415,700.3605,408.8332 F,0,62215,62415,0.2996568,0 F,0,62432,62632,0,0.2996568 M,0,62432,62932,-7.705384,75.50367 F,0,62732,62932,0.2996568,0 F,0,62949,63149,0,0.2996568 M,0,62949,63449,462.4201,45.30778 F,0,63249,63449,0.2996568,0 F,0,63465,63665,0,0.2996568 M,0,63465,63965,478.3029,476.3575 F,0,63765,63965,0.2996568,0 F,0,63982,64182,0,0.2996568 M,0,63982,64482,314.5519,437.459 F,0,64282,64482,0.2996568,0 F,0,64499,64699,0,0.2996568 M,0,64499,64999,-15.40385,286.6317 F,0,64799,64999,0.2996568,0 F,0,65015,65215,0,0.2996568 M,0,65015,65515,584.3658,119.9841 F,0,65315,65515,0.2996568,0 F,0,65532,65732,0,0.2996568 M,0,65532,66032,93.65498,344.9585 F,0,65832,66032,0.2996568,0 F,0,66032,66232,0,0.2996568 M,0,66032,66532,599.3325,232.5308 F,0,66332,66532,0.2996568,0 F,0,66532,66732,0,0.2996568 M,0,66532,67032,535.7184,349.9464 F,0,66832,67032,0.2996568,0 F,0,67032,67232,0,0.2996568 M,0,67032,67532,20.06651,102.4408 F,0,67332,67532,0.2996568,0 F,0,67532,67732,0,0.2996568 M,0,67532,68032,373.2585,170.3555 F,0,67832,68032,0.2996568,0 F,0,68032,68232,0,0.2996568 M,0,68032,68532,160.3358,330.2582 F,0,68332,68532,0.2996568,0 F,0,68532,68732,0,0.2996568 M,0,68532,69032,248.3312,288.1348 F,0,68832,69032,0.2996568,0 F,0,69032,69232,0,0.2996568 M,0,69032,69532,255.5297,11.17067 F,0,69332,69532,0.2996568,0 F,0,69532,69732,0,0.2996568 M,0,69532,70032,311.4683,51.40612 F,0,69832,70032,0.2996568,0 F,0,70032,70232,0,0.2996568 M,0,70032,70532,-45.25306,171.1068 F,0,70332,70532,0.2996568,0 F,0,70532,70732,0,0.2996568 M,0,70532,71032,26.03665,120.2392 F,0,70832,71032,0.2996568,0 F,0,71032,71232,0,0.2996568 M,0,71032,71532,165.1883,154.8199 F,0,71332,71532,0.2996568,0 F,0,71532,71732,0,0.2996568 M,0,71532,72032,35.20591,73.45747 F,0,71832,72032,0.2996568,0 F,0,72032,72232,0,0.2996568 M,0,72032,72532,290.6939,171.4384 F,0,72332,72532,0.2996568,0 F,0,72532,72732,0,0.2996568 M,0,72532,73032,80.35656,418.1325 F,0,72832,73032,0.2996568,0 F,0,73032,73232,0,0.2996568 M,0,73032,73532,474.4634,349.7487 F,0,73332,73532,0.2996568,0 F,0,73532,73732,0,0.2996568 M,0,73532,74032,19.96464,29.34521 F,0,73832,74032,0.2996568,0 F,0,74032,74232,0,0.2996568 M,0,74032,74532,481.1535,114.1192 F,0,74332,74532,0.2996568,0 F,0,74532,74732,0,0.2996568 M,0,74532,75032,87.57607,321.3188 F,0,74832,75032,0.2996568,0 F,0,75032,75232,0,0.2996568 M,0,75032,75532,493.4428,296.4077 F,0,75332,75532,0.2996568,0 F,0,75532,75732,0,0.2996568 M,0,75532,76032,89.53316,144.1141 F,0,75832,76032,0.2996568,0 F,0,76032,76232,0,0.2996568 M,0,76032,76532,202.0915,254.3047 F,0,76332,76532,0.2996568,0 F,0,76532,76732,0,0.2996568 M,0,76532,77032,139.2607,380.1446 F,0,76832,77032,0.2996568,0 F,0,77032,77232,0,0.2996568 M,0,77032,77532,390.6806,330.2109 F,0,77332,77532,0.2996568,0 F,0,77532,77732,0,0.2996568 M,0,77532,78032,102.4575,391.612 F,0,77832,78032,0.2996568,0 F,0,78032,78232,0,0.2996568 M,0,78032,78532,83.27525,288.1117 F,0,78332,78532,0.2996568,0 F,0,78532,78732,0,0.2996568 M,0,78532,79032,264.8928,428.5291 F,0,78832,79032,0.2996568,0 F,0,79032,79232,0,0.2996568 M,0,79032,79532,415.2799,107.5552 F,0,79332,79532,0.2996568,0 F,0,79532,79732,0,0.2996568 M,0,79532,80032,-5.888046,392.0002 F,0,79832,80032,0.2996568,0
Sprite,Foreground,Centre,"sb\particle.png",320,240 F,0,59349,,0.2996568 S,0,59349,,0.3 C,0,59349,,104,149,155 F,0,59349,59549,0,0.2996568 M,0,59349,59849,740.0845,15.6601 P,0,59349,79549,A F,0,59649,59849,0.2996568,0 F,0,59865,60065,0,0.2996568 M,0,59865,60365,466.0653,224.8309 F,0,60165,60365,0.2996568,0 F,0,60382,60582,0,0.2996568 M,0,60382,60882,478.0981,273.4764 F,0,60682,60882,0.2996568,0 F,0,60899,61099,0,0.2996568 M,0,60899,61399,193.9355,476.0386 F,0,61199,61399,0.2996568,0 F,0,61415,61615,0,0.2996568 M,0,61415,61915,-30.39206,299.4436 F,0,61715,61915,0.2996568,0 F,0,61932,62132,0,0.2996568 M,0,61932,62432,658.2894,224.1125 F,0,62232,62432,0.2996568,0 F,0,62449,62649,0,0.2996568 M,0,62449,62949,555.2972,399.7917 F,0,62749,62949,0.2996568,0 F,0,62965,63165,0,0.2996568 M,0,62965,63465,740.7336,330.6563 F,0,63265,63465,0.2996568,0 F,0,63482,63682,0,0.2996568 M,0,63482,63982,493.5338,326.4409 F,0,63782,63982,0.2996568,0 F,0,63999,64199,0,0.2996568 M,0,63999,64499,638.4193,308.1301 F,0,64299,64499,0.2996568,0 F,0,64515,64715,0,0.2996568 M,0,64515,65015,635.3309,60.27832 F,0,64815,65015,0.2996568,0 F,0,65032,65232,0,0.2996568 M,0,65032,65532,121.406,342.0051 F,0,65332,65532,0.2996568,0 F,0,65549,65749,0,0.2996568 M,0,65549,66049,546.5522,227.9883 F,0,65849,66049,0.2996568,0 F,0,66049,66249,0,0.2996568 M,0,66049,66549,381.4037,7.775058 F,0,66349,66549,0.2996568,0 F,0,66549,66749,0,0.2996568 M,0,66549,67049,397.6557,107.5771 F,0,66849,67049,0.2996568,0 F,0,67049,67249,0,0.2996568 M,0,67049,67549,497.5108,43.7061 F,0,67349,67549,0.2996568,0 F,0,67549,67749,0,0.2996568 M,0,67549,68049,449.7403,430.5999 F,0,67849,68049,0.2996568,0 F,0,68049,68249,0,0.2996568 M,0,68049,68549,-37.05558,156.1794 F,0,68349,68549,0.2996568,0 F,0,68549,68749,0,0.2996568 M,0,68549,69049,615.2427,202.2451 F,0,68849,69049,0.2996568,0 F,0,69049,69249,0,0.2996568 M,0,69049,69549,31.59436,168.9119 F,0,69349,69549,0.2996568,0 F,0,69549,69749,0,0.2996568 M,0,69549,70049,528.9136,84.72594 F,0,69849,70049,0.2996568,0 F,0,70049,70249,0,0.2996568 M,0,70049,70549,-100.0147,219.106 F,0,70349,70549,0.2996568,0 F,0,70549,70749,0,0.2996568 M,0,70549,71049,49.0024,250.3279 F,0,70849,71049,0.2996568,0 F,0,71049,71249,0,0.2996568 M,0,71049,71549,745.3658,134.2151 F,0,71349,71549,0.2996568,0 F,0,71549,71749,0,0.2996568 M,0,71549,72049,161.4363,477.9064 F,0,71849,72049,0.2996568,0 F,0,72049,72249,0,0.2996568 M,0,72049,72549,168.4545,450.9895 F,0,72349,72549,0.2996568,0 F,0,72549,72749,0,0.2996568 M,0,72549,73049,673.9209,40.58086 F,0,72849,73049,0.2996568,0 F,0,73049,73249,0,0.2996568 M,0,73049,73549,2.357511,69.92716 F,0,73349,73549,0.2996568,0 F,0,73549,73749,0,0.2996568 M,0,73549,74049,-66.39647,214.2954 F,0,73849,74049,0.2996568,0 F,0,74049,74249,0,0.2996568 M,0,74049,74549,524.3586,304.8539 F,0,74349,74549,0.2996568,0 F,0,74549,74749,0,0.2996568 M,0,74549,75049,738.5032,395.036 F,0,74849,75049,0.2996568,0 F,0,75049,75249,0,0.2996568 M,0,75049,75549,715.829,361.3602 F,0,75349,75549,0.2996568,0 F,0,75549,75749,0,0.2996568 M,0,75549,76049,30.74739,342.4921 F,0,75849,76049,0.2996568,0 F,0,76049,76249,0,0.2996568 M,0,76049,76549,-29.28185,315.2284 F,0,76349,76549,0.2996568,0 F,0,76549,76749,0,0.2996568 M,0,76549,77049,276.4753,48.45028 F,0,76849,77049,0.2996568,0 F,0,77049,77249,0,0.2996568 M,0,77049,77549,203.3377,321.2705 F,0,77349,77549,0.2996568,0 F,0,77549,77749,0,0.2996568 M,0,77549,78049,595.2324,144.7951 F,0,77849,78049,0.2996568,0 F,0,78049,78249,0,0.2996568 M,0,78049,78549,348.0428,9.242052 F,0,78349,78549,0.2996568,0 F,0,78549,78749,0,0.2996568 M,0,78549,79049,358.5254,107.5199 F,0,78849,79049,0.2996568,0 F,0,79049,79249,0,0.2996568 M,0,79049,79549,317.786,268.2887 F,0,79349,79549,0.2996568,0
Sprite,Foreground,Centre,"sb\particle.png",320,240 F,0,59365,,0.2996568 S,0,59365,,0.3 C,0,59365,,104,149,155 F,0,59365,59565,0,0.2996568 M,0,59365,59865,490.7505,252.6164 P,0,59365,79566,A F,0,59665,59865,0.2996568,0 F,0,59882,60082,0,0.2996568 M,0,59882,60382,604.8063,388.4178 F,0,60182,60382,0.2996568,0 F,0,60399,60599,0,0.2996568 M,0,60399,60899,40.54355,88.57573 F,0,60699,60899,0.2996568,0 F,0,60915,61115,0,0.2996568 M,0,60915,61415,-78.43963,332.0292 F,0,61215,61415,0.2996568,0 F,0,61432,61632,0,0.2996568 M,0,61432,61932,739.0159,419.1187 F,0,61732,61932,0.2996568,0 F,0,61949,62149,0,0.2996568 M,0,61949,62449,614.0661,170.975 F,0,62249,62449,0.2996568,0 F,0,62465,62665,0,0.2996568 M,0,62465,62965,537.6061,115.3422 F,0,62765,62965,0.2996568,0 F,0,62982,63182,0,0.2996568 M,0,62982,63482,-63.01517,423.5655 F,0,63282,63482,0.2996568,0 F,0,63499,63699,0,0.2996568 M,0,63499,63999,427.9878,28.38782 F,0,63799,63999,0.2996568,0 F,0,64015,64215,0,0.2996568 M,0,64015,64515,504.4476,454.6009 F,0,64315,64515,0.2996568,0 F,0,64532,64732,0,0.2996568 M,0,64532,65032,736.8321,107.9661 F,0,64832,65032,0.2996568,0 F,0,65049,65249,0,0.2996568 M,0,65049,65549,365.9834,328.7144 F,0,65349,65549,0.2996568,0 F,0,65565,65765,0,0.2996568 M,0,65565,66065,150.7232,289.4936 F,0,65865,66065,0.2996568,0 F,0,66065,66265,0,0.2996568 M,0,66065,66565,415.71,416.9029 F,0,66365,66565,0.2996568,0 F,0,66565,66765,0,0.2996568 M,0,66565,67065,-2.054921,198.0448 F,0,66865,67065,0.2996568,0 F,0,67065,67265,0,0.2996568 M,0,67065,67565,504.4773,415.1683 F,0,67365,67565,0.2996568,0 F,0,67565,67765,0,0.2996568 M,0,67565,68065,458.4177,376.8167 F,0,67865,68065,0.2996568,0 F,0,68065,68265,0,0.2996568 M,0,68065,68565,253.3047,366.5382 F,0,68365,68565,0.2996568,0 F,0,68565,68765,0,0.2996568 M,0,68565,69065,596.2617,177.385 F,0,68865,69065,0.2996568,0 F,0,69066,69266,0,0.2996568 M,0,69066,69566,442.3622,365.39 F,0,69366,69566,0.2996568,0 F,0,69566,69766,0,0.2996568 M,0,69566,70066,58.02402,448.4392 F,0,69866,70066,0.2996568,0 F,0,70066,70266,0,0.2996568 M,0,70066,70566,39.64143,243.1583 F,0,70366,70566,0.2996568,0 F,0,70566,70766,0,0.2996568 M,0,70566,71066,181.3437,299.8333 F,0,70866,71066,0.2996568,0 F,0,71066,71266,0,0.2996568 M,0,71066,71566,492.1198,168.4972 F,0,71366,71566,0.2996568,0 F,0,71566,71766,0,0.2996568 M,0,71566,72066,639.64,146.1879 F,0,71866,72066,0.2996568,0 F,0,72066,72266,0,0.2996568 M,0,72066,72566,729.3389,88.7599 F,0,72366,72566,0.2996568,0 F,0,72566,72766,0,0.2996568 M,0,72566,73066,-47.87358,157.3351 F,0,72866,73066,0.2996568,0 F,0,73066,73266,0,0.2996568 M,0,73066,73566,554.8348,142.7761 F,0,73366,73566,0.2996568,0 F,0,73566,73766,0,0.2996568 M,0,73566,74066,336.7679,424.1398 F,0,73866,74066,0.2996568,0 F,0,74066,74266,0,0.2996568 M,0,74066,74566,740.1994,189.0172 F,0,74366,74566,0.2996568,0 F,0,74566,74766,0,0.2996568 M,0,74566,75066,429.3806,427.7953 F,0,74866,75066,0.2996568,0 F,0,75066,75266,0,0.2996568 M,0,75066,75566,462.752,98.13155 F,0,75366,75566,0.2996568,0 F,0,75566,75766,0,0.2996568 M,0,75566,76066,195.9781,104.8201 F,0,75866,76066,0.2996568,0 F,0,76066,76266,0,0.2996568 M,0,76066,76566,479.9829,346.5555 F,0,76366,76566,0.2996568,0 F,0,76566,76766,0,0.2996568 M,0,76566,77066,691.8906,222.4082 F,0,76866,77066,0.2996568,0 F,0,77066,77266,0,0.2996568 M,0,77066,77566,736.6387,441.5443 F,0,77366,77566,0.2996568,0 F,0,77566,77766,0,0.2996568 M,0,77566,78066,567.4444,248.7402 F,0,77866,78066,0.2996568,0 F,0,78066,78266,0,0.2996568 M,0,78066,78566,-65.52503,35.02596 F,0,78366,78566,0.2996568,0 F,0,78566,78766,0,0.2996568 M,0,78566,79066,491.0284,37.04544 F,0,78866,79066,0.2996568,0 F,0,79066,79266,0,0.2996568 M,0,79066,79566,236.4576,393.0084 F,0,79366,79566,0.2996568,0
Sprite,Foreground,Centre,"sb\particle.png",320,240 F,0,59382,,0.2996568 S,0,59382,,0.3 C,0,59382,,104,149,155 F,0,59382,59582,0,0.2996568 M,0,59382,59882,690.6519,330.0577 P,0,59382,79582,A F,0,59682,59882,0.2996568,0 F,0,59899,60099,0,0.2996568 M,0,59899,60399,570.7603,366.9629 F,0,60199,60399,0.2996568,0 F,0,60415,60615,0,0.2996568 M,0,60415,60915,413.1807,120.3592 F,0,60715,60915,0.2996568,0 F,0,60932,61132,0,0.2996568 M,0,60932,61432,-3.507074,93.55717 F,0,61232,61432,0.2996568,0 F,0,61449,61649,0,0.2996568 M,0,61449,61949,353.7705,66.06688 F,0,61749,61949,0.2996568,0 F,0,61965,62165,0,0.2996568 M,0,61965,62465,364.2183,146.0599 F,0,62265,62465,0.2996568,0 F,0,62482,62682,0,0.2996568 M,0,62482,62982,42.61781,59.33934 F,0,62782,62982,0.2996568,0 F,0,62999,63199,0,0.2996568 M,0,62999,63499,491.441,161.9672 F,0,63299,63499,0.2996568,0 F,0,63515,63715,0,0.2996568 M,0,63515,64015,441.1502,314.9657 F,0,63815,64015,0.2996568,0 F,0,64032,64232,0,0.2996568 M,0,64032,64532,-16.96926,443.9547 F,0,64332,64532,0.2996568,0 F,0,64549,64749,0,0.2996568 M,0,64549,65049,699.1046,396.2838 F,0,64849,65049,0.2996568,0 F,0,65065,65265,0,0.2996568 M,0,65065,65565,27.86413,433.4667 F,0,65365,65565,0.2996568,0 F,0,65582,65782,0,0.2996568 M,0,65582,66082,497.6668,389.8455 F,0,65882,66082,0.2996568,0 F,0,66082,66282,0,0.2996568 M,0,66082,66582,443.0663,145.943 F,0,66382,66582,0.2996568,0 F,0,66582,66782,0,0.2996568 M,0,66582,67082,287.5829,159.2164 F,0,66882,67082,0.2996568,0 F,0,67082,67282,0,0.2996568 M,0,67082,67582,644.3197,353.1479 F,0,67382,67582,0.2996568,0 F,0,67582,67782,0,0.2996568 M,0,67582,68082,27.70568,350.6081 F,0,67882,68082,0.2996568,0 F,0,68082,68282,0,0.2996568 M,0,68082,68582,126.2479,426.9559 F,0,68382,68582,0.2996568,0 F,0,68582,68782,0,0.2996568 M,0,68582,69082,470.8009,175.3297 F,0,68882,69082,0.2996568,0 F,0,69082,69282,0,0.2996568 M,0,69082,69582,264.5548,303.7709 F,0,69382,69582,0.2996568,0 F,0,69582,69782,0,0.2996568 M,0,69582,70082,494.1785,302.4791 F,0,69882,70082,0.2996568,0 F,0,70082,70282,0,0.2996568 M,0,70082,70582,593.222,37.79517 F,0,70382,70582,0.2996568,0 F,0,70582,70782,0,0.2996568 M,0,70582,71082,351.6411,4.02702 F,0,70882,71082,0.2996568,0 F,0,71082,71282,0,0.2996568 M,0,71082,71582,744.4438,204.7364 F,0,71382,71582,0.2996568,0 F,0,71582,71782,0,0.2996568 M,0,71582,72082,145.0105,27.16441 F,0,71882,72082,0.2996568,0 F,0,72082,72282,0,0.2996568 M,0,72082,72582,450.9524,57.28024 F,0,72382,72582,0.2996568,0 F,0,72582,72782,0,0.2996568 M,0,72582,73082,379.7467,99.32677 F,0,72882,73082,0.2996568,0 F,0,73082,73282,0,0.2996568 M,0,73082,73582,630.8784,471.7931 F,0,73382,73582,0.2996568,0 F,0,73582,73782,0,0.2996568 M,0,73582,74082,121.0549,21.93474 F,0,73882,74082,0.2996568,0 F,0,74082,74282,0,0.2996568 M,0,74082,74582,550.1124,96.74224 F,0,74382,74582,0.2996568,0 F,0,74582,74782,0,0.2996568 M,0,74582,75082,61.81683,334.3045 F,0,74882,75082,0.2996568,0 F,0,75082,75282,0,0.2996568 M,0,75082,75582,587.9809,366.5391 F,0,75382,75582,0.2996568,0 F,0,75582,75782,0,0.2996568 M,0,75582,76082,471.6876,140.8154 F,0,75882,76082,0.2996568,0 F,0,76082,76282,0,0.2996568 M,0,76082,76582,153.9043,292.1974 F,0,76382,76582,0.2996568,0 F,0,76582,76782,0,0.2996568 M,0,76582,77082,-42.6967,36.84501 F,0,76882,77082,0.2996568,0 F,0,77082,77282,0,0.2996568 M,0,77082,77582,26.40058,364.3451 F,0,77382,77582,0.2996568,0 F,0,77582,77782,0,0.2996568 M,0,77582,78082,6.147791,38.70989 F,0,77882,78082,0.2996568,0 F,0,78082,78282,0,0.2996568 M,0,78082,78582,267.0937,438.2014 F,0,78382,78582,0.2996568,0 F,0,78582,78782,0,0.2996568 M,0,78582,79082,422.9952,476.4035 F,0,78882,79082,0.2996568,0 F,0,79082,79282,0,0.2996568 M,0,79082,79582,702.6844,186.2696 F,0,79382,79582,0.2996568,0
Sprite,Foreground,Centre,"sb\particle.png",320,240 F,0,59399,,0.2996568 S,0,59399,,0.3 C,0,59399,,104,149,155 F,0,59399,59599,0,0.2996568 M,0,59399,59899,359.9804,38.93278 P,0,59399,79599,A F,0,59699,59899,0.2996568,0 F,0,59915,60115,0,0.2996568 M,0,59915,60415,693.6595,141.5985 F,0,60215,60415,0.2996568,0 F,0,60432,60632,0,0.2996568 M,0,60432,60932,744.536,272.9709 F,0,60732,60932,0.2996568,0 F,0,60949,61149,0,0.2996568 M,0,60949,61449,317.0254,279.0189 F,0,61249,61449,0.2996568,0 F,0,61465,61665,0,0.2996568 M,0,61465,61965,-105.2941,267.5834 F,0,61765,61965,0.2996568,0 F,0,61982,62182,0,0.2996568 M,0,61982,62482,250.6147,187.6679 F,0,62282,62482,0.2996568,0 F,0,62499,62699,0,0.2996568 M,0,62499,62999,46.47664,277.4249 F,0,62799,62999,0.2996568,0 F,0,63015,63215,0,0.2996568 M,0,63015,63515,589.7882,451.1915 F,0,63315,63515,0.2996568,0 F,0,63532,63732,0,0.2996568 M,0,63532,64032,689.1985,153.9933 F,0,63832,64032,0.2996568,0 F,0,64049,64249,0,0.2996568 M,0,64049,64549,-89.90281,394.7567 F,0,64349,64549,0.2996568,0 F,0,64565,64765,0,0.2996568 M,0,64565,65065,376.7609,20.96272 F,0,64865,65065,0.2996568,0 F,0,65082,65282,0,0.2996568 M,0,65082,65582,49.25296,423.2839 F,0,65382,65582,0.2996568,0 F,0,65599,65799,0,0.2996568 M,0,65599,66099,114.7094,384.9654 F,0,65899,66099,0.2996568,0 F,0,66099,66299,0,0.2996568 M,0,66099,66599,182.1864,433.5781 F,0,66399,66599,0.2996568,0 F,0,66599,66799,0,0.2996568 M,0,66599,67099,-106.7408,336.1761 F,0,66899,67099,0.2996568,0 F,0,67099,67299,0,0.2996568 M,0,67099,67599,255.4067,452.1967 F,0,67399,67599,0.2996568,0 F,0,67599,67799,0,0.2996568 M,0,67599,68099,649.0226,124.1116 F,0,67899,68099,0.2996568,0 F,0,68099,68299,0,0.2996568 M,0,68099,68599,466.6617,259.8016 F,0,68399,68599,0.2996568,0 F,0,68599,68799,0,0.2996568 M,0,68599,69099,240.4887,374.1219 F,0,68899,69099,0.2996568,0 F,0,69099,69299,0,0.2996568 M,0,69099,69599,497.2121,429.0398 F,0,69399,69599,0.2996568,0 F,0,69599,69799,0,0.2996568 M,0,69599,70099,689.8378,37.16566 F,0,69899,70099,0.2996568,0 F,0,70099,70299,0,0.2996568 M,0,70099,70599,310.7222,285.1664 F,0,70399,70599,0.2996568,0 F,0,70599,70799,0,0.2996568 M,0,70599,71099,276.6606,371.1656 F,0,70899,71099,0.2996568,0 F,0,71099,71299,0,0.2996568 M,0,71099,71599,507.4919,185.302 F,0,71399,71599,0.2996568,0 F,0,71599,71799,0,0.2996568 M,0,71599,72099,692.9376,364.6884 F,0,71899,72099,0.2996568,0 F,0,72099,72299,0,0.2996568 M,0,72099,72599,740.4548,173.9894 F,0,72399,72599,0.2996568,0 F,0,72599,72799,0,0.2996568 M,0,72599,73099,128.5845,8.862351 F,0,72899,73099,0.2996568,0 F,0,73099,73299,0,0.2996568 M,0,73099,73599,246.3323,430.4866 F,0,73399,73599,0.2996568,0 F,0,73599,73799,0,0.2996568 M,0,73599,74099,235.2346,170.955 F,0,73899,74099,0.2996568,0 F,0,74099,74299,0,0.2996568 M,0,74099,74599,82.23106,109.1886 F,0,74399,74599,0.2996568,0 F,0,74599,74799,0,0.2996568 M,0,74599,75099,621.5656,102.5425 F,0,74899,75099,0.2996568,0 F,0,75099,75299,0,0.2996568 M,0,75099,75599,-7.780226,14.25324 F,0,75399,75599,0.2996568,0 F,0,75599,75799,0,0.2996568 M,0,75599,76099,404.1893,91.45776 F,0,75899,76099,0.2996568,0 F,0,76099,76299,0,0.2996568 M,0,76099,76599,300.4395,11.73441 F,0,76399,76599,0.2996568,0 F,0,76599,76799,0,0.2996568 M,0,76599,77099,466.5091,85.08501 F,0,76899,77099,0.2996568,0 F,0,77099,77299,0,0.2996568 M,0,77099,77599,205.0418,315.5795 F,0,77399,77599,0.2996568,0 F,0,77599,77799,0,0.2996568 M,0,77599,78099,618.5437,446.3076 F,0,77899,78099,0.2996568,0 F,0,78099,78299,0,0.2996568 M,0,78099,78599,421.7332,226.7936 F,0,78399,78599,0.2996568,0 F,0,78599,78799,0,0.2996568 M,0,78599,79099,413.2433,148.9941 F,0,78899,79099,0.2996568,0 F,0,79099,79299,0,0.2996568 M,0,79099,79599,296.6697,111.9031 F,0,79399,79599,0.2996568,0
Sprite,Foreground,Centre,"sb\particle.png",320,240 F,0,59415,,0.2996568 S,0,59415,,0.3 C,0,59415,,104,149,155 F,0,59415,59615,0,0.2996568 M,0,59415,59915,52.80439,217.597 P,0,59415,79616,A F,0,59715,59915,0.2996568,0 F,0,59932,60132,0,0.2996568 M,0,59932,60432,339.4586,318.4286 F,0,60232,60432,0.2996568,0 F,0,60449,60649,0,0.2996568 M,0,60449,60949,-52.8251,126.5682 F,0,60749,60949,0.2996568,0 F,0,60965,61165,0,0.2996568 M,0,60965,61465,116.4614,148.9743 F,0,61265,61465,0.2996568,0 F,0,61482,61682,0,0.2996568 M,0,61482,61982,467.0524,182.0336 F,0,61782,61982,0.2996568,0 F,0,61999,62199,0,0.2996568 M,0,61999,62499,253.2096,318.1813 F,0,62299,62499,0.2996568,0 F,0,62515,62715,0,0.2996568 M,0,62515,63015,515.6141,398.1617 F,0,62815,63015,0.2996568,0 F,0,63032,63232,0,0.2996568 M,0,63032,63532,336.2097,88.46218 F,0,63332,63532,0.2996568,0 F,0,63549,63749,0,0.2996568 M,0,63549,64049,-14.76783,379.6661 F,0,63849,64049,0.2996568,0 F,0,64065,64265,0,0.2996568 M,0,64065,64565,10.26618,253.3723 F,0,64365,64565,0.2996568,0 F,0,64582,64782,0,0.2996568 M,0,64582,65082,436.2729,44.87439 F,0,64882,65082,0.2996568,0 F,0,65099,65299,0,0.2996568 M,0,65099,65599,375.442,455.4235 F,0,65399,65599,0.2996568,0 F,0,65615,65815,0,0.2996568 M,0,65615,66115,120.265,238.353 F,0,65915,66115,0.2996568,0 F,0,66115,66315,0,0.2996568 M,0,66115,66615,258.1941,0.1494974 F,0,66415,66615,0.2996568,0 F,0,66615,66815,0,0.2996568 M,0,66615,67115,140.7647,252.5486 F,0,66915,67115,0.2996568,0 F,0,67115,67315,0,0.2996568 M,0,67115,67615,-77.45847,22.0727 F,0,67415,67615,0.2996568,0 F,0,67615,67815,0,0.2996568 M,0,67615,68115,54.93422,420.4831 F,0,67915,68115,0.2996568,0 F,0,68115,68315,0,0.2996568 M,0,68115,68615,128.4004,409.1538 F,0,68415,68615,0.2996568,0 F,0,68615,68815,0,0.2996568 M,0,68615,69115,594.2639,85.59183 F,0,68915,69115,0.2996568,0 F,0,69116,69316,0,0.2996568 M,0,69116,69616,-101.7629,321.6257 F,0,69416,69616,0.2996568,0 F,0,69616,69816,0,0.2996568 M,0,69616,70116,654.9965,361.6466 F,0,69916,70116,0.2996568,0 F,0,70116,70316,0,0.2996568 M,0,70116,70616,548.2834,160.4893 F,0,70416,70616,0.2996568,0 F,0,70616,70816,0,0.2996568 M,0,70616,71116,703.3518,46.70499 F,0,70916,71116,0.2996568,0 F,0,71116,71316,0,0.2996568 M,0,71116,71616,575.6219,122.4354 F,0,71416,71616,0.2996568,0 F,0,71616,71816,0,0.2996568 M,0,71616,72116,306.3465,8.951297 F,0,71916,72116,0.2996568,0 F,0,72116,72316,0,0.2996568 M,0,72116,72616,435.6231,233.3043 F,0,72416,72616,0.2996568,0 F,0,72616,72816,0,0.2996568 M,0,72616,73116,189.5291,408.9269 F,0,72916,73116,0.2996568,0 F,0,73116,73316,0,0.2996568 M,0,73116,73616,373.2559,351.5226 F,0,73416,73616,0.2996568,0 F,0,73616,73816,0,0.2996568 M,0,73616,74116,742.0999,449.5326 F,0,73916,74116,0.2996568,0 F,0,74116,74316,0,0.2996568 M,0,74116,74616,426.7369,273.5053 F,0,74416,74616,0.2996568,0 F,0,74616,74816,0,0.2996568 M,0,74616,75116,304.2164,400.5266 F,0,74916,75116,0.2996568,0 F,0,75116,75316,0,0.2996568 M,0,75116,75616,553.8543,297.9677 F,0,75416,75616,0.2996568,0 F,0,75616,75816,0,0.2996568 M,0,75616,76116,119.7786,241.5921 F,0,75916,76116,0.2996568,0 F,0,76116,76316,0,0.2996568 M,0,76116,76616,413.4931,173.3517 F,0,76416,76616,0.2996568,0 F,0,76616,76816,0,0.2996568 M,0,76616,77116,54.67324,412.2917 F,0,76916,77116,0.2996568,0 F,0,77116,77316,0,0.2996568 M,0,77116,77616,233.8159,53.28337 F,0,77416,77616,0.2996568,0 F,0,77616,77816,0,0.2996568 M,0,77616,78116,677.4286,218.2589 F,0,77916,78116,0.2996568,0 F,0,78116,78316,0,0.2996568 M,0,78116,78616,681.9531,460.4679 F,0,78416,78616,0.2996568,0 F,0,78616,78816,0,0.2996568 M,0,78616,79116,373.4625,340.1195 F,0,78916,79116,0.2996568,0 F,0,79116,79316,0,0.2996568 M,0,79116,79616,479.0753,211.3935 F,0,79416,79616,0.2996568,0
Sprite,Foreground,Centre,"sb\particle.png",320,240 F,0,59432,,0.2996568 S,0,59432,,0.3 C,0,59432,,104,149,155 F,0,59432,59632,0,0.2996568 M,0,59432,59932,146.7848,474.501 P,0,59432,79632,A F,0,59732,59932,0.2996568,0 F,0,59949,60149,0,0.2996568 M,0,59949,60449,177.031,137.6268 F,0,60249,60449,0.2996568,0 F,0,60465,60665,0,0.2996568 M,0,60465,60965,612.5463,272.6813 F,0,60765,60965,0.2996568,0 F,0,60982,61182,0,0.2996568 M,0,60982,61482,99.78419,376.3564 F,0,61282,61482,0.2996568,0 F,0,61499,61699,0,0.2996568 M,0,61499,61999,632.7073,156.0139 F,0,61799,61999,0.2996568,0 F,0,62015,62215,0,0.2996568 M,0,62015,62515,405.852,447.3587 F,0,62315,62515,0.2996568,0 F,0,62532,62732,0,0.2996568 M,0,62532,63032,88.30461,192.3307 F,0,62832,63032,0.2996568,0 F,0,63049,63249,0,0.2996568 M,0,63049,63549,328.7081,184.6469 F,0,63349,63549,0.2996568,0 F,0,63565,63765,0,0.2996568 M,0,63565,64065,667.2474,35.7021 F,0,63865,64065,0.2996568,0 F,0,64082,64282,0,0.2996568 M,0,64082,64582,292.1588,163.341 F,0,64382,64582,0.2996568,0 F,0,64599,64799,0,0.2996568 M,0,64599,65099,343.1681,105.1631 F,0,64899,65099,0.2996568,0 F,0,65115,65315,0,0.2996568 M,0,65115,65615,321.7593,59.65796 F,0,65415,65615,0.2996568,0 F,0,65632,65832,0,0.2996568 M,0,65632,66132,335.4243,117.9779 F,0,65932,66132,0.2996568,0 F,0,66132,66332,0,0.2996568 M,0,66132,66632,720.9202,402.1211 F,0,66432,66632,0.2996568,0 F,0,66632,66832,0,0.2996568 M,0,66632,67132,142.5697,15.43713 F,0,66932,67132,0.2996568,0 F,0,67132,67332,0,0.2996568 M,0,67132,67632,556.9335,23.62917 F,0,67432,67632,0.2996568,0 F,0,67632,67832,0,0.2996568 M,0,67632,68132,261.804,122.5488 F,0,67932,68132,0.2996568,0 F,0,68132,68332,0,0.2996568 M,0,68132,68632,434.5081,396.0898 F,0,68432,68632,0.2996568,0 F,0,68632,68832,0,0.2996568 M,0,68632,69132,268.9158,268.9479 F,0,68932,69132,0.2996568,0 F,0,69132,69332,0,0.2996568 M,0,69132,69632,243.9432,139.1346 F,0,69432,69632,0.2996568,0 F,0,69632,69832,0,0.2996568 M,0,69632,70132,278.4142,83.70511 F,0,69932,70132,0.2996568,0 F,0,70132,70332,0,0.2996568 M,0,70132,70632,-59.23,415.1036 F,0,70432,70632,0.2996568,0 F,0,70632,70832,0,0.2996568 M,0,70632,71132,-67.40364,200.8913 F,0,70932,71132,0.2996568,0 F,0,71132,71332,0,0.2996568 M,0,71132,71632,332.5263,175.1147 F,0,71432,71632,0.2996568,0 F,0,71632,71832,0,0.2996568 M,0,71632,72132,444.5611,446.7073 F,0,71932,72132,0.2996568,0 F,0,72132,72332,0,0.2996568 M,0,72132,72632,-89.26673,363.8871 F,0,72432,72632,0.2996568,0 F,0,72632,72832,0,0.2996568 M,0,72632,73132,199.3424,100.9696 F,0,72932,73132,0.2996568,0 F,0,73132,73332,0,0.2996568 M,0,73132,73632,357.9575,312.3253 F,0,73432,73632,0.2996568,0 F,0,73632,73832,0,0.2996568 M,0,73632,74132,-42.00139,417.782 F,0,73932,74132,0.2996568,0 F,0,74132,74332,0,0.2996568 M,0,74132,74632,351.747,29.10224 F,0,74432,74632,0.2996568,0 F,0,74632,74832,0,0.2996568 M,0,74632,75132,228.1696,458.2257 F,0,74932,75132,0.2996568,0 F,0,75132,75332,0,0.2996568 M,0,75132,75632,41.97953,310.248 F,0,75432,75632,0.2996568,0 F,0,75632,75832,0,0.2996568 M,0,75632,76132,607.7115,367.4382 F,0,75932,76132,0.2996568,0 F,0,76132,76332,0,0.2996568 M,0,76132,76632,574.4571,54.15009 F,0,76432,76632,0.2996568,0 F,0,76632,76832,0,0.2996568 M,0,76632,77132,277.6255,134.8654 F,0,76932,77132,0.2996568,0 F,0,77132,77332,0,0.2996568 M,0,77132,77632,386.6945,175.9967 F,0,77432,77632,0.2996568,0 F,0,77632,77832,0,0.2996568 M,0,77632,78132,408.0634,390.2649 F,0,77932,78132,0.2996568,0 F,0,78132,78332,0,0.2996568 M,0,78132,78632,285.9475,172.4408 F,0,78432,78632,0.2996568,0 F,0,78632,78832,0,0.2996568 M,0,78632,79132,344.0488,238.0703 F,0,78932,79132,0.2996568,0 F,0,79132,79332,0,0.2996568 M,0,79132,79632,507.663,452.4352 F,0,79432,79632,0.2996568,0
Sprite,Foreground,Centre,"sb\particle.png",320,240 F,0,59449,,0.2996568 S,0,59449,,0.3 C,0,59449,,104,149,155 F,0,59449,59649,0,0.2996568 M,0,59449,59949,441.8636,366.2225 P,0,59449,79649,A F,0,59749,59949,0.2996568,0 F,0,59965,60165,0,0.2996568 M,0,59965,60465,593.801,106.8086 F,0,60265,60465,0.2996568,0 F,0,60482,60682,0,0.2996568 M,0,60482,60982,444.6756,247.8557 F,0,60782,60982,0.2996568,0 F,0,60999,61199,0,0.2996568 M,0,60999,61499,6.633214,294.0018 F,0,61299,61499,0.2996568,0 F,0,61515,61715,0,0.2996568 M,0,61515,62015,564.7862,249.5808 F,0,61815,62015,0.2996568,0 F,0,62032,62232,0,0.2996568 M,0,62032,62532,672.327,143.5684 F,0,62332,62532,0.2996568,0 F,0,62549,62749,0,0.2996568 M,0,62549,63049,-68.92175,134.4099 F,0,62849,63049,0.2996568,0 F,0,63065,63265,0,0.2996568 M,0,63065,63565,215.2088,250.047 F,0,63365,63565,0.2996568,0 F,0,63582,63782,0,0.2996568 M,0,63582,64082,37.022,444.6367 F,0,63882,64082,0.2996568,0 F,0,64099,64299,0,0.2996568 M,0,64099,64599,333.7167,302.3835 F,0,64399,64599,0.2996568,0 F,0,64615,64815,0,0.2996568 M,0,64615,65115,677.0718,132.1578 F,0,64915,65115,0.2996568,0 F,0,65132,65332,0,0.2996568 M,0,65132,65632,569.2564,58.16247 F,0,65432,65632,0.2996568,0 F,0,65649,65849,0,0.2996568 M,0,65649,66149,235.258,281.4952 F,0,65949,66149,0.2996568,0 F,0,66149,66349,0,0.2996568 M,0,66149,66649,522.7655,95.95288 F,0,66449,66649,0.2996568,0 F,0,66649,66849,0,0.2996568 M,0,66649,67149,94.5929,222.2206 F,0,66949,67149,0.2996568,0 F,0,67149,67349,0,0.2996568 M,0,67149,67649,-9.971881,120.2828 F,0,67449,67649,0.2996568,0 F,0,67649,67849,0,0.2996568 M,0,67649,68149,-24.1895,466.5464 F,0,67949,68149,0.2996568,0 F,0,68149,68349,0,0.2996568 M,0,68149,68649,281.9847,355.6553 F,0,68449,68649,0.2996568,0 F,0,68649,68849,0,0.2996568 M,0,68649,69149,743.9431,306.0482 F,0,68949,69149,0.2996568,0 F,0,69149,69349,0,0.2996568 M,0,69149,69649,643.8367,319.4371 F,0,69449,69649,0.2996568,0 F,0,69649,69849,0,0.2996568 M,0,69649,70149,34.5344,9.589318 F,0,69949,70149,0.2996568,0 F,0,70149,70349,0,0.2996568 M,0,70149,70649,155.0493,34.43997 F,0,70449,70649,0.2996568,0 F,0,70649,70849,0,0.2996568 M,0,70649,71149,436.2173,473.0116 F,0,70949,71149,0.2996568,0 F,0,71149,71349,0,0.2996568 M,0,71149,71649,401.0913,394.8934 F,0,71449,71649,0.2996568,0 F,0,71649,71849,0,0.2996568 M,0,71649,72149,427.7382,398.4251 F,0,71949,72149,0.2996568,0 F,0,72149,72349,0,0.2996568 M,0,72149,72649,-41.18361,422.1475 F,0,72449,72649,0.2996568,0 F,0,72649,72849,0,0.2996568 M,0,72649,73149,635.0814,188.5243 F,0,72949,73149,0.2996568,0 F,0,73149,73349,0,0.2996568 M,0,73149,73649,587.6649,473.3337 F,0,73449,73649,0.2996568,0 F,0,73649,73849,0,0.2996568 M,0,73649,74149,283.0283,444.1251 F,0,73949,74149,0.2996568,0 F,0,74149,74349,0,0.2996568 M,0,74149,74649,702.4637,220.1168 F,0,74449,74649,0.2996568,0 F,0,74649,74849,0,0.2996568 M,0,74649,75149,228.7711,149.9231 F,0,74949,75149,0.2996568,0 F,0,75149,75349,0,0.2996568 M,0,75149,75649,3.920724,400.8187 F,0,75449,75649,0.2996568,0 F,0,75649,75849,0,0.2996568 M,0,75649,76149,129.8136,242.9063 F,0,75949,76149,0.2996568,0 F,0,76149,76349,0,0.2996568 M,0,76149,76649,120.7315,249.6261 F,0,76449,76649,0.2996568,0 F,0,76649,76849,0,0.2996568 M,0,76649,77149,81.9029,56.48086 F,0,76949,77149,0.2996568,0 F,0,77149,77349,0,0.2996568 M,0,77149,77649,566.7458,146.0578 F,0,77449,77649,0.2996568,0 F,0,77649,77849,0,0.2996568 M,0,77649,78149,143.7959,51.01574 F,0,77949,78149,0.2996568,0 F,0,78149,78349,0,0.2996568 M,0,78149,78649,268.0699,64.71622 F,0,78449,78649,0.2996568,0 F,0,78649,78849,0,0.2996568 M,0,78649,79149,53.9824,223.4675 F,0,78949,79149,0.2996568,0 F,0,79149,79349,0,0.2996568 M,0,79149,79649,12.39276,446.8884 F,0,79449,79649,0.2996568,0
Sprite,Foreground,Centre,"sb\particle.png",320,240 F,0,59465,,0.2996568 S,0,59465,,0.3 C,0,59465,,104,149,155 F,0,59465,59665,0,0.2996568 M,0,59465,59965,-81.04327,182.8822 P,0,59465,79666,A F,0,59765,59965,0.2996568,0 F,0,59982,60182,0,0.2996568 M,0,59982,60482,52.58834,32.88905 F,0,60282,60482,0.2996568,0 F,0,60499,60699,0,0.2996568 M,0,60499,60999,721.4887,37.30041 F,0,60799,60999,0.2996568,0 F,0,61015,61215,0,0.2996568 M,0,61015,61515,370.6338,314.6973 F,0,61315,61515,0.2996568,0 F,0,61532,61732,0,0.2996568 M,0,61532,62032,601.5096,259.7771 F,0,61832,62032,0.2996568,0 F,0,62049,62249,0,0.2996568 M,0,62049,62549,474.1547,164.4832 F,0,62349,62549,0.2996568,0 F,0,62565,62765,0,0.2996568 M,0,62565,63065,306.8246,171.3215 F,0,62865,63065,0.2996568,0 F,0,63082,63282,0,0.2996568 M,0,63082,63582,220.4518,139.5807 F,0,63382,63582,0.2996568,0 F,0,63599,63799,0,0.2996568 M,0,63599,64099,562.244,140.4195 F,0,63899,64099,0.2996568,0 F,0,64115,64315,0,0.2996568 M,0,64115,64615,158.3806,142.1224 F,0,64415,64615,0.2996568,0 F,0,64632,64832,0,0.2996568 M,0,64632,65132,696.6631,174.6971 F,0,64932,65132,0.2996568,0 F,0,65149,65349,0,0.2996568 M,0,65149,65649,34.2004,214.8469 F,0,65449,65649,0.2996568,0 F,0,65665,65865,0,0.2996568 M,0,65665,66165,-32.42604,49.63158 F,0,65965,66165,0.2996568,0 F,0,66165,66365,0,0.2996568 M,0,66165,66665,299.6104,163.6189 F,0,66465,66665,0.2996568,0 F,0,66665,66865,0,0.2996568 M,0,66665,67165,200.7618,260.7073 F,0,66965,67165,0.2996568,0 F,0,67165,67365,0,0.2996568 M,0,67165,67665,88.15344,103.418 F,0,67465,67665,0.2996568,0 F,0,67665,67865,0,0.2996568 M,0,67665,68165,106.5231,40.08827 F,0,67965,68165,0.2996568,0 F,0,68165,68365,0,0.2996568 M,0,68165,68665,-71.93379,368.4564 F,0,68465,68665,0.2996568,0 F,0,68665,68865,0,0.2996568 M,0,68665,69165,-22.26061,176.5347 F,0,68965,69165,0.2996568,0 F,0,69166,69366,0,0.2996568 M,0,69166,69666,104.7089,241.5151 F,0,69466,69666,0.2996568,0 F,0,69666,69866,0,0.2996568 M,0,69666,70166,619.8156,237.5804 F,0,69966,70166,0.2996568,0 F,0,70166,70366,0,0.2996568 M,0,70166,70666,69.44109,159.9776 F,0,70466,70666,0.2996568,0 F,0,70666,70866,0,0.2996568 M,0,70666,71166,132.0983,17.19113 F,0,70966,71166,0.2996568,0 F,0,71166,71366,0,0.2996568 M,0,71166,71666,285.7306,109.5669 F,0,71466,71666,0.2996568,0 F,0,71666,71866,0,0.2996568 M,0,71666,72166,54.46587,339.4275 F,0,71966,72166,0.2996568,0 F,0,72166,72366,0,0.2996568 M,0,72166,72666,-86.34382,134.879 F,0,72466,72666,0.2996568,0 F,0,72666,72866,0,0.2996568 M,0,72666,73166,218.1261,244.1403 F,0,72966,73166,0.2996568,0 F,0,73166,73366,0,0.2996568 M,0,73166,73666,-29.75329,378.5639 F,0,73466,73666,0.2996568,0 F,0,73666,73866,0,0.2996568 M,0,73666,74166,29.60615,156.7281 F,0,73966,74166,0.2996568,0 F,0,74166,74366,0,0.2996568 M,0,74166,74666,-65.24707,199.6162 F,0,74466,74666,0.2996568,0 F,0,74666,74866,0,0.2996568 M,0,74666,75166,54.94319,143.129 F,0,74966,75166,0.2996568,0 F,0,75166,75366,0,0.2996568 M,0,75166,75666,124.6589,36.14269 F,0,75466,75666,0.2996568,0 F,0,75666,75866,0,0.2996568 M,0,75666,76166,-2.467148,389.8936 F,0,75966,76166,0.2996568,0 F,0,76166,76366,0,0.2996568 M,0,76166,76666,115.0845,455.8585 F,0,76466,76666,0.2996568,0 F,0,76666,76866,0,0.2996568 M,0,76666,77166,291.3864,65.38029 F,0,76966,77166,0.2996568,0 F,0,77166,77366,0,0.2996568 M,0,77166,77666,-12.24654,410.6852 F,0,77466,77666,0.2996568,0 F,0,77666,77866,0,0.2996568 M,0,77666,78166,129.416,331.3051 F,0,77966,78166,0.2996568,0 F,0,78166,78366,0,0.2996568 M,0,78166,78666,-49.01597,59.15685 F,0,78466,78666,0.2996568,0 F,0,78666,78866,0,0.2996568 M,0,78666,79166,208.7195,335.7967 F,0,78966,79166,0.2996568,0 F,0,79166,79366,0,0.2996568 M,0,79166,79666,361.8946,379.8306 F,0,79466,79666,0.2996568,0
Sprite,Foreground,Centre,"sb\particle.png",320,240 F,0,59482,,0.2996568 S,0,59482,,0.3 C,0,59482,,104,149,155 F,0,59482,59682,0,0.2996568 M,0,59482,59982,186.0431,459.5785 P,0,59482,79682,A F,0,59782,59982,0.2996568,0 F,0,59999,60199,0,0.2996568 M,0,59999,60499,426.4278,332.6616 F,0,60299,60499,0.2996568,0 F,0,60515,60715,0,0.2996568 M,0,60515,61015,331.0741,74.76736 F,0,60815,61015,0.2996568,0 F,0,61032,61232,0,0.2996568 M,0,61032,61532,184.2377,11.1894 F,0,61332,61532,0.2996568,0 F,0,61549,61749,0,0.2996568 M,0,61549,62049,339.2242,78.19642 F,0,61849,62049,0.2996568,0 F,0,62065,62265,0,0.2996568 M,0,62065,62565,291.5776,383.644 F,0,62365,62565,0.2996568,0 F,0,62582,62782,0,0.2996568 M,0,62582,63082,411.7672,199.6757 F,0,62882,63082,0.2996568,0 F,0,63099,63299,0,0.2996568 M,0,63099,63599,603.6595,379.403 F,0,63399,63599,0.2996568,0 F,0,63615,63815,0,0.2996568 M,0,63615,64115,236.091,418.0254 F,0,63915,64115,0.2996568,0 F,0,64132,64332,0,0.2996568 M,0,64132,64632,161.7367,35.21427 F,0,64432,64632,0.2996568,0 F,0,64649,64849,0,0.2996568 M,0,64649,65149,193.4174,437.6834 F,0,64949,65149,0.2996568,0 F,0,65165,65365,0,0.2996568 M,0,65165,65665,358.7519,438.9858 F,0,65465,65665,0.2996568,0 F,0,65682,65882,0,0.2996568 M,0,65682,66182,321.9542,124.2878 F,0,65982,66182,0.2996568,0 F,0,66182,66382,0,0.2996568 M,0,66182,66682,228.2422,124.3646 F,0,66482,66682,0.2996568,0 F,0,66682,66882,0,0.2996568 M,0,66682,67182,202.1244,87.40062 F,0,66982,67182,0.2996568,0 F,0,67182,67382,0,0.2996568 M,0,67182,67682,235.6663,3.64296 F,0,67482,67682,0.2996568,0 F,0,67682,67882,0,0.2996568 M,0,67682,68182,368.2668,393.4025 F,0,67982,68182,0.2996568,0 F,0,68182,68382,0,0.2996568 M,0,68182,68682,601.1252,335.6588 F,0,68482,68682,0.2996568,0 F,0,68682,68882,0,0.2996568 M,0,68682,69182,-46.2207,338.037 F,0,68982,69182,0.2996568,0 F,0,69182,69382,0,0.2996568 M,0,69182,69682,191.5968,405.3417 F,0,69482,69682,0.2996568,0 F,0,69682,69882,0,0.2996568 M,0,69682,70182,194.1633,94.51653 F,0,69982,70182,0.2996568,0 F,0,70182,70382,0,0.2996568 M,0,70182,70682,126.3829,65.5797 F,0,70482,70682,0.2996568,0 F,0,70682,70882,0,0.2996568 M,0,70682,71182,-11.63276,361.2881 F,0,70982,71182,0.2996568,0 F,0,71182,71382,0,0.2996568 M,0,71182,71682,-76.71534,20.57888 F,0,71482,71682,0.2996568,0 F,0,71682,71882,0,0.2996568 M,0,71682,72182,495.9411,236.5618 F,0,71982,72182,0.2996568,0 F,0,72182,72382,0,0.2996568 M,0,72182,72682,86.30787,341.8359 F,0,72482,72682,0.2996568,0 F,0,72682,72882,0,0.2996568 M,0,72682,73182,389.5865,479.6817 F,0,72982,73182,0.2996568,0 F,0,73182,73382,0,0.2996568 M,0,73182,73682,463.3412,358.5959 F,0,73482,73682,0.2996568,0 F,0,73682,73882,0,0.2996568 M,0,73682,74182,710.1434,441.5125 F,0,73982,74182,0.2996568,0 F,0,74182,74382,0,0.2996568 M,0,74182,74682,-89.12374,204.5132 F,0,74482,74682,0.2996568,0 F,0,74682,74882,0,0.2996568 M,0,74682,75182,232.2192,329.6384 F,0,74982,75182,0.2996568,0 F,0,75182,75382,0,0.2996568 M,0,75182,75682,135.5613,398.587 F,0,75482,75682,0.2996568,0 F,0,75682,75882,0,0.2996568 M,0,75682,76182,675.2664,425.2177 F,0,75982,76182,0.2996568,0 F,0,76182,76382,0,0.2996568 M,0,76182,76682,307.1147,276.915 F,0,76482,76682,0.2996568,0 F,0,76682,76882,0,0.2996568 M,0,76682,77182,291.3918,161.2757 F,0,76982,77182,0.2996568,0 F,0,77182,77382,0,0.2996568 M,0,77182,77682,108.4167,446.7435 F,0,77482,77682,0.2996568,0 F,0,77682,77882,0,0.2996568 M,0,77682,78182,176.6336,80.74187 F,0,77982,78182,0.2996568,0 F,0,78182,78382,0,0.2996568 M,0,78182,78682,708.3564,17.58984 F,0,78482,78682,0.2996568,0 F,0,78682,78882,0,0.2996568 M,0,78682,79182,563.3235,465.5075 F,0,78982,79182,0.2996568,0 F,0,79182,79382,0,0.2996568 M,0,79182,79682,367.2085,308.1125 F,0,79482,79682,0.2996568,0
Sprite,Foreground,Centre,"sb\particle.png",320,240 F,0,59499,,0.2996568 S,0,59499,,0.3 C,0,59499,,104,149,155 F,0,59499,59699,0,0.2996568 M,0,59499,59999,324.3803,343.6668 P,0,59499,79699,A F,0,59799,59999,0.2996568,0 F,0,60015,60215,0,0.2996568 M,0,60015,60515,431.3568,445.2659 F,0,60315,60515,0.2996568,0 F,0,60532,60732,0,0.2996568 M,0,60532,61032,587.8594,308.4102 F,0,60832,61032,0.2996568,0 F,0,61049,61249,0,0.2996568 M,0,61049,61549,-23.91782,421.3971 F,0,61349,61549,0.2996568,0 F,0,61565,61765,0,0.2996568 M,0,61565,62065,434.5943,265.5524 F,0,61865,62065,0.2996568,0 F,0,62082,62282,0,0.2996568 M,0,62082,62582,78.23032,436.3411 F,0,62382,62582,0.2996568,0 F,0,62599,62799,0,0.2996568 M,0,62599,63099,571.3052,92.54398 F,0,62899,63099,0.2996568,0 F,0,63115,63315,0,0.2996568 M,0,63115,63615,515.3122,194.3011 F,0,63415,63615,0.2996568,0 F,0,63632,63832,0,0.2996568 M,0,63632,64132,89.6692,56.59443 F,0,63932,64132,0.2996568,0 F,0,64149,64349,0,0.2996568 M,0,64149,64649,223.9374,254.5571 F,0,64449,64649,0.2996568,0 F,0,64665,64865,0,0.2996568 M,0,64665,65165,191.9819,10.33312 F,0,64965,65165,0.2996568,0 F,0,65182,65382,0,0.2996568 M,0,65182,65682,224.2734,296.1201 F,0,65482,65682,0.2996568,0 F,0,65699,65899,0,0.2996568 M,0,65699,66199,475.0714,212.306 F,0,65999,66199,0.2996568,0 F,0,66199,66399,0,0.2996568 M,0,66199,66699,304.8493,431.4661 F,0,66499,66699,0.2996568,0 F,0,66699,66899,0,0.2996568 M,0,66699,67199,-90.41713,322.5992 F,0,66999,67199,0.2996568,0 F,0,67199,67399,0,0.2996568 M,0,67199,67699,166.4675,261.472 F,0,67499,67699,0.2996568,0 F,0,67699,67899,0,0.2996568 M,0,67699,68199,527.2206,110.0062 F,0,67999,68199,0.2996568,0 F,0,68199,68399,0,0.2996568 M,0,68199,68699,-8.972733,455.8768 F,0,68499,68699,0.2996568,0 F,0,68699,68899,0,0.2996568 M,0,68699,69199,406.2615,45.25198 F,0,68999,69199,0.2996568,0 F,0,69199,69399,0,0.2996568 M,0,69199,69699,-92.24776,261.2659 F,0,69499,69699,0.2996568,0 F,0,69699,69899,0,0.2996568 M,0,69699,70199,66.18237,370.7423 F,0,69999,70199,0.2996568,0 F,0,70199,70399,0,0.2996568 M,0,70199,70699,195.5134,396.6681 F,0,70499,70699,0.2996568,0 F,0,70699,70899,0,0.2996568 M,0,70699,71199,29.18182,86.74075 F,0,70999,71199,0.2996568,0 F,0,71199,71399,0,0.2996568 M,0,71199,71699,182.5425,426.1094 F,0,71499,71699,0.2996568,0 F,0,71699,71899,0,0.2996568 M,0,71699,72199,520.0669,65.28265 F,0,71999,72199,0.2996568,0 F,0,72199,72399,0,0.2996568 M,0,72199,72699,10.49735,54.53959 F,0,72499,72699,0.2996568,0 F,0,72699,72899,0,0.2996568 M,0,72699,73199,-16.46309,187.2293 F,0,72999,73199,0.2996568,0 F,0,73199,73399,0,0.2996568 M,0,73199,73699,126.2118,94.35198 F,0,73499,73699,0.2996568,0 F,0,73699,73899,0,0.2996568 M,0,73699,74199,42.391,431.2626 F,0,73999,74199,0.2996568,0 F,0,74199,74399,0,0.2996568 M,0,74199,74699,611.1254,279.1121 F,0,74499,74699,0.2996568,0 F,0,74699,74899,0,0.2996568 M,0,74699,75199,207.2969,380.1809 F,0,74999,75199,0.2996568,0 F,0,75199,75399,0,0.2996568 M,0,75199,75699,374.5959,286.6481 F,0,75499,75699,0.2996568,0 F,0,75699,75899,0,0.2996568 M,0,75699,76199,697.2977,152.5867 F,0,75999,76199,0.2996568,0 F,0,76199,76399,0,0.2996568 M,0,76199,76699,136.6371,443.0018 F,0,76499,76699,0.2996568,0 F,0,76699,76899,0,0.2996568 M,0,76699,77199,-61.36861,209.5261 F,0,76999,77199,0.2996568,0 F,0,77199,77399,0,0.2996568 M,0,77199,77699,-12.18972,430.0876 F,0,77499,77699,0.2996568,0 F,0,77699,77899,0,0.2996568 M,0,77699,78199,97.86212,214.3036 F,0,77999,78199,0.2996568,0 F,0,78199,78399,0,0.2996568 M,0,78199,78699,567.6219,251.0336 F,0,78499,78699,0.2996568,0 F,0,78699,78899,0,0.2996568 M,0,78699,79199,547.2028,378.5692 F,0,78999,79199,0.2996568,0 F,0,79199,79399,0,0.2996568 M,0,79199,79699,276.3898,278.6607 F,0,79499,79699,0.2996568,0
Sprite,Foreground,Centre,"sb\particle.png",320,240 F,0,59515,,0.2996568 S,0,59515,,0.3 C,0,59515,,104,149,155 F,0,59515,59715,0,0.2996568 M,0,59515,60015,-5.4101,131.2567 P,0,59515,79716,A F,0,59815,60015,0.2996568,0 F,0,60032,60232,0,0.2996568 M,0,60032,60532,82.0261,445.7797 F,0,60332,60532,0.2996568,0 F,0,60549,60749,0,0.2996568 M,0,60549,61049,384.386,265.3737 F,0,60849,61049,0.2996568,0 F,0,61065,61265,0,0.2996568 M,0,61065,61565,500.085,428.2267 F,0,61365,61565,0.2996568,0 F,0,61582,61782,0,0.2996568 M,0,61582,62082,161.6769,119.9763 F,0,61882,62082,0.2996568,0 F,0,62099,62299,0,0.2996568 M,0,62099,62599,336.7844,413.7895 F,0,62399,62599,0.2996568,0 F,0,62615,62815,0,0.2996568 M,0,62615,63115,-19.7144,64.75868 F,0,62915,63115,0.2996568,0 F,0,63132,63332,0,0.2996568 M,0,63132,63632,350.6023,203.996 F,0,63432,63632,0.2996568,0 F,0,63649,63849,0,0.2996568 M,0,63649,64149,376.6399,105.4874 F,0,63949,64149,0.2996568,0 F,0,64165,64365,0,0.2996568 M,0,64165,64665,95.33955,60.40957 F,0,64465,64665,0.2996568,0 F,0,64682,64882,0,0.2996568 M,0,64682,65182,106.6581,115.7661 F,0,64982,65182,0.2996568,0 F,0,65199,65399,0,0.2996568 M,0,65199,65699,329.0117,311.669 F,0,65499,65699,0.2996568,0 F,0,65715,65915,0,0.2996568 M,0,65715,66215,-105.649,298.3188 F,0,66015,66215,0.2996568,0 F,0,66215,66415,0,0.2996568 M,0,66215,66715,261.6949,41.90914 F,0,66515,66715,0.2996568,0 F,0,66715,66915,0,0.2996568 M,0,66715,67215,503.669,197.8182 F,0,67015,67215,0.2996568,0 F,0,67215,67415,0,0.2996568 M,0,67215,67715,59.557,34.98466 F,0,67515,67715,0.2996568,0 F,0,67715,67915,0,0.2996568 M,0,67715,68215,334.4794,413.6093 F,0,68015,68215,0.2996568,0 F,0,68215,68415,0,0.2996568 M,0,68215,68715,19.4878,106.5737 F,0,68515,68715,0.2996568,0 F,0,68716,68916,0,0.2996568 M,0,68716,69216,62.33924,137.3441 F,0,69016,69216,0.2996568,0 F,0,69216,69416,0,0.2996568 M,0,69216,69716,1.644109,371.8799 F,0,69516,69716,0.2996568,0 F,0,69716,69916,0,0.2996568 M,0,69716,70216,569.2988,304.6179 F,0,70016,70216,0.2996568,0 F,0,70216,70416,0,0.2996568 M,0,70216,70716,656.9892,231.923 F,0,70516,70716,0.2996568,0 F,0,70716,70916,0,0.2996568 M,0,70716,71216,330.4344,235.8336 F,0,71016,71216,0.2996568,0 F,0,71216,71416,0,0.2996568 M,0,71216,71716,121.7029,460.08 F,0,71516,71716,0.2996568,0 F,0,71716,71916,0,0.2996568 M,0,71716,72216,48.94078,205.0918 F,0,72016,72216,0.2996568,0 F,0,72216,72416,0,0.2996568 M,0,72216,72716,355.9016,403.2334 F,0,72516,72716,0.2996568,0 F,0,72716,72916,0,0.2996568 M,0,72716,73216,128.8928,366.1271 F,0,73016,73216,0.2996568,0 F,0,73216,73416,0,0.2996568 M,0,73216,73716,435.7118,353.6063 F,0,73516,73716,0.2996568,0 F,0,73716,73916,0,0.2996568 M,0,73716,74216,261.3307,230.8866 F,0,74016,74216,0.2996568,0 F,0,74216,74416,0,0.2996568 M,0,74216,74716,-64.29829,18.87097 F,0,74516,74716,0.2996568,0 F,0,74716,74916,0,0.2996568 M,0,74716,75216,730.6482,3.361746 F,0,75016,75216,0.2996568,0 F,0,75216,75416,0,0.2996568 M,0,75216,75716,47.89241,450.0327 F,0,75516,75716,0.2996568,0 F,0,75716,75916,0,0.2996568 M,0,75716,76216,9.453742,197.2055 F,0,76016,76216,0.2996568,0 F,0,76216,76416,0,0.2996568 M,0,76216,76716,430.841,14.25238 F,0,76516,76716,0.2996568,0 F,0,76716,76916,0,0.2996568 M,0,76716,77216,-25.06964,293.434 F,0,77016,77216,0.2996568,0 F,0,77216,77416,0,0.2996568 M,0,77216,77716,499.3907,395.1382 F,0,77516,77716,0.2996568,0 F,0,77716,77916,0,0.2996568 M,0,77716,78216,547.926,233.5155 F,0,78016,78216,0.2996568,0 F,0,78216,78416,0,0.2996568 M,0,78216,78716,217.2419,338.1356 F,0,78516,78716,0.2996568,0 F,0,78716,78916,0,0.2996568 M,0,78716,79216,331.1828,86.51635 F,0,79016,79216,0.2996568,0 F,0,79216,79416,0,0.2996568 M,0,79216,79716,442.0014,474.3063 F,0,79516,79716,0.2996568,0
Sprite,Foreground,Centre,"sb\particle.png",320,240 F,0,59532,,0.2996568 S,0,59532,,0.3 C,0,59532,,104,149,155 F,0,59532,59732,0,0.2996568 M,0,59532,60032,667.6616,381.4875 P,0,59532,79732,A F,0,59832,60032,0.2996568,0 F,0,60049,60249,0,0.2996568 M,0,60049,60549,-50.19056,432.05 F,0,60349,60549,0.2996568,0 F,0,60565,60765,0,0.2996568 M,0,60565,61065,467.3058,477.3823 F,0,60865,61065,0.2996568,0 F,0,61082,61282,0,0.2996568 M,0,61082,61582,449.1797,122.5477 F,0,61382,61582,0.2996568,0 F,0,61599,61799,0,0.2996568 M,0,61599,62099,576.7382,220.8631 F,0,61899,62099,0.2996568,0 F,0,62115,62315,0,0.2996568 M,0,62115,62615,704.0154,130.0376 F,0,62415,62615,0.2996568,0 F,0,62632,62832,0,0.2996568 M,0,62632,63132,341.4274,362.7671 F,0,62932,63132,0.2996568,0 F,0,63149,63349,0,0.2996568 M,0,63149,63649,-43.61889,160.6915 F,0,63449,63649,0.2996568,0 F,0,63665,63865,0,0.2996568 M,0,63665,64165,466.8935,231.8193 F,0,63965,64165,0.2996568,0 F,0,64182,64382,0,0.2996568 M,0,64182,64682,22.02052,470.2483 F,0,64482,64682,0.2996568,0 F,0,64699,64899,0,0.2996568 M,0,64699,65199,49.21518,133.9232 F,0,64999,65199,0.2996568,0 F,0,65215,65415,0,0.2996568 M,0,65215,65715,353.4088,369.5692 F,0,65515,65715,0.2996568,0 F,0,65732,65932,0,0.2996568 M,0,65732,66232,684.0042,386.6912 F,0,66032,66232,0.2996568,0 F,0,66232,66432,0,0.2996568 M,0,66232,66732,501.5553,57.57478 F,0,66532,66732,0.2996568,0 F,0,66732,66932,0,0.2996568 M,0,66732,67232,574.472,194.0123 F,0,67032,67232,0.2996568,0 F,0,67232,67432,0,0.2996568 M,0,67232,67732,184.5782,227.8941 F,0,67532,67732,0.2996568,0 F,0,67732,67932,0,0.2996568 M,0,67732,68232,469.6906,231.1023 F,0,68032,68232,0.2996568,0 F,0,68232,68432,0,0.2996568 M,0,68232,68732,68.81236,432.8611 F,0,68532,68732,0.2996568,0 F,0,68732,68932,0,0.2996568 M,0,68732,69232,711.3611,310.7649 F,0,69032,69232,0.2996568,0 F,0,69232,69432,0,0.2996568 M,0,69232,69732,568.4506,462.7172 F,0,69532,69732,0.2996568,0 F,0,69732,69932,0,0.2996568 M,0,69732,70232,283.3591,384.8455 F,0,70032,70232,0.2996568,0 F,0,70232,70432,0,0.2996568 M,0,70232,70732,275.1331,242.2185 F,0,70532,70732,0.2996568,0 F,0,70732,70932,0,0.2996568 M,0,70732,71232,282.9322,131.7923 F,0,71032,71232,0.2996568,0 F,0,71232,71432,0,0.2996568 M,0,71232,71732,66.95968,309.9165 F,0,71532,71732,0.2996568,0 F,0,71732,71932,0,0.2996568 M,0,71732,72232,71.23698,0.8372715 F,0,72032,72232,0.2996568,0 F,0,72232,72432,0,0.2996568 M,0,72232,72732,537.9493,207.7675 F,0,72532,72732,0.2996568,0 F,0,72732,72932,0,0.2996568 M,0,72732,73232,662.8538,289.8264 F,0,73032,73232,0.2996568,0 F,0,73232,73432,0,0.2996568 M,0,73232,73732,28.63965,449.7516 F,0,73532,73732,0.2996568,0 F,0,73732,73932,0,0.2996568 M,0,73732,74232,88.0674,274.0795 F,0,74032,74232,0.2996568,0 F,0,74232,74432,0,0.2996568 M,0,74232,74732,269.8594,286.7938 F,0,74532,74732,0.2996568,0 F,0,74732,74932,0,0.2996568 M,0,74732,75232,61.4726,185.0053 F,0,75032,75232,0.2996568,0 F,0,75232,75432,0,0.2996568 M,0,75232,75732,49.0222,315.318 F,0,75532,75732,0.2996568,0 F,0,75732,75932,0,0.2996568 M,0,75732,76232,96.35731,29.59428 F,0,76032,76232,0.2996568,0 F,0,76232,76432,0,0.2996568 M,0,76232,76732,711.4301,422.0825 F,0,76532,76732,0.2996568,0 F,0,76732,76932,0,0.2996568 M,0,76732,77232,511.2669,419.9077 F,0,77032,77232,0.2996568,0 F,0,77232,77432,0,0.2996568 M,0,77232,77732,-81.61568,204.2836 F,0,77532,77732,0.2996568,0 F,0,77732,77932,0,0.2996568 M,0,77732,78232,168.7018,13.09114 F,0,78032,78232,0.2996568,0 F,0,78232,78432,0,0.2996568 M,0,78232,78732,252.0334,284.9188 F,0,78532,78732,0.2996568,0 F,0,78732,78932,0,0.2996568 M,0,78732,79232,460.2458,406.3184 F,0,79032,79232,0.2996568,0 F,0,79232,79432,0,0.2996568 M,0,79232,79732,507.9879,185.8787 F,0,79532,79732,0.2996568,0
Sprite,Foreground,Centre,"sb\particle.png",320,240 F,0,59549,,0.2996568 S,0,59549,,0.3 C,0,59549,,104,149,155 F,0,59549,59749,0,0.2996568 M,0,59549,60049,180.9349,219.4602 P,0,59549,79749,A F,0,59849,60049,0.2996568,0 F,0,60065,60265,0,0.2996568 M,0,60065,60565,472.4437,45.10946 F,0,60365,60565,0.2996568,0 F,0,60582,60782,0,0.2996568 M,0,60582,61082,150.6012,30.93776 F,0,60882,61082,0.2996568,0 F,0,61099,61299,0,0.2996568 M,0,61099,61599,119.1674,227.5261 F,0,61399,61599,0.2996568,0 F,0,61615,61815,0,0.2996568 M,0,61615,62115,680.0471,161.9506 F,0,61915,62115,0.2996568,0 F,0,62132,62332,0,0.2996568 M,0,62132,62632,317.4225,157.19 F,0,62432,62632,0.2996568,0 F,0,62649,62849,0,0.2996568 M,0,62649,63149,213.2359,345.8197 F,0,62949,63149,0.2996568,0 F,0,63165,63365,0,0.2996568 M,0,63165,63665,675.4651,372.7048 F,0,63465,63665,0.2996568,0 F,0,63682,63882,0,0.2996568 M,0,63682,64182,512.1667,230.8055 F,0,63982,64182,0.2996568,0 F,0,64199,64399,0,0.2996568 M,0,64199,64699,119.7687,192.7179 F,0,64499,64699,0.2996568,0 F,0,64715,64915,0,0.2996568 M,0,64715,65215,293.4977,207.8805 F,0,65015,65215,0.2996568,0 F,0,65232,65432,0,0.2996568 M,0,65232,65732,310.1589,468.2118 F,0,65532,65732,0.2996568,0 F,0,65749,65949,0,0.2996568 M,0,65749,66249,555.7248,107.3288 F,0,66049,66249,0.2996568,0 F,0,66249,66449,0,0.2996568 M,0,66249,66749,-7.978724,439.2244 F,0,66549,66749,0.2996568,0 F,0,66749,66949,0,0.2996568 M,0,66749,67249,118.2882,119.3388 F,0,67049,67249,0.2996568,0 F,0,67249,67449,0,0.2996568 M,0,67249,67749,151.3951,251.9319 F,0,67549,67749,0.2996568,0 F,0,67749,67949,0,0.2996568 M,0,67749,68249,296.0839,225.4546 F,0,68049,68249,0.2996568,0 F,0,68249,68449,0,0.2996568 M,0,68249,68749,189.8013,322.9647 F,0,68549,68749,0.2996568,0 F,0,68749,68949,0,0.2996568 M,0,68749,69249,700.0677,313.5886 F,0,69049,69249,0.2996568,0 F,0,69249,69449,0,0.2996568 M,0,69249,69749,124.6214,157.4303 F,0,69549,69749,0.2996568,0 F,0,69749,69949,0,0.2996568 M,0,69749,70249,629.1012,166.7921 F,0,70049,70249,0.2996568,0 F,0,70249,70449,0,0.2996568 M,0,70249,70749,192.5825,273.3282 F,0,70549,70749,0.2996568,0 F,0,70749,70949,0,0.2996568 M,0,70749,71249,154.2652,102.9644 F,0,71049,71249,0.2996568,0 F,0,71249,71449,0,0.2996568 M,0,71249,71749,50.57878,405.1058 F,0,71549,71749,0.2996568,0 F,0,71749,71949,0,0.2996568 M,0,71749,72249,609.3987,450.2068 F,0,72049,72249,0.2996568,0 F,0,72249,72449,0,0.2996568 M,0,72249,72749,717.5621,375.4707 F,0,72549,72749,0.2996568,0 F,0,72749,72949,0,0.2996568 M,0,72749,73249,445.4619,403.8326 F,0,73049,73249,0.2996568,0 F,0,73249,73449,0,0.2996568 M,0,73249,73749,20.05791,385.3873 F,0,73549,73749,0.2996568,0 F,0,73749,73949,0,0.2996568 M,0,73749,74249,59.46183,14.06159 F,0,74049,74249,0.2996568,0 F,0,74249,74449,0,0.2996568 M,0,74249,74749,34.71708,48.01839 F,0,74549,74749,0.2996568,0 F,0,74749,74949,0,0.2996568 M,0,74749,75249,53.67627,278.4776 F,0,75049,75249,0.2996568,0 F,0,75249,75449,0,0.2996568 M,0,75249,75749,725.0592,246.5075 F,0,75549,75749,0.2996568,0 F,0,75749,75949,0,0.2996568 M,0,75749,76249,624.401,70.95293 F,0,76049,76249,0.2996568,0 F,0,76249,76449,0,0.2996568 M,0,76249,76749,263.3192,246.4995 F,0,76549,76749,0.2996568,0 F,0,76749,76949,0,0.2996568 M,0,76749,77249,645.0206,185.9314 F,0,77049,77249,0.2996568,0 F,0,77249,77449,0,0.2996568 M,0,77249,77749,469.1234,163.3673 F,0,77549,77749,0.2996568,0 F,0,77749,77949,0,0.2996568 M,0,77749,78249,145.2751,255.4843 F,0,78049,78249,0.2996568,0 F,0,78249,78449,0,0.2996568 M,0,78249,78749,437.4243,261.7343 F,0,78549,78749,0.2996568,0 F,0,78749,78949,0,0.2996568 M,0,78749,79249,290.6301,190.3344 F,0,79049,79249,0.2996568,0 F,0,79249,79449,0,0.2996568 M,0,79249,79749,491.1154,63.09177 F,0,79549,79749,0.2996568,0
Sprite,Foreground,Centre,"sb\particle.png",320,240 F,0,59565,,0.2996568 S,0,59565,,0.3 C,0,59565,,104,149,155 F,0,59565,59765,0,0.2996568 M,0,59565,60065,18.38858,106.2311 P,0,59565,79766,A F,0,59865,60065,0.2996568,0 F,0,60082,60282,0,0.2996568 M,0,60082,60582,20.32921,51.3468 F,0,60382,60582,0.2996568,0 F,0,60599,60799,0,0.2996568 M,0,60599,61099,290.7104,231.8756 F,0,60899,61099,0.2996568,0 F,0,61115,61315,0,0.2996568 M,0,61115,61615,60.30273,426.0406 F,0,61415,61615,0.2996568,0 F,0,61632,61832,0,0.2996568 M,0,61632,62132,57.18345,72.12564 F,0,61932,62132,0.2996568,0 F,0,62149,62349,0,0.2996568 M,0,62149,62649,53.57022,125.4975 F,0,62449,62649,0.2996568,0 F,0,62665,62865,0,0.2996568 M,0,62665,63165,283.1544,40.95544 F,0,62965,63165,0.2996568,0 F,0,63182,63382,0,0.2996568 M,0,63182,63682,449.8636,395.2799 F,0,63482,63682,0.2996568,0 F,0,63699,63899,0,0.2996568 M,0,63699,64199,31.82452,10.05309 F,0,63999,64199,0.2996568,0 F,0,64215,64415,0,0.2996568 M,0,64215,64715,591.2731,202.9779 F,0,64515,64715,0.2996568,0 F,0,64732,64932,0,0.2996568 M,0,64732,65232,-93.31099,151.919 F,0,65032,65232,0.2996568,0 F,0,65249,65449,0,0.2996568 M,0,65249,65749,463.5546,222.8651 F,0,65549,65749,0.2996568,0 F,0,65765,65965,0,0.2996568 M,0,65765,66265,98.1964,116.8391 F,0,66065,66265,0.2996568,0 F,0,66265,66465,0,0.2996568 M,0,66265,66765,502.0013,54.96329 F,0,66565,66765,0.2996568,0 F,0,66765,66965,0,0.2996568 M,0,66765,67265,425.7618,436.4396 F,0,67065,67265,0.2996568,0 F,0,67265,67465,0,0.2996568 M,0,67265,67765,-35.43129,253.0948 F,0,67565,67765,0.2996568,0 F,0,67765,67965,0,0.2996568 M,0,67765,68265,446.8459,268.7514 F,0,68065,68265,0.2996568,0 F,0,68265,68465,0,0.2996568 M,0,68265,68765,-69.61692,120.1877 F,0,68565,68765,0.2996568,0 F,0,68766,68966,0,0.2996568 M,0,68766,69266,66.3464,26.39787 F,0,69066,69266,0.2996568,0 F,0,69266,69466,0,0.2996568 M,0,69266,69766,651.5455,254.8781 F,0,69566,69766,0.2996568,0 F,0,69766,69966,0,0.2996568 M,0,69766,70266,424.1755,228.7654 F,0,70066,70266,0.2996568,0 F,0,70266,70466,0,0.2996568 M,0,70266,70766,658.2415,464.4574 F,0,70566,70766,0.2996568,0 F,0,70766,70966,0,0.2996568 M,0,70766,71266,-98.20112,81.42555 F,0,71066,71266,0.2996568,0 F,0,71266,71466,0,0.2996568 M,0,71266,71766,-11.1762,347.4755 F,0,71566,71766,0.2996568,0 F,0,71766,71966,0,0.2996568 M,0,71766,72266,519.8755,478.6241 F,0,72066,72266,0.2996568,0 F,0,72266,72466,0,0.2996568 M,0,72266,72766,67.99017,435.7404 F,0,72566,72766,0.2996568,0 F,0,72766,72966,0,0.2996568 M,0,72766,73266,-39.63864,62.48568 F,0,73066,73266,0.2996568,0 F,0,73266,73466,0,0.2996568 M,0,73266,73766,691.795,464.2989 F,0,73566,73766,0.2996568,0 F,0,73766,73966,0,0.2996568 M,0,73766,74266,154.667,367.5028 F,0,74066,74266,0.2996568,0 F,0,74266,74466,0,0.2996568 M,0,74266,74766,73.61736,191.3234 F,0,74566,74766,0.2996568,0 F,0,74766,74966,0,0.2996568 M,0,74766,75266,518.9543,48.13802 F,0,75066,75266,0.2996568,0 F,0,75266,75466,0,0.2996568 M,0,75266,75766,407.3868,193.2755 F,0,75566,75766,0.2996568,0 F,0,75766,75966,0,0.2996568 M,0,75766,76266,65.81598,452.0911 F,0,76066,76266,0.2996568,0 F,0,76266,76466,0,0.2996568 M,0,76266,76766,29.3926,180.5555 F,0,76566,76766,0.2996568,0 F,0,76766,76966,0,0.2996568 M,0,76766,77266,502.2158,1.076573 F,0,77066,77266,0.2996568,0 F,0,77266,77466,0,0.2996568 M,0,77266,77766,692.9984,30.59142 F,0,77566,77766,0.2996568,0 F,0,77766,77966,0,0.2996568 M,0,77766,78266,360.8286,398.5577 F,0,78066,78266,0.2996568,0 F,0,78266,78466,0,0.2996568 M,0,78266,78766,207.108,189.6604 F,0,78566,78766,0.2996568,0 F,0,78766,78966,0,0.2996568 M,0,78766,79266,315.8152,24.1197 F,0,79066,79266,0.2996568,0 F,0,79266,79466,0,0.2996568 M,0,79266,79766,278.2899,180.7262 F,0,79566,79766,0.2996568,0
Sprite,Foreground,Centre,"sb\particle.png",320,240 F,0,59582,,0.2996568 S,0,59582,,0.3 C,0,59582,,104,149,155 F,0,59582,59782,0,0.2996568 M,0,59582,60082,243.2026,344.9889 P,0,59582,79782,A F,0,59882,60082,0.2996568,0 F,0,60099,60299,0,0.2996568 M,0,60099,60599,413.8292,457.4605 F,0,60399,60599,0.2996568,0 F,0,60615,60815,0,0.2996568 M,0,60615,61115,77.72532,34.41101 F,0,60915,61115,0.2996568,0 F,0,61132,61332,0,0.2996568 M,0,61132,61632,312.8132,306.1553 F,0,61432,61632,0.2996568,0 F,0,61649,61849,0,0.2996568 M,0,61649,62149,457.786,98.53989 F,0,61949,62149,0.2996568,0 F,0,62165,62365,0,0.2996568 M,0,62165,62665,418.5953,282.668 F,0,62465,62665,0.2996568,0 F,0,62682,62882,0,0.2996568 M,0,62682,63182,392.8515,19.29073 F,0,62982,63182,0.2996568,0 F,0,63199,63399,0,0.2996568 M,0,63199,63699,95.21105,402.67 F,0,63499,63699,0.2996568,0 F,0,63715,63915,0,0.2996568 M,0,63715,64215,275.5605,223.71 F,0,64015,64215,0.2996568,0 F,0,64232,64432,0,0.2996568 M,0,64232,64732,707.007,5.632419 F,0,64532,64732,0.2996568,0 F,0,64749,64949,0,0.2996568 M,0,64749,65249,555.8901,443.3474 F,0,65049,65249,0.2996568,0 F,0,65265,65465,0,0.2996568 M,0,65265,65765,-7.459544,43.17348 F,0,65565,65765,0.2996568,0 F,0,65782,65982,0,0.2996568 M,0,65782,66282,55.20755,190.8339 F,0,66082,66282,0.2996568,0 F,0,66282,66482,0,0.2996568 M,0,66282,66782,559.4626,7.216516 F,0,66582,66782,0.2996568,0 F,0,66782,66982,0,0.2996568 M,0,66782,67282,733.636,204.0905 F,0,67082,67282,0.2996568,0 F,0,67282,67482,0,0.2996568 M,0,67282,67782,132.1156,119.7874 F,0,67582,67782,0.2996568,0 F,0,67782,67982,0,0.2996568 M,0,67782,68282,607.5106,204.4787 F,0,68082,68282,0.2996568,0 F,0,68282,68482,0,0.2996568 M,0,68282,68782,505.9687,434.9244 F,0,68582,68782,0.2996568,0 F,0,68782,68982,0,0.2996568 M,0,68782,69282,9.262984,28.76298 F,0,69082,69282,0.2996568,0 F,0,69282,69482,0,0.2996568 M,0,69282,69782,491.3093,34.50437 F,0,69582,69782,0.2996568,0 F,0,69782,69982,0,0.2996568 M,0,69782,70282,666.4825,185.1301 F,0,70082,70282,0.2996568,0 F,0,70282,70482,0,0.2996568 M,0,70282,70782,112.0147,68.47584 F,0,70582,70782,0.2996568,0 F,0,70782,70982,0,0.2996568 M,0,70782,71282,-45.75446,286.9698 F,0,71082,71282,0.2996568,0 F,0,71282,71482,0,0.2996568 M,0,71282,71782,330.043,237.4872 F,0,71582,71782,0.2996568,0 F,0,71782,71982,0,0.2996568 M,0,71782,72282,559.5025,143.566 F,0,72082,72282,0.2996568,0 F,0,72282,72482,0,0.2996568 M,0,72282,72782,143.4297,147.6522 F,0,72582,72782,0.2996568,0 F,0,72782,72982,0,0.2996568 M,0,72782,73282,100.9328,23.89128 F,0,73082,73282,0.2996568,0 F,0,73282,73482,0,0.2996568 M,0,73282,73782,215.1395,325.7932 F,0,73582,73782,0.2996568,0 F,0,73782,73982,0,0.2996568 M,0,73782,74282,203.958,288.2286 F,0,74082,74282,0.2996568,0 F,0,74282,74482,0,0.2996568 M,0,74282,74782,404.8842,352.1974 F,0,74582,74782,0.2996568,0 F,0,74782,74982,0,0.2996568 M,0,74782,75282,359.6882,132.9971 F,0,75082,75282,0.2996568,0 F,0,75282,75482,0,0.2996568 M,0,75282,75782,469.3808,266.6202 F,0,75582,75782,0.2996568,0 F,0,75782,75982,0,0.2996568 M,0,75782,76282,322.7357,260.908 F,0,76082,76282,0.2996568,0 F,0,76282,76482,0,0.2996568 M,0,76282,76782,-31.01316,70.1406 F,0,76582,76782,0.2996568,0 F,0,76782,76982,0,0.2996568 M,0,76782,77282,54.74166,129.3259 F,0,77082,77282,0.2996568,0 F,0,77282,77482,0,0.2996568 M,0,77282,77782,634.0241,422.8191 F,0,77582,77782,0.2996568,0 F,0,77782,77982,0,0.2996568 M,0,77782,78282,645.5806,405.8707 F,0,78082,78282,0.2996568,0 F,0,78282,78482,0,0.2996568 M,0,78282,78782,552.4752,406.3942 F,0,78582,78782,0.2996568,0 F,0,78782,78982,0,0.2996568 M,0,78782,79282,668.6277,357.0408 F,0,79082,79282,0.2996568,0 F,0,79282,79482,0,0.2996568 M,0,79282,79782,384.6462,198.9203 F,0,79582,79782,0.2996568,0
Sprite,Foreground,Centre,"sb\particle.png",320,240 F,0,59599,,0.2996568 S,0,59599,,0.3 C,0,59599,,104,149,155 F,0,59599,59799,0,0.2996568 M,0,59599,60099,422.3351,234.2247 P,0,59599,79799,A F,0,59899,60099,0.2996568,0 F,0,60115,60315,0,0.2996568 M,0,60115,60615,311.9939,71.06701 F,0,60415,60615,0.2996568,0 F,0,60632,60832,0,0.2996568 M,0,60632,61132,89.62554,72.39967 F,0,60932,61132,0.2996568,0 F,0,61149,61349,0,0.2996568 M,0,61149,61649,166.0342,177.1066 F,0,61449,61649,0.2996568,0 F,0,61665,61865,0,0.2996568 M,0,61665,62165,349.8019,244.7856 F,0,61965,62165,0.2996568,0 F,0,62182,62382,0,0.2996568 M,0,62182,62682,668.4915,172.9118 F,0,62482,62682,0.2996568,0 F,0,62699,62899,0,0.2996568 M,0,62699,63199,557.4111,166.2076 F,0,62999,63199,0.2996568,0 F,0,63215,63415,0,0.2996568 M,0,63215,63715,369.4012,216.5067 F,0,63515,63715,0.2996568,0 F,0,63732,63932,0,0.2996568 M,0,63732,64232,-42.95832,460.5733 F,0,64032,64232,0.2996568,0 F,0,64249,64449,0,0.2996568 M,0,64249,64749,353.9595,116.3855 F,0,64549,64749,0.2996568,0 F,0,64765,64965,0,0.2996568 M,0,64765,65265,353.8556,404.3075 F,0,65065,65265,0.2996568,0 F,0,65282,65482,0,0.2996568 M,0,65282,65782,445.5511,431.4952 F,0,65582,65782,0.2996568,0 F,0,65799,65999,0,0.2996568 M,0,65799,66299,621.0034,102.7263 F,0,66099,66299,0.2996568,0 F,0,66299,66499,0,0.2996568 M,0,66299,66799,352.6831,306.1251 F,0,66599,66799,0.2996568,0 F,0,66799,66999,0,0.2996568 M,0,66799,67299,445.0064,267.1255 F,0,67099,67299,0.2996568,0 F,0,67299,67499,0,0.2996568 M,0,67299,67799,651.5654,22.56295 F,0,67599,67799,0.2996568,0 F,0,67799,67999,0,0.2996568 M,0,67799,68299,407.8616,260.3343 F,0,68099,68299,0.2996568,0 F,0,68299,68499,0,0.2996568 M,0,68299,68799,43.15191,129.0308 F,0,68599,68799,0.2996568,0 F,0,68799,68999,0,0.2996568 M,0,68799,69299,527.7274,387.5167 F,0,69099,69299,0.2996568,0 F,0,69299,69499,0,0.2996568 M,0,69299,69799,718.0472,374.7723 F,0,69599,69799,0.2996568,0 F,0,69799,69999,0,0.2996568 M,0,69799,70299,690.2075,178.8311 F,0,70099,70299,0.2996568,0 F,0,70299,70499,0,0.2996568 M,0,70299,70799,573.896,22.82263 F,0,70599,70799,0.2996568,0 F,0,70799,70999,0,0.2996568 M,0,70799,71299,-21.34789,297.5192 F,0,71099,71299,0.2996568,0 F,0,71299,71499,0,0.2996568 M,0,71299,71799,712.8225,219.8761 F,0,71599,71799,0.2996568,0 F,0,71799,71999,0,0.2996568 M,0,71799,72299,204.9734,252.7307 F,0,72099,72299,0.2996568,0 F,0,72299,72499,0,0.2996568 M,0,72299,72799,675.3405,390.6404 F,0,72599,72799,0.2996568,0 F,0,72799,72999,0,0.2996568 M,0,72799,73299,736.6708,180.39 F,0,73099,73299,0.2996568,0 F,0,73299,73499,0,0.2996568 M,0,73299,73799,290.3624,239.3997 F,0,73599,73799,0.2996568,0 F,0,73799,73999,0,0.2996568 M,0,73799,74299,35.68094,419.7909 F,0,74099,74299,0.2996568,0 F,0,74299,74499,0,0.2996568 M,0,74299,74799,210.7948,403.5393 F,0,74599,74799,0.2996568,0 F,0,74799,74999,0,0.2996568 M,0,74799,75299,-89.37724,301.8466 F,0,75099,75299,0.2996568,0 F,0,75299,75499,0,0.2996568 M,0,75299,75799,698.4467,422.9201 F,0,75599,75799,0.2996568,0 F,0,75799,75999,0,0.2996568 M,0,75799,76299,61.92838,109.514 F,0,76099,76299,0.2996568,0 F,0,76299,76499,0,0.2996568 M,0,76299,76799,137.1182,346.1754 F,0,76599,76799,0.2996568,0 F,0,76799,76999,0,0.2996568 M,0,76799,77299,493.1351,331.8378 F,0,77099,77299,0.2996568,0 F,0,77299,77499,0,0.2996568 M,0,77299,77799,728.6522,238.7765 F,0,77599,77799,0.2996568,0 F,0,77799,77999,0,0.2996568 M,0,77799,78299,-92.77482,331.2956 F,0,78099,78299,0.2996568,0 F,0,78299,78499,0,0.2996568 M,0,78299,78799,182.254,224.457 F,0,78599,78799,0.2996568,0 F,0,78799,78999,0,0.2996568 M,0,78799,79299,542.4449,67.24727 F,0,79099,79299,0.2996568,0 F,0,79299,79499,0,0.2996568 M,0,79299,79799,208.5653,60.50864 F,0,79599,79799,0.2996568,0
Sprite,Foreground,Centre,"sb\particle.png",320,240 F,0,59615,,0.2996568 S,0,59615,,0.3 C,0,59615,,104,149,155 F,0,59615,59815,0,0.2996568 M,0,59615,60115,59.45607,421.5319 P,0,59615,79816,A F,0,59915,60115,0.2996568,0 F,0,60132,60332,0,0.2996568 M,0,60132,60632,471.6803,273.5336 F,0,60432,60632,0.2996568,0 F,0,60649,60849,0,0.2996568 M,0,60649,61149,274.6525,216.5181 F,0,60949,61149,0.2996568,0 F,0,61165,61365,0,0.2996568 M,0,61165,61665,101.8301,477.8019 F,0,61465,61665,0.2996568,0 F,0,61682,61882,0,0.2996568 M,0,61682,62182,553.3564,231.5249 F,0,61982,62182,0.2996568,0 F,0,62199,62399,0,0.2996568 M,0,62199,62699,539.308,378.6899 F,0,62499,62699,0.2996568,0 F,0,62715,62915,0,0.2996568 M,0,62715,63215,490.7473,339.4351 F,0,63015,63215,0.2996568,0 F,0,63232,63432,0,0.2996568 M,0,63232,63732,527.3674,346.1353 F,0,63532,63732,0.2996568,0 F,0,63749,63949,0,0.2996568 M,0,63749,64249,720.4893,116.9945 F,0,64049,64249,0.2996568,0 F,0,64265,64465,0,0.2996568 M,0,64265,64765,231.5064,331.4259 F,0,64565,64765,0.2996568,0 F,0,64782,64982,0,0.2996568 M,0,64782,65282,-54.76144,7.229322 F,0,65082,65282,0.2996568,0 F,0,65299,65499,0,0.2996568 M,0,65299,65799,248.4746,470.2518 F,0,65599,65799,0.2996568,0 F,0,65815,66015,0,0.2996568 M,0,65815,66315,667.716,238.7917 F,0,66115,66315,0.2996568,0 F,0,66315,66515,0,0.2996568 M,0,66315,66815,608.1812,17.79046 F,0,66615,66815,0.2996568,0 F,0,66815,67015,0,0.2996568 M,0,66815,67315,412.0585,141.1108 F,0,67115,67315,0.2996568,0 F,0,67315,67515,0,0.2996568 M,0,67315,67815,33.01767,410.4241 F,0,67615,67815,0.2996568,0 F,0,67815,68015,0,0.2996568 M,0,67815,68315,391.3731,266.7429 F,0,68115,68315,0.2996568,0 F,0,68315,68515,0,0.2996568 M,0,68315,68815,250.2212,324.5112 F,0,68615,68815,0.2996568,0 F,0,68816,69016,0,0.2996568 M,0,68816,69316,621.291,49.24208 F,0,69116,69316,0.2996568,0 F,0,69316,69516,0,0.2996568 M,0,69316,69816,197.7059,384.8503 F,0,69616,69816,0.2996568,0 F,0,69816,70016,0,0.2996568 M,0,69816,70316,478.2032,274.3846 F,0,70116,70316,0.2996568,0 F,0,70316,70516,0,0.2996568 M,0,70316,70816,247.8779,256.1221 F,0,70616,70816,0.2996568,0 F,0,70816,71016,0,0.2996568 M,0,70816,71316,489.9272,120.0193 F,0,71116,71316,0.2996568,0 F,0,71316,71516,0,0.2996568 M,0,71316,71816,258.6207,400.8899 F,0,71616,71816,0.2996568,0 F,0,71816,72016,0,0.2996568 M,0,71816,72316,694.312,126.566 F,0,72116,72316,0.2996568,0 F,0,72316,72516,0,0.2996568 M,0,72316,72816,304.8313,28.13047 F,0,72616,72816,0.2996568,0 F,0,72816,73016,0,0.2996568 M,0,72816,73316,573.3095,466.6084 F,0,73116,73316,0.2996568,0 F,0,73316,73516,0,0.2996568 M,0,73316,73816,106.4442,219.489 F,0,73616,73816,0.2996568,0 F,0,73816,74016,0,0.2996568 M,0,73816,74316,447.0727,110.031 F,0,74116,74316,0.2996568,0 F,0,74316,74516,0,0.2996568 M,0,74316,74816,70.21213,352.4254 F,0,74616,74816,0.2996568,0 F,0,74816,75016,0,0.2996568 M,0,74816,75316,609.0402,174.4706 F,0,75116,75316,0.2996568,0 F,0,75316,75516,0,0.2996568 M,0,75316,75816,-66.20647,450.8864 F,0,75616,75816,0.2996568,0 F,0,75816,76016,0,0.2996568 M,0,75816,76316,139.2943,121.3692 F,0,76116,76316,0.2996568,0 F,0,76316,76516,0,0.2996568 M,0,76316,76816,269.8329,42.91397 F,0,76616,76816,0.2996568,0 F,0,76816,77016,0,0.2996568 M,0,76816,77316,674.9061,270.5955 F,0,77116,77316,0.2996568,0 F,0,77316,77516,0,0.2996568 M,0,77316,77816,334.5837,412.3786 F,0,77616,77816,0.2996568,0 F,0,77816,78016,0,0.2996568 M,0,77816,78316,58.61301,394.1689 F,0,78116,78316,0.2996568,0 F,0,78316,78516,0,0.2996568 M,0,78316,78816,533.5575,61.81804 F,0,78616,78816,0.2996568,0 F,0,78816,79016,0,0.2996568 M,0,78816,79316,-87.10307,458.5788 F,0,79116,79316,0.2996568,0 F,0,79316,79516,0,0.2996568 M,0,79316,79816,90.08601,290.8463 F,0,79616,79816,0.2996568,0
Sprite,Foreground,Centre,"sb\particle.png",320,240 F,0,59632,,0.2996568 S,0,59632,,0.3 C,0,59632,,104,149,155 F,0,59632,59832,0,0.2996568 M,0,59632,60132,597.9114,352.9908 P,0,59632,79832,A F,0,59932,60132,0.2996568,0 F,0,60149,60349,0,0.2996568 M,0,60149,60649,85.49428,296.7274 F,0,60449,60649,0.2996568,0 F,0,60665,60865,0,0.2996568 M,0,60665,61165,-90.04867,186.6422 F,0,60965,61165,0.2996568,0 F,0,61182,61382,0,0.2996568 M,0,61182,61682,414.3723,0.8758508 F,0,61482,61682,0.2996568,0 F,0,61699,61899,0,0.2996568 M,0,61699,62199,-20.56881,210.5576 F,0,61999,62199,0.2996568,0 F,0,62215,62415,0,0.2996568 M,0,62215,62715,-5.044554,49.21945 F,0,62515,62715,0.2996568,0 F,0,62732,62932,0,0.2996568 M,0,62732,63232,289.3495,261.4031 F,0,63032,63232,0.2996568,0 F,0,63249,63449,0,0.2996568 M,0,63249,63749,395.6768,30.05454 F,0,63549,63749,0.2996568,0 F,0,63765,63965,0,0.2996568 M,0,63765,64265,666.9857,461.3993 F,0,64065,64265,0.2996568,0 F,0,64282,64482,0,0.2996568 M,0,64282,64782,-52.77015,128.1973 F,0,64582,64782,0.2996568,0 F,0,64799,64999,0,0.2996568 M,0,64799,65299,-28.12213,28.42367 F,0,65099,65299,0.2996568,0 F,0,65315,65515,0,0.2996568 M,0,65315,65815,628.7713,174.3978 F,0,65615,65815,0.2996568,0 F,0,65832,66032,0,0.2996568 M,0,65832,66332,28.63272,41.76561 F,0,66132,66332,0.2996568,0 F,0,66332,66532,0,0.2996568 M,0,66332,66832,669.9515,455.9911 F,0,66632,66832,0.2996568,0 F,0,66832,67032,0,0.2996568 M,0,66832,67332,258.826,150.9082 F,0,67132,67332,0.2996568,0 F,0,67332,67532,0,0.2996568 M,0,67332,67832,-54.93106,169.205 F,0,67632,67832,0.2996568,0 F,0,67832,68032,0,0.2996568 M,0,67832,68332,487.6634,190.8592 F,0,68132,68332,0.2996568,0 F,0,68332,68532,0,0.2996568 M,0,68332,68832,678.5062,414.1175 F,0,68632,68832,0.2996568,0 F,0,68832,69032,0,0.2996568 M,0,68832,69332,432.2737,206.003 F,0,69132,69332,0.2996568,0 F,0,69332,69532,0,0.2996568 M,0,69332,69832,553.3353,237.3467 F,0,69632,69832,0.2996568,0 F,0,69832,70032,0,0.2996568 M,0,69832,70332,108.7776,248.0254 F,0,70132,70332,0.2996568,0 F,0,70332,70532,0,0.2996568 M,0,70332,70832,-2.077335,52.46564 F,0,70632,70832,0.2996568,0 F,0,70832,71032,0,0.2996568 M,0,70832,71332,51.94452,11.9524 F,0,71132,71332,0.2996568,0 F,0,71332,71532,0,0.2996568 M,0,71332,71832,182.2347,211.7872 F,0,71632,71832,0.2996568,0 F,0,71832,72032,0,0.2996568 M,0,71832,72332,59.24152,337.4493 F,0,72132,72332,0.2996568,0 F,0,72332,72532,0,0.2996568 M,0,72332,72832,347.5417,82.68311 F,0,72632,72832,0.2996568,0 F,0,72832,73032,0,0.2996568 M,0,72832,73332,602.1603,311.218 F,0,73132,73332,0.2996568,0 F,0,73332,73532,0,0.2996568 M,0,73332,73832,740.0398,73.88479 F,0,73632,73832,0.2996568,0 F,0,73832,74032,0,0.2996568 M,0,73832,74332,149.4357,283.2756 F,0,74132,74332,0.2996568,0 F,0,74332,74532,0,0.2996568 M,0,74332,74832,727.408,102.941 F,0,74632,74832,0.2996568,0 F,0,74832,75032,0,0.2996568 M,0,74832,75332,352.8839,273.0542 F,0,75132,75332,0.2996568,0 F,0,75332,75532,0,0.2996568 M,0,75332,75832,379.3446,368.6143 F,0,75632,75832,0.2996568,0 F,0,75832,76032,0,0.2996568 M,0,75832,76332,658.6777,365.4022 F,0,76132,76332,0.2996568,0 F,0,76332,76532,0,0.2996568 M,0,76332,76832,175.4532,192.5333 F,0,76632,76832,0.2996568,0 F,0,76832,77032,0,0.2996568 M,0,76832,77332,506.6729,170.634 F,0,77132,77332,0.2996568,0 F,0,77332,77532,0,0.2996568 M,0,77332,77832,222.4326,314.9984 F,0,77632,77832,0.2996568,0 F,0,77832,78032,0,0.2996568 M,0,77832,78332,48.8124,152.4123 F,0,78132,78332,0.2996568,0 F,0,78332,78532,0,0.2996568 M,0,78332,78832,381.6784,172.471 F,0,78632,78832,0.2996568,0 F,0,78832,79032,0,0.2996568 M,0,78832,79332,558.5106,446.0602 F,0,79132,79332,0.2996568,0 F,0,79332,79532,0,0.2996568 M,0,79332,79832,181.3279,326.7332 F,0,79632,79832,0.2996568,0
Sprite,Foreground,Centre,"sb\particle.png",320,240 F,0,59649,,0.2996568 S,0,59649,,0.3 C,0,59649,,104,149,155 F,0,59649,59849,0,0.2996568 M,0,59649,60149,625.9192,326.2795 P,0,59649,79849,A F,0,59949,60149,0.2996568,0 F,0,60165,60365,0,0.2996568 M,0,60165,60665,-102.6598,173.2507 F,0,60465,60665,0.2996568,0 F,0,60682,60882,0,0.2996568 M,0,60682,61182,589.9022,97.25001 F,0,60982,61182,0.2996568,0 F,0,61199,61399,0,0.2996568 M,0,61199,61699,732.8465,461.6598 F,0,61499,61699,0.2996568,0 F,0,61715,61915,0,0.2996568 M,0,61715,62215,-5.022889,412.6238 F,0,62015,62215,0.2996568,0 F,0,62232,62432,0,0.2996568 M,0,62232,62732,417.029,305.8632 F,0,62532,62732,0.2996568,0 F,0,62749,62949,0,0.2996568 M,0,62749,63249,608.5999,203.1166 F,0,63049,63249,0.2996568,0 F,0,63265,63465,0,0.2996568 M,0,63265,63765,49.10522,19.76776 F,0,63565,63765,0.2996568,0 F,0,63782,63982,0,0.2996568 M,0,63782,64282,25.56357,419.4657 F,0,64082,64282,0.2996568,0 F,0,64299,64499,0,0.2996568 M,0,64299,64799,456.5865,106.172 F,0,64599,64799,0.2996568,0 F,0,64815,65015,0,0.2996568 M,0,64815,65315,575.3732,193.4294 F,0,65115,65315,0.2996568,0 F,0,65332,65532,0,0.2996568 M,0,65332,65832,47.9834,23.4279 F,0,65632,65832,0.2996568,0 F,0,65849,66049,0,0.2996568 M,0,65849,66349,7.382706,318.9773 F,0,66149,66349,0.2996568,0 F,0,66349,66549,0,0.2996568 M,0,66349,66849,-65.46438,172.9894 F,0,66649,66849,0.2996568,0 F,0,66849,67049,0,0.2996568 M,0,66849,67349,546.9081,150.1176 F,0,67149,67349,0.2996568,0 F,0,67349,67549,0,0.2996568 M,0,67349,67849,562.1938,70.05052 F,0,67649,67849,0.2996568,0 F,0,67849,68049,0,0.2996568 M,0,67849,68349,276.8156,351.0391 F,0,68149,68349,0.2996568,0 F,0,68349,68549,0,0.2996568 M,0,68349,68849,172.6295,129.0616 F,0,68649,68849,0.2996568,0 F,0,68849,69049,0,0.2996568 M,0,68849,69349,710.1415,375.027 F,0,69149,69349,0.2996568,0 F,0,69349,69549,0,0.2996568 M,0,69349,69849,-62.71859,84.12449 F,0,69649,69849,0.2996568,0 F,0,69849,70049,0,0.2996568 M,0,69849,70349,267.925,234.1685 F,0,70149,70349,0.2996568,0 F,0,70349,70549,0,0.2996568 M,0,70349,70849,138.0305,410.2841 F,0,70649,70849,0.2996568,0 F,0,70849,71049,0,0.2996568 M,0,70849,71349,338.0596,358.4875 F,0,71149,71349,0.2996568,0 F,0,71349,71549,0,0.2996568 M,0,71349,71849,390.3767,50.31448 F,0,71649,71849,0.2996568,0 F,0,71849,72049,0,0.2996568 M,0,71849,72349,479.1648,455.0025 F,0,72149,72349,0.2996568,0 F,0,72349,72549,0,0.2996568 M,0,72349,72849,680.6298,7.681162 F,0,72649,72849,0.2996568,0 F,0,72849,73049,0,0.2996568 M,0,72849,73349,716.4088,446.7865 F,0,73149,73349,0.2996568,0 F,0,73349,73549,0,0.2996568 M,0,73349,73849,501.5297,382.7845 F,0,73649,73849,0.2996568,0 F,0,73849,74049,0,0.2996568 M,0,73849,74349,567.0984,430.1821 F,0,74149,74349,0.2996568,0 F,0,74349,74549,0,0.2996568 M,0,74349,74849,-87.01914,31.8218 F,0,74649,74849,0.2996568,0 F,0,74849,75049,0,0.2996568 M,0,74849,75349,-1.329226,360.4139 F,0,75149,75349,0.2996568,0 F,0,75349,75549,0,0.2996568 M,0,75349,75849,96.59237,248.896 F,0,75649,75849,0.2996568,0 F,0,75849,76049,0,0.2996568 M,0,75849,76349,-94.77139,385.5313 F,0,76149,76349,0.2996568,0 F,0,76349,76549,0,0.2996568 M,0,76349,76849,319.4227,97.89235 F,0,76649,76849,0.2996568,0 F,0,76849,77049,0,0.2996568 M,0,76849,77349,369.628,47.92374 F,0,77149,77349,0.2996568,0 F,0,77349,77549,0,0.2996568 M,0,77349,77849,108.6141,210.8125 F,0,77649,77849,0.2996568,0 F,0,77849,78049,0,0.2996568 M,0,77849,78349,89.4994,466.9786 F,0,78149,78349,0.2996568,0 F,0,78349,78549,0,0.2996568 M,0,78349,78849,401.2011,220.2097 F,0,78649,78849,0.2996568,0 F,0,78849,79049,0,0.2996568 M,0,78849,79349,729.7752,404.3275 F,0,79149,79349,0.2996568,0 F,0,79349,79549,0,0.2996568 M,0,79349,79849,165.9433,386.9739 F,0,79649,79849,0.2996568,0
Sprite,Foreground,Centre,"sb\particle.png",320,240 F,0,59665,,0.2996568 S,0,59665,,0.3 C,0,59665,,104,149,155 F,0,59665,59865,0,0.2996568 M,0,59665,60165,426.6357,104.8353 P,0,59665,65849,A F,0,59965,60165,0.2996568,0 F,0,60182,60382,0,0.2996568 M,0,60182,60682,619.3141,29.90804 F,0,60482,60682,0.2996568,0 F,0,60699,60899,0,0.2996568 M,0,60699,61199,673.2394,14.19696 F,0,60999,61199,0.2996568,0 F,0,61215,61415,0,0.2996568 M,0,61215,61715,27.20049,370.6833 F,0,61515,61715,0.2996568,0 F,0,61732,61932,0,0.2996568 M,0,61732,62232,373.2724,337.0502 F,0,62032,62232,0.2996568,0 F,0,62249,62449,0,0.2996568 M,0,62249,62749,380.2621,391.78 F,0,62549,62749,0.2996568,0 F,0,62765,62965,0,0.2996568 M,0,62765,63265,666.5483,196.6019 F,0,63065,63265,0.2996568,0 F,0,63282,63482,0,0.2996568 M,0,63282,63782,647.7737,314.0752 F,0,63582,63782,0.2996568,0 F,0,63799,63999,0,0.2996568 M,0,63799,64299,237.578,427.199 F,0,64099,64299,0.2996568,0 F,0,64315,64515,0,0.2996568 M,0,64315,64815,359.4839,80.84386 F,0,64615,64815,0.2996568,0 F,0,64832,65032,0,0.2996568 M,0,64832,65332,242.9525,108.3881 F,0,65132,65332,0.2996568,0 F,0,65349,65549,0,0.2996568 M,0,65349,65849,231.6046,68.2179 F,0,65649,65849,0.2996568,0
Sprite,Foreground,Centre,"sb\particle.png",320,240 F,0,38296,,0.6355585 C,0,38296,,255,48,48 F,2,38296,38496,0,0.6355585 M,2,38296,40296,590.9958,368.6509 S,2,38296,40296,0.2116322,0.1412066 P,0,38296,57296,A F,2,40096,40296,0.6355585,0 F,1,40421,40621,0,0.6355585 M,1,40421,42421,604.8063,388.4178 S,1,40421,42421,0.2587261,0.2529012 F,1,42221,42421,0.6355585,0 F,1,42546,42746,0,0.6355585 M,1,42546,44546,-51.95656,223.5375 S,1,42546,44546,0.1966148,0.1432612 F,1,44346,44546,0.6355585,0 F,2,44671,44871,0,0.6355585 M,2,44671,46671,382.3203,115.9843 S,2,44671,46671,0.2674387,0.2719162 F,2,46471,46671,0.6355585,0 F,1,46796,46996,0,0.6355585 M,1,46796,48796,459.0976,288.2541 S,1,46796,48796,0.2863995,0.2825122 F,1,48596,48796,0.6355585,0 F,1,48921,49121,0,0.6355585 M,1,48921,50921,490.7473,339.4351 S,1,48921,50921,0.1928219,0.208918 F,1,50721,50921,0.6355585,0 F,2,51046,51246,0,0.6355585 M,2,51046,53046,377.7906,295.0323 S,2,51046,53046,0.2433461,0.2932385 F,2,52846,53046,0.6355585,0 F,1,53171,53371,0,0.6355585 M,1,53171,55171,161.7367,35.21427 S,1,53171,55171,0.1775029,0.2060655 F,1,54971,55171,0.6355585,0 F,1,55296,55496,0,0.6355585 M,1,55296,57296,85.84046,110.2358 S,1,55296,57296,0.1258027,0.1151679 F,1,57096,57296,0.6355585,0
Sprite,Foreground,Centre,"sb\particle.png",320,240 F,0,38421,,0.6355585 C,0,38421,,255,48,48 F,2,38421,38621,0,0.6355585 M,2,38421,40421,666.7471,212.2454 S,2,38421,40421,0.29551,0.1547409 P,0,38421,57421,A F,2,40221,40421,0.6355585,0 F,2,40546,40746,0,0.6355585 M,2,40546,42546,144.9273,250.937 S,2,40546,42546,0.2326786,0.1665178 F,2,42346,42546,0.6355585,0 F,1,42671,42871,0,0.6355585 M,1,42671,44671,89.62554,72.39967 S,1,42671,44671,0.18938,0.1902159 F,1,44471,44671,0.6355585,0 F,1,44796,44996,0,0.6355585 M,1,44796,46796,667.693,385.5208 S,1,44796,46796,0.1920489,0.1680965 F,1,46596,46796,0.6355585,0 F,1,46921,47121,0,0.6355585 M,1,46921,48921,474.1547,164.4832 S,1,46921,48921,0.1933437,0.2598517 F,1,48721,48921,0.6355585,0 F,2,49046,49246,0,0.6355585 M,2,49046,51046,254.3783,434.7813 S,2,49046,51046,0.1819175,0.2631013 F,2,50846,51046,0.6355585,0 F,2,51171,51371,0,0.6355585 M,2,51171,53171,478.3029,476.3575 S,2,51171,53171,0.2406402,0.236017 F,2,52971,53171,0.6355585,0 F,1,53296,53496,0,0.6355585 M,1,53296,55296,0.4786885,72.51739 S,1,53296,55296,0.2959368,0.1531074 F,1,55096,55296,0.6355585,0 F,2,55421,55621,0,0.6355585 M,2,55421,57421,519.5198,266.1183 S,2,55421,57421,0.1090353,0.1798225 F,2,57221,57421,0.6355585,0
Sprite,Foreground,Centre,"sb\particle.png",320,240 F,0,38546,,0.6355585 C,0,38546,,255,48,48 F,1,38546,38746,0,0.6355585 M,1,38546,40546,292.0868,303.6764 S,1,38546,40546,0.1939024,0.2964303 P,0,38546,57546,A F,1,40346,40546,0.6355585,0 F,1,40671,40871,0,0.6355585 M,1,40671,42671,593.801,106.8086 S,1,40671,42671,0.1373743,0.1137038 F,1,42471,42671,0.6355585,0 F,1,42796,42996,0,0.6355585 M,1,42796,44796,225.0675,391.7015 S,1,42796,44796,0.1405208,0.2827258 F,1,44596,44796,0.6355585,0 F,2,44921,45121,0,0.6355585 M,2,44921,46921,257.5678,310.6433 S,2,44921,46921,0.2998012,0.2217864 F,2,46721,46921,0.6355585,0 F,1,47046,47246,0,0.6355585 M,1,47046,49046,669.3235,249.4339 S,1,47046,49046,0.2724123,0.2899334 F,1,48846,49046,0.6355585,0 F,2,49171,49371,0,0.6355585 M,2,49171,51171,534.7647,112.4628 S,2,49171,51171,0.2847222,0.2169121 F,2,50971,51171,0.6355585,0 F,2,51296,51496,0,0.6355585 M,2,51296,53296,-56.49334,308.0938 S,2,51296,53296,0.2312357,0.2864634 F,2,53096,53296,0.6355585,0 F,1,53421,53621,0,0.6355585 M,1,53421,55421,591.2731,202.9779 S,1,53421,55421,0.2906339,0.1023468 F,1,55221,55421,0.6355585,0 F,2,55546,55746,0,0.6355585 M,2,55546,57546,1.379056,184.5697 S,2,55546,57546,0.2539415,0.1707662 F,2,57346,57546,0.6355585,0
Sprite,Foreground,Centre,"sb\particle.png",320,240 F,0,38671,,0.6355585 C,0,38671,,255,48,48 F,1,38671,38871,0,0.6355585 M,1,38671,40671,629.4641,477.7666 S,1,38671,40671,0.2354362,0.1629184 P,0,38671,57671,A F,1,40471,40671,0.6355585,0 F,2,40796,40996,0,0.6355585 M,2,40796,42796,484.8605,302.5893 S,2,40796,42796,0.2855275,0.1442684 F,2,42596,42796,0.6355585,0 F,1,42921,43121,0,0.6355585 M,1,42921,44921,328.08,462.187 S,1,42921,44921,0.2987143,0.103374 F,1,44721,44921,0.6355585,0 F,1,45046,45246,0,0.6355585 M,1,45046,47046,425.76,475.5125 S,1,45046,47046,0.2746328,0.2079088 F,1,46846,47046,0.6355585,0 F,1,47171,47371,0,0.6355585 M,1,47171,49171,317.4225,157.19 S,1,47171,49171,0.1376043,0.1522906 F,1,48971,49171,0.6355585,0 F,2,49296,49496,0,0.6355585 M,2,49296,51296,-62.53968,263.7551 S,2,49296,51296,0.1320629,0.2931944 F,2,51096,51296,0.6355585,0 F,1,51421,51621,0,0.6355585 M,1,51421,53421,-14.76783,379.6661 S,1,51421,53421,0.2813226,0.1148759 F,1,53221,53421,0.6355585,0 F,2,53546,53746,0,0.6355585 M,2,53546,55546,100.0692,190.2612 S,2,53546,55546,0.2380941,0.1127002 F,2,55346,55546,0.6355585,0 F,1,55671,55871,0,0.6355585 M,1,55671,57671,189.3076,301.469 S,1,55671,57671,0.2885316,0.2418174 F,1,57471,57671,0.6355585,0
Sprite,Foreground,Centre,"sb\particle.png",320,240 F,0,38796,,0.6355585 C,0,38796,,255,48,48 F,2,38796,38996,0,0.6355585 M,2,38796,40796,617.2362,476.113 S,2,38796,40796,0.106525,0.2399884 P,0,38796,57796,A F,2,40596,40796,0.6355585,0 F,2,40921,41121,0,0.6355585 M,2,40921,42921,-50.19056,432.05 S,2,40921,42921,0.2357011,0.1187956 F,2,42721,42921,0.6355585,0 F,2,43046,43246,0,0.6355585 M,2,43046,45046,130.6934,464.2405 S,2,43046,45046,0.2175585,0.2544403 F,2,44846,45046,0.6355585,0 F,1,45171,45371,0,0.6355585 M,1,45171,47171,-105.2941,267.5834 S,1,45171,47171,0.2344385,0.1758473 F,1,46971,47171,0.6355585,0 F,2,47296,47496,0,0.6355585 M,2,47296,49296,395.9135,435.8734 S,2,47296,49296,0.1720466,0.2513602 F,2,49096,49296,0.6355585,0 F,1,49421,49621,0,0.6355585 M,1,49421,51421,260.2459,443.2657 S,1,49421,51421,0.1110183,0.228122 F,1,51221,51421,0.6355585,0 F,1,51546,51746,0,0.6355585 M,1,51546,53546,684.0828,376.1559 S,1,51546,53546,0.1585081,0.1803492 F,1,53346,53546,0.6355585,0 F,1,53671,53871,0,0.6355585 M,1,53671,55671,456.5865,106.172 S,1,53671,55671,0.2092468,0.1336849 F,1,55471,55671,0.6355585,0 F,2,55796,55996,0,0.6355585 M,2,55796,57796,329.2505,388.5897 S,2,55796,57796,0.1499934,0.1534909 F,2,57596,57796,0.6355585,0
Sprite,Foreground,Centre,"sb\particle.png",320,240 F,0,38921,,0.6355585 C,0,38921,,255,48,48 F,2,38921,39121,0,0.6355585 M,2,38921,40921,690.6519,330.0577 S,2,38921,40921,0.2093631,0.116222 P,0,38921,55796,A F,2,40721,40921,0.6355585,0 F,1,41046,41246,0,0.6355585 M,1,41046,43046,-15.64549,292.7377 S,1,41046,43046,0.2906086,0.198125 F,1,42846,43046,0.6355585,0 F,1,43171,43371,0,0.6355585 M,1,43171,45171,252.0432,467.9678 S,1,43171,45171,0.2771999,0.2945774 F,1,44971,45171,0.6355585,0 F,2,45296,45496,0,0.6355585 M,2,45296,47296,170.5747,377.5847 S,2,45296,47296,0.203992,0.2659273 F,2,47096,47296,0.6355585,0 F,2,47421,47621,0,0.6355585 M,2,47421,49421,-5.044554,49.21945 S,2,47421,49421,0.2227234,0.227443 F,2,49221,49421,0.6355585,0 F,1,49546,49746,0,0.6355585 M,1,49546,51546,746.1829,415.3501 S,1,49546,51546,0.1909477,0.2333537 F,1,51346,51546,0.6355585,0 F,2,51671,51871,0,0.6355585 M,2,51671,53671,89.6692,56.59443 S,2,51671,53671,0.2132646,0.1439531 F,2,53471,53671,0.6355585,0 F,2,53796,53996,0,0.6355585 M,2,53796,55796,714.2087,88.70199 S,2,53796,55796,0.2574251,0.2255814 F,2,55596,55796,0.6355585,0
Sprite,Foreground,Centre,"sb\particle.png",320,240 F,0,39046,,0.6355585 C,0,39046,,255,48,48 F,1,39046,39246,0,0.6355585 M,1,39046,41046,280.1414,142.6425 S,1,39046,41046,0.2977087,0.2285395 P,0,39046,55921,A F,1,40846,41046,0.6355585,0 F,1,41171,41371,0,0.6355585 M,1,41171,43171,471.6803,273.5336 S,1,41171,43171,0.1450806,0.2236364 F,1,42971,43171,0.6355585,0 F,1,43296,43496,0,0.6355585 M,1,43296,45296,5.954066,430.6816 S,1,43296,45296,0.1356442,0.2765784 F,1,45096,45296,0.6355585,0 F,2,45421,45621,0,0.6355585 M,2,45421,47421,339.2242,78.19642 S,2,45421,47421,0.2268371,0.2106468 F,2,47221,47421,0.6355585,0 F,2,47546,47746,0,0.6355585 M,2,47546,49546,590.042,414.9388 S,2,47546,49546,0.1479266,0.1754979 F,2,49346,49546,0.6355585,0 F,1,49671,49871,0,0.6355585 M,1,49671,51671,740.7336,330.6563 S,1,49671,51671,0.1103009,0.2764856 F,1,51471,51671,0.6355585,0 F,2,51796,51996,0,0.6355585 M,2,51796,53796,305.4452,348.0094 S,2,51796,53796,0.1961689,0.1325116 F,2,53596,53796,0.6355585,0 F,1,53921,54121,0,0.6355585 M,1,53921,55921,-63.10468,382.1389 S,1,53921,55921,0.1345371,0.2423981 F,1,55721,55921,0.6355585,0
Sprite,Foreground,Centre,"sb\particle.png",320,240 F,0,39171,,0.6355585 C,0,39171,,255,48,48 F,2,39171,39371,0,0.6355585 M,2,39171,41171,-81.04327,182.8822 S,2,39171,41171,0.1686284,0.291491 P,0,39171,56046,A F,2,40971,41171,0.6355585,0 F,1,41296,41496,0,0.6355585 M,1,41296,43296,201.2419,408.2328 S,1,41296,43296,0.1124617,0.1563295 F,1,43096,43296,0.6355585,0 F,2,43421,43621,0,0.6355585 M,2,43421,45421,563.4286,246.7395 S,2,43421,45421,0.1704767,0.2983494 F,2,45221,45421,0.6355585,0 F,1,45546,45746,0,0.6355585 M,1,45546,47546,106.4578,384.3025 S,1,45546,47546,0.1920263,0.2843201 F,1,47346,47546,0.6355585,0 F,2,47671,47871,0,0.6355585 M,2,47671,49671,459.5913,38.87556 S,2,47671,49671,0.2066422,0.2990443 F,2,49471,49671,0.6355585,0 F,2,49796,49996,0,0.6355585 M,2,49796,51796,181.1666,391.6374 S,2,49796,51796,0.2879964,0.2037962 F,2,51596,51796,0.6355585,0 F,1,51921,52121,0,0.6355585 M,1,51921,53921,275.5605,223.71 S,1,51921,53921,0.1149981,0.2919055 F,1,53721,53921,0.6355585,0 F,2,54046,54246,0,0.6355585 M,2,54046,56046,115.6879,371.2814 S,2,54046,56046,0.2926586,0.2348883 F,2,55846,56046,0.6355585,0
Sprite,Foreground,Centre,"sb\particle.png",320,240 F,0,39296,,0.6355585 C,0,39296,,255,48,48 F,2,39296,39496,0,0.6355585 M,2,39296,41296,504.4405,57.09971 S,2,39296,41296,0.1546903,0.2814196 P,0,39296,56171,A F,2,41096,41296,0.6355585,0 F,2,41421,41621,0,0.6355585 M,2,41421,43421,711.6276,474.6299 S,2,41421,43421,0.1774274,0.204548 F,2,43221,43421,0.6355585,0 F,1,43546,43746,0,0.6355585 M,1,43546,45546,483.7352,58.16933 S,1,43546,45546,0.1389821,0.1993034 F,1,45346,45546,0.6355585,0 F,1,45671,45871,0,0.6355585 M,1,45671,47671,57.18345,72.12564 S,1,45671,47671,0.2322684,0.1410583 F,1,47471,47671,0.6355585,0 F,1,47796,47996,0,0.6355585 M,1,47796,49796,303.3788,30.62446 S,1,47796,49796,0.130461,0.2970499 F,1,49596,49796,0.6355585,0 F,1,49921,50121,0,0.6355585 M,1,49921,51921,328.7081,184.6469 S,1,49921,51921,0.1754587,0.2041862 F,1,51721,51921,0.6355585,0 F,2,52046,52246,0,0.6355585 M,2,52046,54046,101.1527,435.0271 S,2,52046,54046,0.2922497,0.1310453 F,2,53846,54046,0.6355585,0 F,2,54171,54371,0,0.6355585 M,2,54171,56171,312.1942,353.4225 S,2,54171,56171,0.2363096,0.2407854 F,2,55971,56171,0.6355585,0
Sprite,Foreground,Centre,"sb\particle.png",320,240 F,0,39421,,0.6355585 C,0,39421,,255,48,48 F,2,39421,39621,0,0.6355585 M,2,39421,41421,180.9349,219.4602 S,2,39421,41421,0.129365,0.144263 P,0,39421,56296,A F,2,41221,41421,0.6355585,0 F,1,41546,41746,0,0.6355585 M,1,41546,43546,325.616,255.158 S,1,41546,43546,0.1114017,0.1561107 F,1,43346,43546,0.6355585,0 F,2,43671,43871,0,0.6355585 M,2,43671,45671,116.4614,148.9743 S,2,43671,45671,0.1484272,0.2568151 F,2,45471,45671,0.6355585,0 F,2,45796,45996,0,0.6355585 M,2,45796,47796,328.5143,371.1605 S,2,45796,47796,0.1964687,0.1202415 F,2,47596,47796,0.6355585,0 F,1,47921,48121,0,0.6355585 M,1,47921,49921,176.598,16.34973 S,1,47921,49921,0.2034469,0.2146856 F,1,49721,49921,0.6355585,0 F,1,50046,50246,0,0.6355585 M,1,50046,52046,141.3374,399.4339 S,1,50046,52046,0.2580846,0.2457406 F,1,51846,52046,0.6355585,0 F,2,52171,52371,0,0.6355585 M,2,52171,54171,237.578,427.199 S,2,52171,54171,0.2203687,0.2872715 F,2,53971,54171,0.6355585,0 F,1,54296,54496,0,0.6355585 M,1,54296,56296,402.9656,417.2351 S,1,54296,56296,0.125116,0.2976187 F,1,56096,56296,0.6355585,0
Sprite,Foreground,Centre,"sb\particle.png",320,240 F,0,39546,,0.6355585 C,0,39546,,255,48,48 F,1,39546,39746,0,0.6355585 M,1,39546,41546,506.7927,297.5185 S,1,39546,41546,0.1975936,0.1389827 P,0,39546,56421,A F,1,41346,41546,0.6355585,0 F,1,41671,41871,0,0.6355585 M,1,41671,43671,615.8388,294.3158 S,1,41671,43671,0.1208317,0.2484658 F,1,43471,43671,0.6355585,0 F,1,43796,43996,0,0.6355585 M,1,43796,45796,416.0782,268.4593 S,1,43796,45796,0.2311239,0.1682056 F,1,45596,45796,0.6355585,0 F,1,45921,46121,0,0.6355585 M,1,45921,47921,-5.022889,412.6238 S,1,45921,47921,0.212476,0.2404376 F,1,47721,47921,0.6355585,0 F,2,48046,48246,0,0.6355585 M,2,48046,50046,84.55105,55.80962 S,2,48046,50046,0.1314599,0.2551047 F,2,49846,50046,0.6355585,0 F,1,50171,50371,0,0.6355585 M,1,50171,52171,350.6023,203.996 S,1,50171,52171,0.1148434,0.1669548 F,1,51971,52171,0.6355585,0 F,2,52296,52496,0,0.6355585 M,2,52296,54296,214.0341,80.77293 S,2,52296,54296,0.2303313,0.118666 F,2,54096,54296,0.6355585,0 F,1,54421,54621,0,0.6355585 M,1,54421,56421,699.1046,396.2838 S,1,54421,56421,0.2132929,0.1087345 F,1,56221,56421,0.6355585,0
Sprite,Foreground,Centre,"sb\particle.png",320,240 F,0,39671,,0.6355585 C,0,39671,,255,48,48 F,2,39671,39871,0,0.6355585 M,2,39671,41671,597.9114,352.9908 S,2,39671,41671,0.2716438,0.2359498 P,0,39671,56546,A F,2,41471,41671,0.6355585,0 F,1,41796,41996,0,0.6355585 M,1,41796,43796,690.1173,62.7352 S,1,41796,43796,0.2399305,0.2230817 F,1,43596,43796,0.6355585,0 F,1,43921,44121,0,0.6355585 M,1,43921,45921,-23.91782,421.3971 S,1,43921,45921,0.2421745,0.2784278 F,1,45721,45921,0.6355585,0 F,2,46046,46246,0,0.6355585 M,2,46046,48046,-93.75514,273.3319 S,2,46046,48046,0.1915914,0.2986826 F,2,47846,48046,0.6355585,0 F,2,48171,48371,0,0.6355585 M,2,48171,50171,537.6061,115.3422 S,2,48171,50171,0.1350393,0.1247247 F,2,49971,50171,0.6355585,0 F,2,50296,50496,0,0.6355585 M,2,50296,52296,556.1039,312.9913 S,2,50296,52296,0.2646999,0.1473562 F,2,52096,52296,0.6355585,0 F,2,52421,52621,0,0.6355585 M,2,52421,54421,562.5466,154.6127 S,2,52421,54421,0.1629969,0.1190613 F,2,54221,54421,0.6355585,0 F,2,54546,54746,0,0.6355585 M,2,54546,56546,-27.16098,253.0219 S,2,54546,56546,0.143818,0.2836234 F,2,56346,56546,0.6355585,0
Sprite,Foreground,Centre,"sb\particle.png",320,240 F,0,39796,,0.6355585 C,0,39796,,255,48,48 F,2,39796,39996,0,0.6355585 M,2,39796,41796,79.51939,429.774 S,2,39796,41796,0.279288,0.117316 P,0,39796,56671,A F,2,41596,41796,0.6355585,0 F,2,41921,42121,0,0.6355585 M,2,41921,43921,478.0981,273.4764 S,2,41921,43921,0.1345535,0.1369065 F,2,43721,43921,0.6355585,0 F,2,44046,44246,0,0.6355585 M,2,44046,46046,111.0327,127.1199 S,2,44046,46046,0.1948025,0.139181 F,2,45846,46046,0.6355585,0 F,1,46171,46371,0,0.6355585 M,1,46171,48171,-4.093199,135.94 S,1,46171,48171,0.2261216,0.2598561 F,1,47971,48171,0.6355585,0 F,1,48296,48496,0,0.6355585 M,1,48296,50296,386.5851,349.947 S,1,48296,50296,0.2659007,0.1457388 F,1,50096,50296,0.6355585,0 F,2,50421,50621,0,0.6355585 M,2,50421,52421,369.4012,216.5067 S,2,50421,52421,0.2485638,0.244223 F,2,52221,52421,0.6355585,0 F,2,52546,52746,0,0.6355585 M,2,52546,54546,377.612,204.5225 S,2,52546,54546,0.1966871,0.1016157 F,2,54346,54546,0.6355585,0 F,1,54671,54871,0,0.6355585 M,1,54671,56671,696.6631,174.6971 S,1,54671,56671,0.1703553,0.2823681 F,1,56471,56671,0.6355585,0
Sprite,Foreground,Centre,"sb\particle.png",320,240 F,0,39921,,0.6355585 C,0,39921,,255,48,48 F,2,39921,40121,0,0.6355585 M,2,39921,41921,38.30198,309.1754 S,2,39921,41921,0.2653629,0.1438375 P,0,39921,56796,A F,2,41721,41921,0.6355585,0 F,2,42046,42246,0,0.6355585 M,2,42046,44046,107.1391,478.6151 S,2,42046,44046,0.2137379,0.1126873 F,2,43846,44046,0.6355585,0 F,2,44171,44371,0,0.6355585 M,2,44171,46171,312.8132,306.1553 S,2,44171,46171,0.1639424,0.1737944 F,2,45971,46171,0.6355585,0 F,1,46296,46496,0,0.6355585 M,1,46296,48296,118.4433,6.234306 S,1,46296,48296,0.1891544,0.1588644 F,1,48096,48296,0.6355585,0 F,1,48421,48621,0,0.6355585 M,1,48421,50421,-68.92175,134.4099 S,1,48421,50421,0.1969144,0.171384 F,1,50221,50421,0.6355585,0 F,2,50546,50746,0,0.6355585 M,2,50546,52546,-53.52797,87.74064 S,2,50546,52546,0.1082366,0.276762 F,2,52346,52546,0.6355585,0 F,1,52671,52871,0,0.6355585 M,1,52671,54671,178.3399,77.28835 S,1,52671,54671,0.1987241,0.2822746 F,1,54471,54671,0.6355585,0 F,1,54796,54996,0,0.6355585 M,1,54796,56796,-88.61565,120.0888 S,1,54796,56796,0.1482359,0.1365844 F,1,56596,56796,0.6355585,0
Sprite,Foreground,Centre,"sb\particle.png",320,240 F,0,40046,,0.6355585 C,0,40046,,255,48,48 F,2,40046,40246,0,0.6355585 M,2,40046,42046,304.0863,313.0585 S,2,40046,42046,0.2439452,0.2618925 P,0,40046,56921,A F,2,41846,42046,0.6355585,0 F,1,42171,42371,0,0.6355585 M,1,42171,44171,612.5463,272.6813 S,1,42171,44171,0.229198,0.2032732 F,1,43971,44171,0.6355585,0 F,1,44296,44496,0,0.6355585 M,1,44296,46296,743.0892,293.043 S,1,44296,46296,0.1003649,0.2966854 F,1,46096,46296,0.6355585,0 F,2,46421,46621,0,0.6355585 M,2,46421,48421,596.0219,254.6494 S,2,46421,48421,0.2903126,0.1404294 F,2,48221,48421,0.6355585,0 F,2,48546,48746,0,0.6355585 M,2,48546,50546,248.2564,381.2488 S,2,48546,50546,0.13856,0.1204416 F,2,50346,50546,0.6355585,0 F,2,50671,50871,0,0.6355585 M,2,50671,52671,94.67212,292.5636 S,2,50671,52671,0.2282667,0.2563352 F,2,52471,52671,0.6355585,0 F,2,52796,52996,0,0.6355585 M,2,52796,54796,441.2148,343.6708 S,2,52796,54796,0.2894171,0.1210845 F,2,54596,54796,0.6355585,0 F,1,54921,55121,0,0.6355585 M,1,54921,56921,293.4977,207.8805 S,1,54921,56921,0.1032059,0.1632996 F,1,56721,56921,0.6355585,0
Sprite,Foreground,Centre,"sb\particle.png",320,240 F,0,40171,,0.6355585 C,0,40171,,255,48,48 F,1,40171,40371,0,0.6355585 M,1,40171,42171,515.6463,344.8563 S,1,40171,42171,0.1251055,0.2810353 P,0,40171,57046,A F,1,41971,42171,0.6355585,0 F,2,42296,42496,0,0.6355585 M,2,42296,44296,-40.63635,246.2243 S,2,42296,44296,0.1311531,0.2627305 F,2,44096,44296,0.6355585,0 F,2,44421,44621,0,0.6355585 M,2,44421,46421,27.20049,370.6833 S,2,44421,46421,0.1182551,0.1381825 F,2,46221,46421,0.6355585,0 F,2,46546,46746,0,0.6355585 M,2,46546,48546,620.3824,430.1393 S,2,46546,48546,0.1933802,0.2688679 F,2,48346,48546,0.6355585,0 F,1,48671,48871,0,0.6355585 M,1,48671,50671,341.4274,362.7671 S,1,48671,50671,0.1749967,0.2440916 F,1,50471,50671,0.6355585,0 F,2,50796,50996,0,0.6355585 M,2,50796,52796,-68.27174,262.1647 S,2,50796,52796,0.206832,0.1514353 F,2,52596,52796,0.6355585,0 F,2,52921,53121,0,0.6355585 M,2,52921,54921,-89.90281,394.7567 S,2,52921,54921,0.1274628,0.2055718 F,2,54721,54921,0.6355585,0 F,2,55046,55246,0,0.6355585 M,2,55046,57046,681.7889,259.0289 S,2,55046,57046,0.2684615,0.1122339 F,2,56846,57046,0.6355585,0
Sprite,Foreground,Centre,"sb\particle.png",320,240 F,0,40296,,0.6355585 C,0,40296,,255,48,48 F,1,40296,40496,0,0.6355585 M,1,40296,42296,300.1956,259.5817 S,1,40296,42296,0.1651001,0.2342073 P,0,40296,57171,A F,1,42096,42296,0.6355585,0 F,2,42421,42621,0,0.6355585 M,2,42421,44421,384.386,265.3737 S,2,42421,44421,0.2344978,0.2989093 F,2,44221,44421,0.6355585,0 F,1,44546,44746,0,0.6355585 M,1,44546,46546,-13.00697,351.7426 S,1,44546,46546,0.1203848,0.2679655 F,1,46346,46546,0.6355585,0 F,1,46671,46871,0,0.6355585 M,1,46671,48671,364.2183,146.0599 S,1,46671,48671,0.1837505,0.178195 F,1,48471,48671,0.6355585,0 F,1,48796,48996,0,0.6355585 M,1,48796,50796,-34.13345,280.947 S,1,48796,50796,0.1080378,0.2555998 F,1,50596,50796,0.6355585,0 F,1,50921,51121,0,0.6355585 M,1,50921,52921,35.52342,35.94714 S,1,50921,52921,0.2452072,0.1523948 F,1,52721,52921,0.6355585,0 F,1,53046,53246,0,0.6355585 M,1,53046,55046,183.6109,247.7096 S,1,53046,55046,0.2259931,0.16215 F,1,54846,55046,0.6355585,0 F,1,55171,55371,0,0.6355585 M,1,55171,57171,-28.12213,28.42367 S,1,55171,57171,0.2598064,0.1805956 F,1,56971,57171,0.6355585,0
//Storyboard Sound Samples

[TimingPoints]
1775,652.173913043478,4,1,1,5,1,0
1775,-100,4,1,1,5,0,0
2427,-100,4,1,1,10,0,0
3079,-100,4,1,1,20,0,0
3731,-100,4,1,1,30,0,0
4383,-100,4,1,1,40,0,0
5688,-100,4,1,1,50,0,0
6340,-100,4,1,1,60,0,0
6829,-100,4,1,1,5,0,0
6992,-66.6666666666667,4,1,1,75,0,0
38296,-100,4,2,1,65,0,0
48731,-80,4,2,1,70,0,0
59167,326.086956521739,4,2,1,75,1,1
59167,-100,4,2,1,75,0,1
74819,-125,4,2,1,70,0,1
80036,652.173913043478,4,1,1,75,1,0
80036,-66.6666666666667,4,1,1,75,0,0

[Colours]
Combo1 : 0,85,170
Combo2 : 179,102,255
Combo3 : 255,128,128
Combo4 : 255,168,255
Combo5 : 255,203,45

[HitObjects]
256,192,1775,12,0,6829,0:0:0:0:
48,96,6992,6,0,B|96:80|96:80|204:92,1,150.000005722046,6|0,0:0|0:0,0:0:0:0:
392,112,7481,1,0,2:0:0:0:
104,168,7644,2,0,L|96:332,1,150.000005722046,8|0,0:0|2:0,0:0:0:0:
212,92,8133,1,0,0:0:0:0:
24,224,8296,5,2,0:2:0:0:
304,280,8459,2,0,L|224:276,1,75.0000028610231,0|0,2:0|0:0,0:0:0:0:
432,216,8785,1,0,2:0:0:0:
108,272,8948,2,0,L|272:280,1,150.000005722046,8|0,0:0|2:0,0:0:0:0:
60,184,9438,2,0,L|56:144,1,37.5000014305115,0|0,0:0|2:0,0:0:0:0:
180,72,9601,6,0,B|236:68|236:68|276:80|276:80|340:76,1,150.000005722046,2|0,0:2|2:0,0:0:0:0:
72,40,10090,1,0,0:0:0:0:
328,184,10253,2,0,B|340:288|340:288|320:344,1,150.000005722046,8|0,0:0|0:0,0:0:0:0:
96,232,10742,1,0,0:0:0:0:
268,132,10905,6,0,P|340:108|400:152,1,150.000005722046,2|0,0:2|2:0,0:0:0:0:
96,232,11394,1,0,0:0:0:0:
72,52,11557,2,0,L|64:140,1,75.0000028610231,8|0,0:0|0:0,0:0:0:0:
44,316,11883,1,0,0:0:0:0:
228,240,12046,2,0,L|276:236,1,37.5000014305115,0|0,0:0|2:0,0:0:0:0:
408,184,12209,6,0,B|440:192|444:224|444:224|404:256|416:312,1,150.000005722046,2|0,0:2|0:0,0:0:0:0:
414,306,12698,1,0,2:0:0:0:
148,348,12861,2,0,L|300:344,1,150.000005722046,8|0,0:0|2:0,0:0:0:0:
72,272,13351,1,0,0:0:0:0:
144,112,13514,6,0,B|152:148|152:148|136:192,1,75.0000028610231,2|0,0:2|2:0,0:0:0:0:
72,272,13840,1,0,0:0:0:0:
360,264,14003,1,0,0:0:0:0:
141,327,14166,2,0,B|161:283|161:283|137:175,1,150.000005722046,8|0,0:0|2:0,0:0:0:0:
24,268,14655,2,0,L|72:272,1,37.5000014305115,0|0,0:0|2:0,0:0:0:0:
212,280,14818,6,0,P|276:276|376:272,1,150.000005722046,2|0,0:2|0:0,0:0:0:0:
456,72,15307,1,0,0:0:0:0:
240,144,15470,2,0,P|168:168|100:112,1,150.000005722046,8|0,0:0|0:0,0:0:0:0:
180,80,15959,6,0,L|168:248,2,150.000005722046,2|0|0,0:2|0:0|0:0,0:0:0:0:
180,80,16774,1,8,0:0:0:0:
412,136,16938,1,0,2:0:0:0:
172,76,17101,1,0,0:0:0:0:
52,138,17264,1,0,0:0:0:0:
56,288,17427,6,0,L|52:128,1,150.000005722046,6|0,0:2|2:0,0:0:0:0:
128,56,17916,1,0,0:0:0:0:
234,255,18079,2,0,L|146:251,1,75.0000028610231,0|0,0:0|2:0,0:0:0:0:
320,184,18405,1,0,0:0:0:0:
272,96,18568,1,0,2:0:0:0:
160,252,18731,6,0,B|144:200|144:200|164:100,1,150.000005722046,2|0,0:2|2:0,0:0:0:0:
372,344,19220,2,0,B|320:340|320:340|284:316|284:316|228:312,1,150.000005722046,0|0,0:0|2:0,0:0:0:0:
428,200,19709,2,0,L|424:284,1,75.0000028610231,0|0,0:0|2:0,0:0:0:0:
180,248,20035,6,0,L|172:92,1,150.000005722046,2|0,0:2|0:0,0:0:0:0:
64,336,20524,2,0,B|103:328|115:288|115:288|135:320|179:324,2,150.000005722046
36,112,21340,5,2,0:2:0:0:
64,336,21503,1,0,0:0:0:0:
248,216,21666,2,0,L|328:220,1,75.0000028610231,0|0,0:0|2:0,0:0:0:0:
96,188,21992,1,8,0:0:0:0:
208,76,22155,1,0,0:0:0:0:
322,219,22318,2,0,B|358:211|358:211|402:227,1,75.0000028610231
164,244,22644,6,0,B|120:252|120:252|16:240,1,150.000005722046,2|0,0:2|2:0,0:0:0:0:
260,203,23133,2,0,P|336:187|396:227,1,150.000005722046,0|0,0:0|2:0,0:0:0:0:
216,336,23622,2,0,L|136:328,1,75.0000028610231,0|0,0:0|2:0,0:0:0:0:
188,108,23948,6,0,L|196:272,1,150.000005722046,2|0,0:2|2:0,0:0:0:0:
300,324,24438,2,0,B|352:344|400:300|400:300|396:328|372:352,1,150.000005722046,0|0,0:0|2:0,0:0:0:0:
136,296,24927,2,0,P|124:264|132:216,1,75.0000028610231,0|0,0:0|2:0,0:0:0:0:
256,56,25253,6,0,P|312:36|376:112,1,150.000005722046,2|0,0:2|2:0,0:0:0:0:
184,144,25742,1,0,0:0:0:0:
336,256,25905,2,0,L|340:168,1,75.0000028610231,0|0,2:0|0:0,0:0:0:0:
136,324,26231,1,0,2:0:0:0:
96,68,26394,6,0,L|104:220,1,150.000005722046,0|0,0:0|2:0,0:0:0:0:
252,148,26883,1,0,2:0:0:0:
56,56,27046,1,0,0:0:0:0:
103,217,27209,2,0,L|99:305,1,75.0000028610231,8|0,0:0|2:0,0:0:0:0:
248,348,27535,1,0,0:0:0:0:
268,344,27617,1,0,0:0:0:0:
284,340,27698,1,0,0:0:0:0:
100,292,27861,6,0,L|108:128,1,150.000005722046,4|0,0:2|2:0,0:0:0:0:
56,72,28351,1,0,0:0:0:0:
252,208,28514,2,0,B|212:212|212:212|176:192,1,75.0000028610231,0|0,0:0|2:0,0:0:0:0:
107,142,28840,1,0,0:0:0:0:
352,124,29003,1,0,2:0:0:0:
348,273,29166,6,0,L|352:117,1,150.000005722046,2|0,0:2|2:0,0:0:0:0:
344,356,29655,1,0,0:0:0:0:
184,304,29818,2,0,L|272:300,1,75.0000028610231,0|0,0:0|2:0,0:0:0:0:
422,276,30144,2,0,L|342:272,1,75.0000028610231
88,136,30470,6,0,P|136:132|248:128,1,150.000005722046,2|0,0:2|2:0,0:0:0:0:
388,72,30959,2,0,L|384:232,2,150.000005722046
160,148,31774,6,0,L|168:224,1,75.0000028610231,2|0,0:2|0:0,0:0:0:0:
144,64,32101,1,0,0:0:0:0:
360,132,32264,1,0,2:0:0:0:
244,260,32427,2,0,L|240:336,1,75.0000028610231,8|0,0:0|0:0,0:0:0:0:
363,206,32753,2,0,L|359:130,1,75.0000028610231
72,128,33079,6,0,P|160:144|220:164,1,150.000005722046,2|0,0:2|2:0,0:0:0:0:
352,108,33568,2,0,P|336:192|324:264,1,150.000005722046,0|0,0:0|2:0,0:0:0:0:
464,352,34057,2,0,P|460:304|456:268,1,75.0000028610231,0|0,0:0|2:0,0:0:0:0:
272,196,34383,6,0,P|248:248|304:332,1,150.000005722046,2|0,0:2|2:0,0:0:0:0:
480,116,34872,2,0,B|404:144|408:84|316:124,1,150.000005722046,0|0,0:0|2:0,0:0:0:0:
148,88,35361,2,0,P|184:72|224:80,1,75.0000028610231,0|0,0:0|2:0,0:0:0:0:
352,276,35688,6,0,B|336:232|352:196|352:196|392:184|408:140,1,150.000005722046,2|0,0:2|0:0,0:0:0:0:
236,120,36177,1,0,2:0:0:0:
242,51,36340,2,0,P|226:91|242:127,1,75.0000028610231
348,292,36666,1,0,2:0:0:0:
400,24,36829,1,0,0:0:0:0:
496,184,36992,5,2,0:2:0:0:
236,208,37155,1,0,0:0:0:0:
204,200,37236,1,0,0:0:0:0:
172,192,37318,1,0,0:0:0:0:
48,48,37481,1,0,2:0:0:0:
56,296,37644,1,8,0:0:0:0:
48,48,37807,2,0,L|52:136,1,75.0000028610231
56,296,38133,2,0,L|96:300,1,37.5000014305115
167,351,38296,6,0,B|266:340|266:340|314:356,2,150,4|2|2,0:0|0:0|0:0,0:0:0:0:
388,241,39601,6,0,L|384:297,2,50,2|0|0,0:0|0:0|0:0,0:0:0:0:
272,176,40090,2,0,L|276:232,1,50
272,176,40416,1,0,0:0:0:0:
196,104,40579,2,0,L|200:40,1,50,2|2,0:0|0:0,0:0:0:0:
152,180,40905,6,0,L|160:280,1,100,2|0,0:0|0:0,0:0:0:0:
296,332,41394,2,0,B|312:284|312:284|292:228,1,100,2|0,0:0|0:0,0:0:0:0:
295,237,41883,1,2,0:0:0:0:
295,237,42209,5,0,0:0:0:0:
320,192,42318,1,0,0:0:0:0:
316,140,42427,1,0,0:0:0:0:
284,96,42535,2,0,L|244:88,2,33.3333333333333
144,136,42861,2,0,L|184:132,2,33.3333333333333
40,96,43188,2,0,L|36:160,1,50,2|2,0:0|0:0,0:0:0:0:
60,256,43514,6,0,P|92:300|180:288,1,150,2|0,0:0|0:0,0:0:0:0:
260,232,44166,2,0,L|256:128,1,100,0|2,0:0|0:0,0:0:0:0:
328,68,44655,1,2,0:0:0:0:
456,212,44818,6,0,B|424:220|424:220|348:208,2,100,0|2|2,0:0|0:0|0:0,0:0:0:0:
356,296,45796,2,0,L|360:348,1,50,2|2,0:0|0:0,0:0:0:0:
248,248,46122,6,0,L|252:204,2,33.3333333333333,2|0|0,0:0|0:0|0:0,0:0:0:0:
144,284,46448,2,0,L|148:328,2,33.3333333333333
72,204,46774,2,0,L|32:200,2,33.3333333333333,2|0|0,0:0|0:0|0:0,0:0:0:0:
148,132,47101,1,0,0:0:0:0:
284,196,47264,2,0,L|320:192,2,25,0|0|0,1:0|1:0|1:0,0:0:0:0:
48,88,47753,5,8,1:0:0:0:
156,48,47916,1,0,0:0:0:0:
48,88,48079,2,0,L|52:156,1,50,0|0,1:0|0:0,0:0:0:0:
176,248,48405,2,0,L|180:188,1,50,0|0,1:0|0:0,0:0:0:0:
52,332,48731,6,0,L|248:340,1,187.5,6|0,0:0|3:0,0:0:0:0:
239,339,49383,1,8,1:0:0:0:
40,336,49546,2,0,L|44:272,1,62.5
36,176,50035,6,0,B|80:168|80:168|160:184,1,125,2|0,0:0|0:0,0:0:0:0:
158,183,50524,1,0,3:0:0:0:
360,156,50688,2,0,P|312:120|240:136,1,125,8|0,1:0|0:0,0:0:0:0:
288,200,51177,1,0,0:0:0:0:
291,324,51340,6,0,L|287:192,1,125,4|0,0:0|0:0,0:0:0:0:
288,344,51829,1,0,3:0:0:0:
76,328,51992,2,0,B|124:332|124:332|152:320|152:320|200:324,1,125,8|0,1:0|0:0,0:0:0:0:
76,328,52644,6,0,P|64:300|72:264,1,62.5,2|0,0:0|3:0,0:0:0:0:
104,148,52970,2,0,P|128:124|160:116,1,62.5,0|0,0:0|3:0,0:0:0:0:
300,196,53296,2,0,L|176:192,1,125,8|0,1:0|0:0,0:0:0:0:
320,196,53785,1,0,0:0:0:0:
140,296,53948,6,0,L|272:292,1,125,4|0,0:0|0:0,0:0:0:0:
116,300,54438,1,0,3:0:0:0:
48,208,54601,2,0,P|40:176|52:136,1,62.5,8|0,1:0|0:0,0:0:0:0:
200,244,54927,2,0,P|172:260|136:264,1,62.5
184,44,55253,5,2,0:0:0:0:
136,172,55416,1,0,0:0:0:0:
292,148,55579,1,0,0:0:0:0:
96,88,55742,1,0,3:0:0:0:
142,264,55905,2,0,L|138:336,1,62.5,8|0,1:0|0:0,0:0:0:0:
368,248,56231,2,0,L|364:184,1,62.5
408,112,56476,1,0,1:0:0:0:
384,104,56557,6,0,P|316:116|284:168,1,125,4|0,0:0|0:0,0:0:0:0:
372,280,57046,1,0,3:0:0:0:
200,320,57209,2,0,P|232:336|280:328,1,62.5,8|0,1:0|0:0,0:0:0:0:
152,176,57535,1,0,0:0:0:0:
360,80,57698,1,0,0:0:0:0:
360,80,57780,1,0,0:0:0:0:
360,80,57861,6,0,L|368:128,1,31.25,0|0,1:0|0:0,0:0:0:0:
424,256,58024,2,0,L|428:216,1,31.25
304,172,58188,1,0,0:0:0:0:
264,160,58269,1,0,0:0:0:0:
220,160,58351,1,0,0:0:0:0:
176,188,58432,1,0,0:0:0:0:
160,240,58514,1,8,1:0:0:0:
160,240,58840,6,0,P|124:272|76:264,1,93.75
24,192,59167,6,0,L|28:88,1,100,6|0,0:1|2:0,0:0:0:0:
175,157,59493,1,8,0:1:0:0:
272,168,59656,1,0,0:0:0:0:
272,168,59737,1,0,0:0:0:0:
272,168,59819,2,0,P|224:152|168:160,1,100,2|0,0:0|0:0,0:0:0:0:
96,216,60063,1,0,0:0:0:0:
88,236,60145,1,8,0:1:0:0:
60,40,60308,1,0,0:0:0:0:
272,168,60471,6,0,L|376:164,1,100,2|0,0:0|0:0,0:0:0:0:
216,92,60797,1,8,0:1:0:0:
320,264,60960,2,0,P|328:292|332:316,1,50,0|8,0:0|0:1,0:0:0:0:
148,340,61123,2,0,P|140:312|136:284,1,50,2|0,0:0|0:0,0:0:0:0:
236,300,61286,1,0,0:0:0:0:
216,92,61449,2,0,L|224:200,1,100,8|0,0:1|0:0,0:0:0:0:
480,256,61775,6,0,L|488:152,1,100,2|0,0:1|0:0,0:0:0:0:
352,48,62101,1,8,0:1:0:0:
140,108,62264,1,0,0:0:0:0:
140,108,62346,1,0,0:0:0:0:
140,108,62427,2,0,L|136:164,1,50,2|0,0:0|0:0,0:0:0:0:
120,296,62590,1,0,0:0:0:0:
320,340,62753,2,0,P|260:352|220:320,1,100,8|0,0:1|0:0,0:0:0:0:
32,148,63080,6,0,B|80:136|80:136|136:152,1,100,2|0,0:0|0:0,0:0:0:0:
468,264,63406,2,0,B|420:276|420:276|364:248,1,100,8|0,0:1|0:0,0:0:0:0:
288,188,63650,1,8,0:1:0:0:
268,176,63732,2,0,P|256:152|256:128,1,50,2|0,0:0|0:0,0:0:0:0:
444,88,63895,2,0,P|456:116|456:140,1,50
356,124,64058,1,8,0:1:0:0:
104,100,64221,1,0,0:0:0:0:
56,320,64384,6,0,B|36:272|36:272|48:220,1,100,6|0,0:1|0:0,0:0:0:0:
124,80,64710,1,8,0:1:0:0:
46,225,64873,1,0,0:0:0:0:
284,196,65036,2,0,L|176:192,1,100,2|0,0:0|0:0,0:0:0:0:
184,192,65281,1,0,0:0:0:0:
184,192,65362,1,8,0:1:0:0:
300,52,65525,1,0,0:0:0:0:
392,336,65688,6,0,B|312:372|252:324|252:324|240:256,1,200,2|8,0:0|0:1,0:0:0:0:
280,40,66177,1,0,0:0:0:0:
304,32,66259,1,8,0:1:0:0:
328,28,66340,1,2,0:0:0:0:
96,156,66503,2,0,L|-4:144,1,100,0|8,0:0|0:1,0:0:0:0:
160,68,66830,1,0,0:0:0:0:
124,264,66993,6,0,P|176:304|264:296,1,150,2|0,0:1|0:0,0:0:0:0:
336,236,67319,2,0,L|440:240,1,100,8|0,0:1|0:0,0:0:0:0:
312,120,67645,1,2,0:0:0:0:
344,344,67808,1,0,0:0:0:0:
384,44,67971,1,8,0:1:0:0:
192,92,68134,6,0,P|136:72|72:128,1,150,4|0,0:1|0:0,0:0:0:0:
224,180,68460,2,0,P|228:148|220:124,1,50,0|0,1:0|0:0,0:0:0:0:
48,212,68623,2,0,P|72:236|96:244,1,50,8|0,0:1|0:0,0:0:0:0:
224,180,68786,1,0,0:0:0:0:
264,176,68868,1,8,0:1:0:0:
300,172,68949,1,2,0:0:0:0:
336,168,69031,1,8,0:1:0:0:
372,164,69112,2,0,L|368:220,1,50
260,340,69275,2,0,L|256:284,1,50,8|0,0:1|0:0,0:0:0:0:
168,128,69438,2,0,L|164:184,1,50,0|0,1:0|1:0,0:0:0:0:
88,344,69601,6,0,B|72:296|72:296|96:240,1,100,6|0,0:1|0:0,0:0:0:0:
80,56,69927,1,8,0:1:0:0:
260,188,70090,2,0,P|228:196|204:196,1,50
24,148,70253,2,0,P|52:144|76:144,1,50,2|0,0:0|0:0,0:0:0:0:
144,172,70417,1,0,0:0:0:0:
140,280,70580,2,0,P|124:232|140:180,1,100,8|0,0:1|0:0,0:0:0:0:
200,88,70906,5,2,0:0:0:0:
208,360,71069,1,0,0:0:0:0:
412,272,71232,1,8,0:1:0:0:
120,248,71395,1,0,0:0:0:0:
120,248,71476,1,8,0:1:0:0:
120,248,71558,2,0,L|124:192,1,50,2|0,0:0|0:0,0:0:0:0:
224,100,71721,2,0,L|220:160,1,50
304,216,71884,1,8,0:1:0:0:
128,112,72047,1,0,0:0:0:0:
304,216,72210,6,0,B|352:236|352:236|404:228,1,100,2|0,0:1|0:0,0:0:0:0:
456,64,72536,1,8,0:1:0:0:
236,156,72699,1,0,0:0:0:0:
196,152,72781,1,0,0:0:0:0:
160,148,72862,1,2,0:0:0:0:
120,144,72944,1,0,0:0:0:0:
88,140,73025,1,0,0:0:0:0:
340,80,73188,2,0,L|444:76,1,100,8|0,0:1|0:0,0:0:0:0:
216,244,73514,5,2,0:0:0:0:
256,28,73677,1,0,0:0:0:0:
472,180,73840,1,8,0:1:0:0:
216,244,74003,1,0,0:0:0:0:
216,244,74085,1,8,0:1:0:0:
216,244,74167,2,0,P|192:232|156:224,1,50,2|0,0:0|0:0,0:0:0:0:
20,176,74330,2,0,P|52:164|72:148,1,50
168,64,74493,1,8,0:1:0:0:
220,56,74574,1,0,0:0:0:0:
272,72,74656,1,0,0:0:0:0:
304,120,74737,1,0,0:0:0:0:
312,168,74819,6,0,L|304:328,1,160,4|0,0:0|0:0,0:0:0:0:
424,308,75308,1,0,0:0:0:0:
216,256,75471,2,0,P|152:232|72:280,1,160,0|0,1:0|0:0,0:0:0:0:
232,268,75960,1,0,0:0:0:0:
228,72,76123,6,0,L|232:164,1,80,0|0,0:0|1:0,0:0:0:0:
432,180,76449,1,0,0:0:0:0:
224,52,76612,1,0,0:0:0:0:
432,280,76775,2,0,L|436:188,1,80,0|0,1:0|0:0,0:0:0:0:
220,296,77101,1,0,0:0:0:0:
60,148,77264,1,0,1:0:0:0:
60,148,77346,1,0,1:0:0:0:
60,148,77427,6,0,P|120:104|208:132,2,160,0|0|0,0:0|0:0|1:0,0:0:0:0:
140,192,78243,1,0,0:0:0:0:
368,244,78406,2,0,P|320:240|276:236,1,80,0|0,0:0|3:0,0:0:0:0:
72,316,78732,6,0,P|112:312|152:308,1,80
308,351,79058,1,0,1:0:0:0:
140,196,79221,1,0,3:0:0:0:
316,272,79384,2,0,P|312:308|308:360,1,80,2|0,0:0|0:0,0:0:0:0:
140,196,79710,2,0,L|136:164,6,20
196,40,80036,6,0,P|256:96|232:160,1,150.000005722046,6|0,0:0|0:0,0:0:0:0:
239,153,80525,1,0,2:0:0:0:
24,220,80688,2,0,L|188:216,1,150.000005722046,8|0,0:0|2:0,0:0:0:0:
60,128,81177,1,0,0:0:0:0:
260,296,81340,6,0,L|348:300,1,75.0000028610231,2|0,0:2|2:0,0:0:0:0:
100,216,81666,2,0,L|20:220,1,75.0000028610231,0|0,0:0|2:0,0:0:0:0:
257,151,81992,2,0,B|277:199|277:199|257:307,1,150.000005722046,8|0,0:0|2:0,0:0:0:0:
68,304,82481,2,0,L|112:308,1,37.5000014305115,0|0,0:0|2:0,0:0:0:0:
252,304,82644,6,0,P|308:280|360:352,1,150.000005722046,2|0,0:2|2:0,0:0:0:0:
424,208,83133,1,0,0:0:0:0:
184,224,83296,2,0,P|228:228|264:236,1,75.0000028610231,8|0,0:0|2:0,0:0:0:0:
496,189,83622,2,0,P|452:197|420:209,1,75.0000028610231
184,224,83949,6,0,L|188:144,1,75.0000028610231,2|0,0:2|0:0,0:0:0:0:
444,36,84275,2,0,L|448:112,1,75.0000028610231,0|0,2:0|0:0,0:0:0:0:
176,144,84601,1,8,0:0:0:0:
420,212,84764,1,0,0:0:0:0:
144,288,84927,1,0,0:0:0:0:
432,220,85090,2,0,P|412:224|388:232,1,37.5000014305115
272,308,85253,6,0,P|276:204|280:144,1,150.000005722046,2|0,0:2|0:0,0:0:0:0:
278,158,85742,1,0,2:0:0:0:
80,64,85905,2,0,P|152:44|212:96,1,150.000005722046,8|0,0:0|2:0,0:0:0:0:
276,320,86394,1,0,0:0:0:0:
416,144,86557,6,0,P|412:104|404:64,1,75.0000028610231,2|0,0:2|2:0,0:0:0:0:
136,124,86883,2,0,P|140:164|148:204,1,75.0000028610231
356,292,87209,2,0,P|296:240|208:264,1,150.000005722046,8|0,0:0|2:0,0:0:0:0:
52,320,87699,2,0,L|56:280,1,37.5000014305115,0|0,0:0|2:0,0:0:0:0:
164,192,87862,6,0,L|8:184,1,150.000005722046,2|0,0:2|0:0,0:0:0:0:
240,120,88351,1,0,0:0:0:0:
356,336,88514,2,0,P|352:240|348:172,1,150.000005722046,8|0,0:0|0:0,0:0:0:0:
88,152,89003,6,0,B|64:196|92:244|92:244|68:264|64:304,2,150.000005722046,2|0|0,0:2|0:0|0:0,0:0:0:0:
208,56,89818,1,8,0:0:0:0:
276,252,89981,1,0,0:0:0:0:
276,252,90063,1,0,2:0:0:0:
276,252,90144,2,0,L|316:248,1,37.5000014305115,0|0,0:0|2:0,0:0:0:0:
476,152,90307,2,0,L|436:156,1,37.5000014305115
260,124,90470,6,0,B|216:136|216:136|104:124,1,150.000005722046,6|0,0:0|0:0,0:0:0:0:
24,40,90959,2,0,L|28:-8,1,37.5000014305115,0|0,0:0|2:0,0:0:0:0:
48,192,91122,2,0,L|56:344,1,150.000005722046,8|0,0:0|0:0,0:0:0:0:
232,336,91612,2,0,P|256:332|276:332,1,37.5000014305115,0|0,0:0|2:0,0:0:0:0:
456,256,91775,6,0,L|460:176,1,75.0000028610231,2|0,0:2|2:0,0:0:0:0:
288,332,92101,1,0,0:0:0:0:
172,44,92264,2,0,L|124:48,1,37.5000014305115,0|0,2:0|2:0,0:0:0:0:
12,180,92427,2,0,P|84:184|168:192,1,150.000005722046,8|0,0:0|0:0,0:0:0:0:
281,295,92916,2,0,P|285:315|289:347,1,37.5000014305115,0|0,0:0|2:0,0:0:0:0:
392,228,93079,6,0,P|360:168|404:88,1,150.000005722046,2|0,0:2|0:0,0:0:0:0:
364,324,93568,2,0,L|360:364,1,37.5000014305115,0|0,0:0|2:0,0:0:0:0:
232,212,93731,2,0,B|192:228|192:228|76:220,1,150.000005722046,8|0,0:0|0:0,0:0:0:0:
24,72,94220,2,0,P|32:48|44:24,1,37.5000014305115,0|0,0:0|2:0,0:0:0:0:
220,137,94383,6,0,P|228:177|232:225,1,75.0000028610231,2|0,0:2|2:0,0:0:0:0:
48,304,94709,1,0,0:0:0:0:
48,304,94872,2,0,L|44:260,1,37.5000014305115
144,104,95036,2,0,L|140:148,1,37.5000014305115,8|0,0:0|2:0,0:0:0:0:
236,288,95199,1,0,0:0:0:0:
284,296,95280,1,0,2:0:0:0:
336,308,95362,2,0,L|388:304,1,37.5000014305115,0|0,0:0|2:0,0:0:0:0:
472,152,95525,2,0,L|432:148,1,37.5000014305115,0|0,0:0|2:0,0:0:0:0:
240,40,95688,6,0,L|248:200,1,150.000005722046,2|0,0:2|0:0,0:0:0:0:
440,344,96177,1,0,2:0:0:0:
104,320,96340,2,0,L|100:164,1,150.000005722046,8|0,0:0|0:0,0:0:0:0:
164,20,96829,2,0,P|184:40|192:64,1,37.5000014305115,0|0,0:0|2:0,0:0:0:0:
120,240,96992,6,0,P|80:240|48:220,1,75.0000028610231,2|0,0:2|2:0,2:0:0:0:
336,200,97318,2,0,P|376:196|416:216,1,75.0000028610231,0|0,0:0|2:0,0:0:0:0:
172,320,97644,2,0,P|96:324|16:332,1,150.000005722046,8|0,0:0|0:0,0:0:0:0:
112,212,98052,1,0,2:0:0:0:
128,196,98133,2,0,L|124:144,1,37.5000014305115,0|0,0:0|2:0,0:0:0:0:
20,32,98296,6,0,P|96:40|184:40,1,150.000005722046,2|0,0:2|0:0,0:0:0:0:
343,43,98786,1,0,2:0:0:0:
336,193,98949,2,0,L|344:25,1,150.000005722046,8|0,0:0|2:0,0:0:0:0:
96,288,99438,6,0,L|12:284,1,75.0000028610231,2|0,0:2|2:0,0:0:0:0:
420,220,99764,2,0,L|504:216,1,75.0000028610231,2|0,0:2|2:0,0:0:0:0:
112,96,100090,2,0,L|28:92,1,75.0000028610231,2|0,0:2|2:0,0:0:0:0:
104,336,100416,5,0,3:0:0:0:
412,228,100579,1,8,0:0:0:0:
120,100,100742,1,8,0:0:0:0:
